<?xml version="1.0" standalone="no"?>
<!DOCTYPE svg PUBLIC "-//W3C//DTD SVG 1.1//EN" "http://www.w3.org/Graphics/SVG/1.1/DTD/svg11.dtd" >
<svg xmlns="http://www.w3.org/2000/svg" xmlns:xlink="http://www.w3.org/1999/xlink" version="1.1">
<metadata>
Created by FontForge 20170731 at Fri Apr 28 08:54:57 2023
 By Aleksey,,,
Copyright (c) 2016 by Radomir Tinkov. All rights reserved.
</metadata>
<defs>
<font id="Gilroy-Light" horiz-adv-x="1155" >
  <font-face 
    font-family="Gilroy Light"
    font-weight="300"
    font-stretch="normal"
    units-per-em="2048"
    panose-1="0 0 4 0 0 0 0 0 0 0"
    ascent="1638"
    descent="-410"
    x-height="1024"
    cap-height="1434"
    bbox="-604 -492 2091 1966"
    underline-thickness="102"
    underline-position="-307"
    unicode-range="U+0020-FB02"
  />
<missing-glyph horiz-adv-x="1024" 
d="M840 1638v-2048h-650v2048h650zM682 1501h-338v-67h133v-76h-135v-68h340v68h-135v76h135v67zM547 1237h-205v-213h340v70h-135v143zM477 1167v-73h-67v73h67zM682 969h-340v-68h135v-76h-135v-67h205v143h135v68zM682 846h-68v-135h-272v-70h340v205zM682 596h-205v-115
h70v47h67v-96h-204v164h-68v-231h340v231zM682 242h-340v-232h340v232zM614 174v-96h-204v96h204zM682 -37h-340v-67h143l-143 -97v-67h340v67h-209l143 97h66v67z" />
    <glyph glyph-name="fi" unicode="fi" horiz-adv-x="1044" 
d="M889 1024v-1024h-105v924h-448v-924h-105v924h-176v100h176v55q0 188 104 282.5t306 94.5q92 0 199 -22v-95q-108 19 -199 19q-158 0 -231.5 -65.5t-73.5 -213.5v-55h553z" />
    <glyph glyph-name="fl" unicode="fl" horiz-adv-x="1044" 
d="M641 1456q113 0 248 -22v-1434h-105v1354q-63 8 -143 8q-158 0 -231.5 -67.5t-73.5 -215.5v-55h244v-100h-244v-924h-105v924h-176v100h176v55q0 188 104 282.5t306 94.5z" />
    <glyph glyph-name="f_f" unicode="ff" horiz-adv-x="1193" 
d="M1194 1378q-156 12 -230.5 -57.5t-74.5 -220.5v-76h305v-100h-305v-924h-105v924h-448v-924h-105v924h-176v100h176v55q0 192 106 292t304 85v-98q-155 12 -230 -58t-75 -221v-55h448v76q0 192 105 292t305 85v-99z" />
    <glyph glyph-name="f_f_i" unicode="ffi" horiz-adv-x="1597" 
d="M1440 1024v-1024h-103v924h-448v-924h-105v924h-448v-924h-105v924h-176v100h176v55q0 192 106 292t304 85v-98q-155 12 -230 -58t-75 -221v-55h448v76q0 377 410 377q84 0 199 -23v-94q-102 18 -199 18q-160 0 -232.5 -65t-72.5 -213v-76h551z" />
    <glyph glyph-name="f_f_l" unicode="ffl" horiz-adv-x="1597" 
d="M1194 1477q108 0 246 -23v-1454h-103v1374q-63 8 -143 8q-159 0 -232 -66.5t-73 -215.5v-76h244v-100h-244v-924h-105v924h-448v-924h-105v924h-176v100h176v55q0 192 106 292t304 85v-98q-155 12 -230 -58t-75 -221v-55h448v76q0 377 410 377z" />
    <glyph glyph-name=".notdef" horiz-adv-x="1024" 
d="M840 1638v-2048h-650v2048h650zM682 1501h-338v-67h133v-76h-135v-68h340v68h-135v76h135v67zM547 1237h-205v-213h340v70h-135v143zM477 1167v-73h-67v73h67zM682 969h-340v-68h135v-76h-135v-67h205v143h135v68zM682 846h-68v-135h-272v-70h340v205zM682 596h-205v-115
h70v47h67v-96h-204v164h-68v-231h340v231zM682 242h-340v-232h340v232zM614 174v-96h-204v96h204zM682 -37h-340v-67h143l-143 -97v-67h340v67h-209l143 97h66v67z" />
    <glyph glyph-name=".null" horiz-adv-x="0" 
 />
    <glyph glyph-name="nonmarkingreturn" horiz-adv-x="682" 
 />
    <glyph glyph-name="space" unicode=" " horiz-adv-x="546" 
 />
    <glyph glyph-name="exclam" unicode="!" horiz-adv-x="450" 
d="M184 369l-20 655v410h123v-410l-21 -655h-82zM225 -20q-38 0 -65 27t-27 65t27 65t65 27t65 -27t27 -65t-27 -65t-65 -27z" />
    <glyph glyph-name="quotedbl" unicode="&#x22;" horiz-adv-x="600" 
d="M123 1051l-14 383h110l-14 -383h-82zM395 1051l-12 383h109l-15 -383h-82z" />
    <glyph glyph-name="numbersign" unicode="#" horiz-adv-x="1234" 
d="M1145 854h-244l-45 -274h246l-17 -95h-245l-64 -383h-102l63 383h-315l-64 -383h-102l63 383h-243l14 95h246l45 274h-246l15 94h247l64 383h102l-63 -383h315l64 383h102l-63 -383h243zM754 580l45 274h-316l-45 -274h316z" />
    <glyph glyph-name="dollar" unicode="$" horiz-adv-x="1126" 
d="M1038 367q0 -159 -110 -264.5t-287 -122.5v-185h-96v182q-170 8 -290 84t-167 207l94 54q36 -108 129 -170.5t234 -69.5v608q-53 19 -88 32.5t-80 35t-73.5 41.5t-59.5 50t-48 62.5t-28.5 76.5t-11.5 95q0 156 111 258t278 113v184h96v-184q125 -14 221 -80t142 -178
l-93 -51q-72 179 -270 203v-582q75 -27 123 -47t105.5 -55t90.5 -73t55.5 -95.5t22.5 -128.5zM264 1083q0 -47 14.5 -86t37 -66t61 -52t76 -41.5t92.5 -36.5v549q-125 -10 -203 -84.5t-78 -182.5zM641 86q135 15 211 91.5t76 189.5q0 60 -20 105.5t-61.5 79.5t-88.5 57
t-117 48v-571z" />
    <glyph glyph-name="percent" unicode="%" horiz-adv-x="1466" 
d="M442 846q-134 0 -223.5 88.5t-89.5 216.5t89.5 216.5t223.5 88.5t224 -88.5t90 -216.5q0 -129 -89 -217t-225 -88zM442 940q93 0 153 60.5t60 150.5t-60 150.5t-153 60.5q-92 0 -151.5 -60.5t-59.5 -150.5t59.5 -150.5t151.5 -60.5zM207 184l973 1094l69 -39l-975 -1094z
M1022 -23q-134 0 -223.5 88.5t-89.5 217.5q0 128 89.5 216.5t223.5 88.5t223.5 -88.5t89.5 -216.5q0 -129 -89.5 -217.5t-223.5 -88.5zM1022 72q93 0 153 60.5t60 150.5t-60 150.5t-153 60.5q-92 0 -151.5 -60.5t-59.5 -150.5t59.5 -150.5t151.5 -60.5z" />
    <glyph glyph-name="ampersand" unicode="&#x26;" horiz-adv-x="1341" 
d="M1286 39l-96 -55l-166 174q-157 -181 -428 -181q-213 0 -340 109.5t-127 294.5q0 136 74 246.5t211 171.5q-55 64 -85 130t-30 150q0 114 57.5 201.5t149 131.5t199.5 44q137 0 245.5 -72t153.5 -198l-90 -53q-32 101 -115 160t-192 59q-128 0 -212.5 -75.5t-84.5 -193.5
q0 -80 38.5 -144t116.5 -144l449 -469q66 122 86 284l96 -55q-28 -177 -106 -309zM592 82q222 0 358 154l-461 483q-127 -48 -188 -138.5t-61 -197.5q0 -140 95 -220.5t257 -80.5z" />
    <glyph glyph-name="quotesingle" unicode="'" horiz-adv-x="321" 
d="M123 1051l-14 383h110l-14 -383h-82z" />
    <glyph glyph-name="parenleft" unicode="(" horiz-adv-x="534" 
d="M348 -205q-225 452 -225 922q0 469 225 921h105q-226 -454 -226 -921q0 -468 226 -922h-105z" />
    <glyph glyph-name="parenright" unicode=")" horiz-adv-x="534" 
d="M186 -205h-104q225 452 225 922q0 469 -225 921h104q226 -454 226 -921q0 -468 -226 -922z" />
    <glyph glyph-name="asterisk" unicode="*" horiz-adv-x="792" 
d="M662 1251v-88l-195 4l108 -161l-79 -48l-101 172l-98 -172l-82 48l109 161l-195 -4v88l195 -4l-109 162l82 47l98 -170l101 170l79 -47l-108 -162z" />
    <glyph glyph-name="plus" unicode="+" horiz-adv-x="1091" 
d="M963 766v-98h-367v-367h-100v367h-367v98h367v367h100v-367h367z" />
    <glyph glyph-name="comma" unicode="," horiz-adv-x="456" 
d="M332 139l-111 -426h-94l78 426h127z" />
    <glyph glyph-name="hyphen" unicode="-" horiz-adv-x="1091" 
d="M178 584v98h737v-98h-737z" />
    <glyph glyph-name="period" unicode="." horiz-adv-x="436" 
d="M219 -20q-39 0 -65.5 26.5t-26.5 65.5t26.5 65.5t65.5 26.5q38 0 65 -27t27 -65t-27 -65t-65 -27z" />
    <glyph glyph-name="slash" unicode="/" horiz-adv-x="1079" 
d="M170 -205h-82l819 1843h82z" />
    <glyph glyph-name="zero" unicode="0" horiz-adv-x="1290" 
d="M645 -23q-169 0 -291 93t-183.5 259t-61.5 388t61.5 387.5t183.5 258.5t291 93t291 -93t184 -258.5t62 -387.5t-62 -388t-184 -259t-291 -93zM645 82q200 0 313 167.5t113 467.5t-113 467.5t-313 167.5t-313 -167.5t-113 -467.5t113 -467.5t313 -167.5z" />
    <glyph glyph-name="one" unicode="1" horiz-adv-x="679" 
d="M410 1434h92v-1434h-109v1315l-332 -105l-26 95z" />
    <glyph glyph-name="two" unicode="2" horiz-adv-x="1079" 
d="M88 0v98l526 541q110 113 171 210.5t61 194.5q0 143 -90 225.5t-226 82.5q-239 0 -342 -217l-92 55q63 130 177.5 198t256.5 68q112 0 207.5 -46.5t157 -142t61.5 -223.5q0 -123 -71 -239t-197 -244l-444 -457h745v-104h-901z" />
    <glyph glyph-name="three" unicode="3" horiz-adv-x="1103" 
d="M596 838q116 -12 207.5 -63t148 -145t56.5 -216q0 -101 -38 -184.5t-103 -138t-150.5 -84.5t-181.5 -30q-160 0 -282.5 71.5t-174.5 201.5l90 53q40 -107 135.5 -164t231.5 -57q160 0 262 90t102 242t-103 241.5t-266 89.5h-30l-47 72l362 514h-700v103h825v-103z" />
    <glyph glyph-name="four" unicode="4" horiz-adv-x="1173" 
d="M1122 403v-102h-184v-301h-109v301h-772v102l545 1031h119l-543 -1031h651v451h109v-451h184z" />
    <glyph glyph-name="five" unicode="5" horiz-adv-x="1107" 
d="M545 850q131 0 238 -50.5t173 -151t66 -234.5t-66 -235t-173 -151.5t-238 -50.5q-158 0 -281.5 75.5t-171.5 213.5l92 53q35 -114 131 -175.5t230 -61.5q163 0 265.5 89.5t102.5 242.5t-102.5 242t-265.5 89h-383l49 689h758v-103h-662l-33 -481h271z" />
    <glyph glyph-name="six" unicode="6" horiz-adv-x="1099" 
d="M549 922q210 0 345.5 -131.5t135.5 -341.5q0 -208 -135.5 -340t-345.5 -132t-345.5 132t-135.5 340q0 161 88 286l481 699h123l-367 -535q80 23 156 23zM549 82q168 0 270.5 102.5t102.5 264.5q0 163 -102 265.5t-271 102.5q-168 0 -269.5 -102.5t-101.5 -265.5
q0 -162 101.5 -264.5t269.5 -102.5z" />
    <glyph glyph-name="seven" unicode="7" horiz-adv-x="1003" 
d="M47 1434h868v-103l-557 -1331h-112l557 1331h-756v103z" />
    <glyph glyph-name="eight" unicode="8" horiz-adv-x="1126" 
d="M782 741q118 -47 187 -140.5t69 -217.5q0 -127 -63.5 -220t-170 -139.5t-241.5 -46.5t-241.5 46.5t-170 139.5t-63.5 220q0 124 69 217.5t187 140.5q-96 47 -152.5 132.5t-56.5 195.5q0 122 61 212t156.5 132.5t210.5 42.5t210.5 -42.5t156.5 -132.5t61 -212
q0 -110 -56.5 -195.5t-152.5 -132.5zM244 1069q0 -129 90 -205t229 -76t229.5 76t90.5 205q0 134 -90 208.5t-230 74.5t-229.5 -74.5t-89.5 -208.5zM563 82q169 0 267 80t98 221q0 140 -98.5 219.5t-266.5 79.5t-266 -79.5t-98 -219.5q0 -141 98 -221t266 -80z" />
    <glyph glyph-name="nine" unicode="9" horiz-adv-x="1099" 
d="M1030 985q0 -162 -88 -287l-479 -698h-123l367 535q-81 -23 -158 -23q-210 0 -345.5 131.5t-135.5 341.5q0 208 135.5 339.5t345.5 131.5t345.5 -131.5t135.5 -339.5zM178 985q0 -163 101.5 -266t269.5 -103q169 0 271 103t102 266q0 162 -102.5 264.5t-270.5 102.5
t-269.5 -102.5t-101.5 -264.5z" />
    <glyph glyph-name="colon" unicode=":" horiz-adv-x="436" 
d="M219 840q-39 0 -65.5 26.5t-26.5 65.5t26.5 65.5t65.5 26.5q38 0 65 -27t27 -65t-27 -65t-65 -27zM219 -20q-39 0 -65.5 26.5t-26.5 65.5t26.5 65.5t65.5 26.5q38 0 65 -27t27 -65t-27 -65t-65 -27z" />
    <glyph glyph-name="semicolon" unicode=";" horiz-adv-x="471" 
d="M254 840q-39 0 -65.5 26.5t-26.5 65.5t26.5 65.5t65.5 26.5q38 0 65 -27t27 -65t-27 -65t-65 -27zM332 139l-111 -426h-94l78 426h127z" />
    <glyph glyph-name="less" unicode="&#x3c;" horiz-adv-x="1079" 
d="M950 1135v-115l-702 -303l702 -303v-115l-819 365v106z" />
    <glyph glyph-name="equal" unicode="=" horiz-adv-x="1099" 
d="M129 872v99h840v-99h-840zM129 463v98h840v-98h-840z" />
    <glyph glyph-name="greater" unicode="&#x3e;" horiz-adv-x="1079" 
d="M129 1135l819 -365v-106l-819 -365v115l702 303l-702 303v115z" />
    <glyph glyph-name="question" unicode="?" horiz-adv-x="1085" 
d="M451 369q0 73 22 138.5t56.5 114.5t77 94.5t84.5 87.5t76.5 84t56.5 93t22 106q0 127 -84.5 196t-226.5 69q-123 0 -212 -56t-122 -161l-92 51q46 130 162.5 200t263.5 70q181 0 301 -97.5t120 -271.5q0 -63 -22 -120.5t-57 -103t-77 -89.5t-84.5 -88.5t-77.5 -90.5
t-57 -104.5t-22 -121.5h-108zM506 -20q-39 0 -65.5 26.5t-26.5 65.5t26.5 65.5t65.5 26.5q38 0 65 -27t27 -65t-27 -65t-65 -27z" />
    <glyph glyph-name="at" unicode="@" horiz-adv-x="1652" 
d="M842 1253q133 0 249.5 -40t201 -109t145.5 -158.5t91 -190t30 -202.5q0 -112 -25 -198t-67.5 -134.5t-91.5 -72t-103 -23.5q-87 0 -144.5 49t-70.5 139q-41 -60 -104.5 -94.5t-141.5 -34.5q-142 0 -237 94.5t-95 233.5t95 233.5t237 94.5q76 0 139 -32.5t103 -90.5v108
h98v-456q0 -83 32.5 -135t102.5 -52q95 0 156 93.5t61 277.5q0 136 -51 256.5t-139 206.5t-210.5 136t-260.5 50q-142 0 -269.5 -53t-220.5 -144t-147.5 -219.5t-54.5 -273.5q0 -147 55 -275.5t151.5 -219.5t232 -143t290.5 -52q207 0 350 57l6 -53q-151 -55 -356 -55
q-165 0 -310 56t-249 153t-164 235t-60 297q0 152 57 288.5t155.5 236t237.5 158t296 58.5zM815 279q100 0 169 65.5t69 167.5t-69 167.5t-169 65.5t-168.5 -65.5t-68.5 -167.5t68.5 -167.5t168.5 -65.5z" />
    <glyph glyph-name="A" unicode="A" horiz-adv-x="1288" 
d="M1143 0l-139 365h-719l-140 -365h-114l557 1434h114l555 -1434h-114zM326 467h639l-320 833z" />
    <glyph glyph-name="B" unicode="B" horiz-adv-x="1275" 
d="M942 743q110 -42 178 -137t68 -215q0 -163 -114 -277t-277 -114h-619v1434h572q156 0 266 -110.5t110 -266.5q0 -103 -49.5 -186t-134.5 -128zM750 1331h-463v-549h463q110 0 189 80.5t79 194.5t-78.5 194t-189.5 80zM797 102q117 0 199.5 84.5t82.5 204.5t-82.5 204.5
t-199.5 84.5h-510v-578h510z" />
    <glyph glyph-name="C" unicode="C" horiz-adv-x="1538" 
d="M842 -23q-160 0 -300 58t-237 157.5t-153 236t-56 288.5t56 288t153 235.5t237 157.5t300 58q196 0 360 -93t254 -251l-96 -55q-71 133 -211 214t-307 81q-138 0 -258 -50t-202.5 -135.5t-129.5 -202t-47 -247.5t47 -247.5t129.5 -202t202.5 -135.5t258 -50
q169 0 310 82.5t212 218.5l96 -55q-89 -160 -254 -255.5t-364 -95.5z" />
    <glyph glyph-name="D" unicode="D" horiz-adv-x="1488" 
d="M717 1434q145 0 271.5 -56.5t215 -153.5t139 -228.5t50.5 -278.5t-50.5 -278.5t-139 -228.5t-215 -153.5t-271.5 -56.5h-539v1434h539zM717 102q165 0 296 83t202 223t71 309t-71 309t-202 222.5t-296 82.5h-430v-1229h430z" />
    <glyph glyph-name="E" unicode="E" horiz-adv-x="1091" 
d="M287 102h717v-102h-826v1434h815v-103h-706v-557h655v-102h-655v-570z" />
    <glyph glyph-name="F" unicode="F" horiz-adv-x="1060" 
d="M973 1331h-686v-573h661v-103h-661v-655h-109v1434h795v-103z" />
    <glyph glyph-name="G" unicode="G" horiz-adv-x="1636" 
d="M1542 668v-56q0 -130 -48.5 -245.5t-136 -202t-219 -137t-288.5 -50.5q-217 0 -390.5 99.5t-268.5 268t-95 372.5q0 152 56 288t153 235.5t237 157.5t300 58q197 0 361 -94t255 -252l-96 -57q-71 136 -211.5 217.5t-308.5 81.5q-138 0 -258 -50t-202.5 -135.5
t-129.5 -202t-47 -247.5q0 -176 80 -320t228.5 -229.5t336.5 -85.5q127 0 234 37.5t179.5 103.5t116 153.5t52.5 188.5h-609v103h719z" />
    <glyph glyph-name="H" unicode="H" horiz-adv-x="1406" 
d="M1120 1434h109v-1434h-109v686h-833v-686h-109v1434h109v-646h833v646z" />
    <glyph glyph-name="I" unicode="I" horiz-adv-x="464" 
d="M178 1434h109v-1434h-109v1434z" />
    <glyph glyph-name="J" unicode="J" horiz-adv-x="1132" 
d="M516 -23q-151 0 -263.5 61.5t-164.5 178.5l92 55q37 -95 124.5 -142.5t211.5 -47.5q161 0 255.5 80.5t94.5 230.5v1041h111v-1041q0 -133 -63 -228.5t-165.5 -141.5t-232.5 -46z" />
    <glyph glyph-name="K" unicode="K" horiz-adv-x="1171" 
d="M1151 0h-145l-719 707v-707h-109v1434h109v-668l698 668h145l-724 -697z" />
    <glyph glyph-name="L" unicode="L" horiz-adv-x="1009" 
d="M287 102h676v-102h-785v1434h109v-1332z" />
    <glyph glyph-name="M" unicode="M" horiz-adv-x="1652" 
d="M1475 1434v-1434h-109v1274l-530 -881h-19l-530 881v-1274h-109v1434h135l512 -848l512 848h138z" />
    <glyph glyph-name="N" unicode="N" horiz-adv-x="1406" 
d="M1120 1434h109v-1434h-96l-846 1233v-1233h-109v1434h94l848 -1233v1233z" />
    <glyph glyph-name="O" unicode="O" horiz-adv-x="1671" 
d="M836 -23q-203 0 -373.5 99t-268.5 269t-98 372q0 151 58 288t156.5 236t236 157t289.5 58q122 0 235.5 -37t204 -105.5t158.5 -159t104.5 -203.5t36.5 -234q0 -202 -97.5 -372t-268 -269t-373.5 -99zM836 82q174 0 319 85t228 230.5t83 319.5t-83 319.5t-228 230.5
t-319 85t-319.5 -85t-228.5 -230.5t-83 -319.5t83 -319.5t228.5 -230.5t319.5 -85z" />
    <glyph glyph-name="P" unicode="P" horiz-adv-x="1202" 
d="M666 1434q193 0 319.5 -127t126.5 -318q0 -190 -126.5 -316t-319.5 -126h-379v-547h-109v1434h488zM666 649q148 0 243 96t95 244q0 149 -95 245.5t-243 96.5h-379v-682h379z" />
    <glyph glyph-name="Q" unicode="Q" horiz-adv-x="1681" 
d="M1575 717q0 -154 -59.5 -292t-165.5 -241l168 -166l-74 -67l-172 168q-195 -142 -436 -142q-202 0 -372 99t-269 269t-99 372t99 372t269 268.5t372 98.5q151 0 288 -58.5t235.5 -157t157 -235.5t58.5 -288zM836 82q200 0 360 113l-317 313l73 67l322 -317
q91 89 141.5 207.5t50.5 251.5q0 130 -49.5 247.5t-134 202.5t-201 135t-245.5 50t-246 -50t-201 -135t-134 -202.5t-50 -247.5t50 -247.5t134 -202.5t201 -135t246 -50z" />
    <glyph glyph-name="R" unicode="R" horiz-adv-x="1255" 
d="M1083 0l-344 588h-452v-588h-109v1434h565q175 0 299.5 -124.5t124.5 -299.5q0 -145 -88.5 -258t-226.5 -150l356 -602h-125zM287 1331v-641h456q130 0 223 94t93 226q0 133 -92.5 227t-223.5 94h-456z" />
    <glyph glyph-name="S" unicode="S" horiz-adv-x="1175" 
d="M616 -23q-198 0 -336 91.5t-188 246.5l94 56q38 -134 148 -211.5t282 -77.5q174 0 267.5 79.5t93.5 207.5q0 50 -18.5 91.5t-48 70.5t-80.5 56.5t-100 46t-124 42.5q-190 62 -264 101q-148 79 -180 208q-10 40 -10 86q0 174 123.5 279.5t310.5 105.5q168 0 286.5 -83.5
t174.5 -217.5l-93 -51q-45 109 -135 178.5t-233 69.5q-147 0 -235.5 -77.5t-88.5 -199.5q0 -36 9.5 -67t23.5 -54.5t41 -45t51.5 -36.5t66.5 -32.5t73.5 -28.5t84.5 -29q67 -22 107 -36.5t97 -38t90.5 -44.5t72.5 -52.5t59.5 -64.5t34.5 -78t14 -97q0 -179 -128.5 -286.5
t-342.5 -107.5z" />
    <glyph glyph-name="T" unicode="T" horiz-adv-x="1105" 
d="M1059 1434v-103h-451v-1331h-110v1331h-451v103h1012z" />
    <glyph glyph-name="U" unicode="U" horiz-adv-x="1366" 
d="M682 -23q-236 0 -380 137.5t-144 364.5v955h108v-955q0 -179 109 -288t307 -109q199 0 308.5 109t109.5 288v955h108v-955q0 -227 -144.5 -364.5t-381.5 -137.5z" />
    <glyph glyph-name="V" unicode="V" horiz-adv-x="1239" 
d="M561 0l-534 1434h118l473 -1293l476 1293h116l-534 -1434h-115z" />
    <glyph glyph-name="W" unicode="W" horiz-adv-x="2033" 
d="M483 0l-415 1434h114l371 -1289l399 1289h129l402 -1289l368 1289h115l-416 -1434h-131l-401 1292l-404 -1292h-131z" />
    <glyph glyph-name="X" unicode="X" horiz-adv-x="1173" 
d="M1126 0h-125l-413 639l-414 -639h-127l477 737l-450 697h125l389 -600l387 600h125l-451 -697z" />
    <glyph glyph-name="Y" unicode="Y" horiz-adv-x="1193" 
d="M1174 1434l-523 -844v-590h-108v590l-523 844h123l455 -740l453 740h123z" />
    <glyph glyph-name="Z" unicode="Z" horiz-adv-x="1071" 
d="M209 102h795v-102h-916v102l774 1229h-753v103h874v-103z" />
    <glyph glyph-name="bracketleft" unicode="[" horiz-adv-x="567" 
d="M526 1538h-293v-1642h293v-101h-397v1843h397v-100z" />
    <glyph glyph-name="backslash" unicode="\" horiz-adv-x="1079" 
d="M907 -205l-819 1843h82l819 -1843h-82z" />
    <glyph glyph-name="bracketright" unicode="]" horiz-adv-x="567" 
d="M438 1638v-1843h-397v101h293v1642h-293v100h397z" />
    <glyph glyph-name="asciicircum" unicode="^" horiz-adv-x="1028" 
d="M565 1434l361 -615h-121l-291 498l-291 -498h-121l361 615h102z" />
    <glyph glyph-name="underscore" unicode="_" horiz-adv-x="1038" 
d="M82 -272v98h874v-98h-874z" />
    <glyph glyph-name="grave" unicode="`" horiz-adv-x="368" 
d="M328 1167l-164 260h-123l188 -260h99z" />
    <glyph glyph-name="a" unicode="a" horiz-adv-x="1320" 
d="M1059 1024h104v-1024h-104v231q-66 -118 -181 -186t-260 -68q-144 0 -265.5 70t-193 193t-71.5 272t71.5 272t193 193t265.5 70q145 0 260 -68t181 -186v231zM627 76q183 0 307.5 126.5t124.5 309.5t-124.5 309.5t-307.5 126.5t-308.5 -126.5t-125.5 -309.5t125.5 -309.5
t308.5 -126.5z" />
    <glyph glyph-name="b" unicode="b" horiz-adv-x="1320" 
d="M700 1047q145 0 266.5 -70t193 -193t71.5 -272t-71.5 -272t-193 -193t-266.5 -70q-146 0 -261 70t-179 191v-238h-102v1434h102v-648q64 121 179 191t261 70zM694 76q183 0 308.5 126.5t125.5 309.5t-125.5 309.5t-308.5 126.5t-308.5 -126.5t-125.5 -309.5t125.5 -309.5
t308.5 -126.5z" />
    <glyph glyph-name="c" unicode="c" horiz-adv-x="1148" 
d="M627 -23q-231 0 -385 153.5t-154 381.5t154 381.5t385 153.5q150 0 270 -71t176 -192l-84 -49q-45 97 -142.5 155t-219.5 58q-185 0 -309.5 -126t-124.5 -310t124.5 -310t309.5 -126q122 0 219 57.5t149 155.5l86 -51q-62 -120 -183.5 -190.5t-270.5 -70.5z" />
    <glyph glyph-name="d" unicode="d" horiz-adv-x="1320" 
d="M1061 1434h102v-1434h-102v238q-64 -121 -179 -191t-261 -70q-145 0 -266.5 70t-193 193t-71.5 272t71.5 272t193 193t266.5 70q146 0 261 -70t179 -191v648zM627 76q183 0 308.5 126.5t125.5 309.5t-125.5 309.5t-308.5 126.5t-308.5 -126.5t-125.5 -309.5t125.5 -309.5
t308.5 -126.5z" />
    <glyph glyph-name="e" unicode="e" horiz-adv-x="1206" 
d="M618 1047q150 0 267.5 -76.5t178 -198.5t60.5 -264q0 -8 -1 -24.5t-1 -24.5h-927q19 -173 139 -278t295 -105q123 0 215.5 51t138.5 135l90 -53q-65 -107 -181 -169.5t-265 -62.5q-236 0 -387.5 151.5t-151.5 383.5q0 228 149 381.5t381 153.5zM618 948q-174 0 -291 -109
t-132 -280h823q-17 181 -130 285t-270 104z" />
    <glyph glyph-name="f" unicode="f" horiz-adv-x="641" 
d="M641 1358q-155 12 -230 -58t-75 -221v-55h305v-100h-305v-924h-105v924h-176v100h176v55q0 192 106 292t304 85v-98z" />
    <glyph glyph-name="g" unicode="g" horiz-adv-x="1327" 
d="M1067 1024h102v-975q0 -149 -69 -260t-183.5 -166t-257.5 -55q-176 0 -301 65.5t-182 180.5l90 51q97 -199 393 -199q191 0 299.5 103.5t108.5 279.5v189q-64 -121 -179 -191t-261 -70q-145 0 -266.5 70t-193 193t-71.5 272t71.5 272t193 193t266.5 70q146 0 261 -70
t179 -191v238zM633 76q183 0 308.5 126.5t125.5 309.5t-125.5 309.5t-308.5 126.5t-308.5 -126.5t-125.5 -309.5t125.5 -309.5t308.5 -126.5z" />
    <glyph glyph-name="h" unicode="h" 
d="M627 1047q182 0 289.5 -111.5t107.5 -298.5v-637h-104v637q0 143 -79.5 227t-222.5 84q-159 0 -258.5 -104t-99.5 -303v-541h-102v1434h102v-605q112 218 367 218z" />
    <glyph glyph-name="i" unicode="i" horiz-adv-x="417" 
d="M209 1272q-34 0 -58 24t-24 58q0 32 24 56t58 24t58 -24t24 -56q0 -34 -24 -58t-58 -24zM158 0v1024h102v-1024h-102z" />
    <glyph glyph-name="j" unicode="j" horiz-adv-x="456" 
d="M248 1434q34 0 58 -24t24 -56q0 -34 -24 -58t-58 -24t-58 24t-24 58q0 32 24 56t58 24zM197 -117v1141h102v-1141q0 -164 -88 -247t-252 -68v98q122 -12 180 41t58 176z" />
    <glyph glyph-name="k" unicode="k" horiz-adv-x="989" 
d="M942 0h-139l-543 504v-504h-102v1434h102v-875l518 465h144l-551 -492z" />
    <glyph glyph-name="l" unicode="l" horiz-adv-x="417" 
d="M158 0v1495h102v-1495h-102z" />
    <glyph glyph-name="m" unicode="m" horiz-adv-x="1755" 
d="M1251 1047q167 0 270 -105t103 -293v-649h-102v649q0 143 -75 221t-198 78q-137 0 -222 -94.5t-85 -282.5v-571h-102v649q0 144 -70.5 221.5t-191.5 77.5q-136 0 -227 -95.5t-91 -281.5v-571h-102v1024h102v-176q55 102 141 150.5t189 48.5q113 0 196 -54t123 -155
q54 104 144.5 156.5t197.5 52.5z" />
    <glyph glyph-name="n" unicode="n" 
d="M627 1047q182 0 289.5 -111.5t107.5 -298.5v-637h-104v637q0 143 -79.5 227t-222.5 84q-159 0 -258.5 -104t-99.5 -303v-541h-102v1024h102v-195q112 218 367 218z" />
    <glyph glyph-name="o" unicode="o" horiz-adv-x="1251" 
d="M627 -23q-148 0 -271.5 70t-195.5 193t-72 272t72 272t195.5 193t271.5 70q147 0 270 -70t194.5 -193t71.5 -272t-71.5 -272t-194.5 -193t-270 -70zM627 76q183 0 307.5 126.5t124.5 309.5t-124.5 309.5t-307.5 126.5t-308.5 -126.5t-125.5 -309.5t125.5 -309.5
t308.5 -126.5z" />
    <glyph glyph-name="p" unicode="p" horiz-adv-x="1320" 
d="M700 1047q145 0 266.5 -70t193 -193t71.5 -272t-71.5 -272t-193 -193t-266.5 -70q-146 0 -261 70t-179 191v-648h-102v1434h102v-238q64 121 179 191t261 70zM694 76q183 0 308.5 126.5t125.5 309.5t-125.5 309.5t-308.5 126.5t-308.5 -126.5t-125.5 -309.5t125.5 -309.5
t308.5 -126.5z" />
    <glyph glyph-name="q" unicode="q" horiz-adv-x="1320" 
d="M1061 1024h102v-1434h-102v648q-64 -121 -179 -191t-261 -70q-145 0 -266.5 70t-193 193t-71.5 272t71.5 272t193 193t266.5 70q146 0 261 -70t179 -191v238zM627 76q183 0 308.5 126.5t125.5 309.5t-125.5 309.5t-308.5 126.5t-308.5 -126.5t-125.5 -309.5t125.5 -309.5
t308.5 -126.5z" />
    <glyph glyph-name="r" unicode="r" horiz-adv-x="651" 
d="M260 823q93 215 342 215v-98q-68 0 -128 -21.5t-108.5 -65t-77 -116.5t-28.5 -168v-569h-102v1024h102v-201z" />
    <glyph glyph-name="s" unicode="s" horiz-adv-x="937" 
d="M227 756q0 -55 34 -93t89 -58.5t121 -37t132.5 -37t121.5 -49.5t89 -83t34 -130q0 -127 -102 -209t-265 -82q-148 0 -249.5 62.5t-139.5 165.5l88 51q28 -84 107 -132t194 -48q114 0 189 50t75 142q0 56 -34 95t-89 60t-121 37.5t-132 37t-121 49t-89 81.5t-34 128
q0 124 97 207.5t251 83.5q123 0 214.5 -55t133.5 -150l-86 -49q-31 76 -102 115.5t-160 39.5q-104 0 -175 -51.5t-71 -140.5z" />
    <glyph glyph-name="t" unicode="t" horiz-adv-x="770" 
d="M682 924h-305v-666q0 -88 32.5 -127.5t100.5 -43.5t172 5v-92q-207 -32 -308.5 28t-101.5 230v666h-225v100h225v256l105 31v-287h305v-100z" />
    <glyph glyph-name="u" unicode="u" 
d="M895 1024h102v-1024h-102v195q-112 -218 -367 -218q-182 0 -289.5 111.5t-107.5 298.5v637h105v-637q0 -143 79 -227t222 -84q159 0 258.5 104t99.5 303v541z" />
    <glyph glyph-name="v" unicode="v" horiz-adv-x="1046" 
d="M909 1024h109l-432 -1024h-125l-434 1024h110l385 -918z" />
    <glyph glyph-name="w" unicode="w" horiz-adv-x="1576" 
d="M1401 1024h108l-323 -1024h-113l-285 872l-284 -872h-113l-323 1024h108l273 -891l286 891h107l286 -891z" />
    <glyph glyph-name="x" unicode="x" horiz-adv-x="1038" 
d="M989 0h-125l-346 446l-346 -446h-125l410 526l-385 498h125l321 -416l324 416h123l-383 -496z" />
    <glyph glyph-name="y" unicode="y" horiz-adv-x="1044" 
d="M907 1024h111l-443 -1118q-60 -152 -168 -239t-237 -77v97q99 -9 177.5 56t127.5 183l23 56l-471 1042h110l414 -911z" />
    <glyph glyph-name="z" unicode="z" horiz-adv-x="976" 
d="M254 100h633v-100h-778v68l614 856h-594v100h737v-68z" />
    <glyph glyph-name="braceleft" unicode="{" horiz-adv-x="714" 
d="M674 -221q-166 -15 -254 62t-88 241v383q0 119 -52 162t-171 43v98q119 0 171 43t52 162v383q0 164 88 241t254 62v-100q-123 14 -180.5 -33t-57.5 -170v-383q0 -111 -41 -172t-123 -82q82 -21 123 -82t41 -172v-383q0 -123 57 -170t181 -35v-98z" />
    <glyph glyph-name="bar" unicode="|" horiz-adv-x="458" 
d="M178 -410v1885h103v-1885h-103z" />
    <glyph glyph-name="braceright" unicode="}" horiz-adv-x="714" 
d="M41 -221v98q124 -12 181 35t57 170v383q0 111 40.5 172t122.5 82q-82 21 -122.5 82t-40.5 172v383q0 123 -57.5 170t-180.5 33v100q166 15 254 -62t88 -241v-383q0 -119 52 -162t171 -43v-98q-119 0 -171 -43t-52 -162v-383q0 -164 -88 -241t-254 -62z" />
    <glyph glyph-name="asciitilde" unicode="~" horiz-adv-x="1202" 
d="M977 842l94 -45q-16 -55 -43 -98.5t-70 -74.5t-96 -39.5t-126.5 13t-157.5 76.5q-282 186 -355 -82l-94 45q14 45 35.5 82.5t52.5 68.5t72.5 46.5t91 16t112 -22t132.5 -68.5q284 -185 352 82z" />
    <glyph glyph-name="exclamdown" unicode="&#xa1;" horiz-adv-x="450" 
d="M225 1044q38 0 65 -27t27 -65t-27 -65t-65 -27t-65 27t-27 65t27 65t65 27zM184 655h82l21 -655v-410h-123v410z" />
    <glyph glyph-name="cent" unicode="&#xa2;" horiz-adv-x="1148" 
d="M995 494l86 -52q-62 -120 -183.5 -190t-270.5 -70q-79 0 -152 21l-65 -203h-82l73 227q-143 62 -228 193.5t-85 296.5q0 228 154 381t385 153q50 0 108 -10l64 193h82l-70 -213q89 -31 157.5 -91t104.5 -141l-84 -49q-59 130 -209 186l-272 -829q59 -16 119 -16
q122 0 219 57.5t149 155.5zM193 717q0 -129 65.5 -234.5t175.5 -158.5l271 823q-37 6 -78 6q-185 0 -309.5 -126t-124.5 -310z" />
    <glyph glyph-name="sterling" unicode="&#xa3;" horiz-adv-x="1208" 
d="M401 104h773v-104h-1086v104h205v496h-164v96h164v348q0 130 59.5 225.5t151.5 141t201 45.5q138 0 234.5 -69.5t147.5 -196.5l-88 -51q-76 213 -294 213q-132 0 -218 -81.5t-86 -226.5v-348h494v-96h-494v-496z" />
    <glyph glyph-name="currency" unicode="&#xa4;" horiz-adv-x="1132" 
d="M1001 717q0 -156 -100 -281l141 -143l-53 -53l-143 143q-122 -98 -281 -98q-156 0 -278 98l-146 -143l-53 53l145 143q-102 120 -102 281q0 160 102 280l-145 144l53 53l146 -143q122 98 278 98q159 0 281 -98l143 143l53 -53l-141 -144q100 -125 100 -280zM236 717
q0 -140 95 -237t234 -97t235.5 97t96.5 237t-96.5 237t-235.5 97t-234 -97t-95 -237z" />
    <glyph glyph-name="yen" unicode="&#xa5;" horiz-adv-x="1167" 
d="M1174 1434l-453 -729h297v-93h-352l-15 -22v-135h367v-90h-367v-365h-108v365h-391v90h391v135l-15 22h-376v93h321l-453 729h123l449 -729h10l449 729h123z" />
    <glyph glyph-name="brokenbar" unicode="&#xa6;" horiz-adv-x="458" 
d="M178 717v758h103v-758h-103zM178 -410v758h103v-758h-103z" />
    <glyph glyph-name="section" unicode="&#xa7;" horiz-adv-x="1040" 
d="M817 281q94 -87 94 -211q0 -129 -100 -214t-264 -85q-155 0 -261.5 69.5t-152.5 196.5l88 51q67 -217 326 -217q114 0 187 53t73 146q0 34 -10 63.5t-41 58t-48.5 45t-74 44t-73 35t-86.5 37.5q-3 2 -5.5 3t-5.5 2q-59 25 -98.5 45t-88 52t-77.5 65t-49.5 80.5
t-20.5 101.5q0 73 38.5 137.5t104.5 108.5q-88 88 -88 207q0 128 97.5 214.5t250.5 86.5q131 0 226 -62t139 -177l-84 -48q-38 93 -111 141t-170 48q-103 0 -173 -56t-70 -147q0 -40 17.5 -74.5t42 -59t69 -50.5t81 -43t94.5 -43q6 -3 10 -4.5t9.5 -4t10.5 -4.5
q58 -26 97.5 -46t87.5 -52.5t76 -65.5t48 -80.5t20 -101.5q0 -150 -135 -245zM233 702q0 -49 21 -88.5t62 -70t84 -52t104 -45.5q164 -63 233 -104q111 69 111 184q0 49 -20.5 88t-62.5 70.5t-83 52.5t-104 47q-152 60 -228 105q-117 -69 -117 -187z" />
    <glyph glyph-name="dieresis" unicode="&#xa8;" horiz-adv-x="600" 
d="M117 1182q-32 0 -54 21t-22 52q0 32 22 54t54 22q31 0 52 -22t21 -54q0 -31 -21 -52t-52 -21zM485 1182q-32 0 -53.5 21t-21.5 52q0 32 21.5 54t53.5 22q31 0 52.5 -22t21.5 -54q0 -31 -21.5 -52t-52.5 -21z" />
    <glyph glyph-name="copyright" unicode="&#xa9;" horiz-adv-x="1673" 
d="M838 -23q-151 0 -288.5 58.5t-237 157.5t-158 236t-58.5 288q0 202 99.5 372t270 268.5t372.5 98.5q151 0 288.5 -58.5t236.5 -157t157.5 -235.5t58.5 -288t-58.5 -288t-157.5 -236t-236.5 -157.5t-288.5 -58.5zM838 27q187 0 344.5 92t249.5 251t92 347t-92 347
t-249.5 251t-344.5 92t-345 -92t-250.5 -251t-92.5 -347t92.5 -347t250.5 -251t345 -92zM844 324q-169 0 -283.5 114t-114.5 279t114.5 279t283.5 114q109 0 197.5 -51.5t136.5 -138.5l-86 -50q-33 68 -100.5 106t-147.5 38q-130 0 -212.5 -87.5t-82.5 -209.5t82.5 -209.5
t212.5 -87.5q82 0 149.5 38t98.5 107l88 -51q-48 -87 -137.5 -138.5t-198.5 -51.5z" />
    <glyph glyph-name="guillemotleft" unicode="&#xab;" horiz-adv-x="960" 
d="M510 987l-219 -354l219 -354h-127l-219 354l219 354h127zM797 987l-217 -354l217 -354h-127l-217 354l217 354h127z" />
    <glyph glyph-name="logicalnot" unicode="&#xac;" horiz-adv-x="1064" 
d="M129 782h807v-354h-105v254h-702v100z" />
    <glyph glyph-name="registered" unicode="&#xae;" horiz-adv-x="1673" 
d="M838 1456q151 0 288.5 -58.5t236.5 -157t157.5 -235.5t58.5 -288t-58.5 -288t-157.5 -236t-236.5 -157.5t-288.5 -58.5t-288.5 58.5t-237 157.5t-158 236t-58.5 288q0 202 99.5 372t270 268.5t372.5 98.5zM838 27q187 0 344.5 92t249.5 251t92 347t-92 347t-249.5 251
t-344.5 92t-345 -92t-250.5 -251t-92.5 -347t92.5 -347t250.5 -251t345 -92zM1124 858q0 -168 -153 -217l172 -303h-109l-160 285h-28h-129v-285h-99v758h228q134 0 206 -69.5t72 -168.5zM717 717h133q88 0 132 37t44 104q0 65 -45.5 104t-130.5 39h-133v-284z" />
    <glyph glyph-name="macron" unicode="&#xaf;" horiz-adv-x="600" 
d="M41 1202v90h518v-90h-518z" />
    <glyph glyph-name="degree" unicode="&#xb0;" horiz-adv-x="790" 
d="M395 1059q-131 0 -219 87t-88 212q0 126 88 213.5t219 87.5t219 -87.5t88 -213.5t-87 -212.5t-220 -86.5zM395 1153q90 0 147.5 59t57.5 146q0 88 -58 147.5t-147 59.5t-147 -59.5t-58 -147.5q0 -87 58 -146t147 -59z" />
    <glyph glyph-name="plusminus" unicode="&#xb1;" horiz-adv-x="1091" 
d="M596 897h367v-100h-367v-346h-100v346h-367v100h367v346h100v-346zM129 190v101h834v-101h-834z" />
    <glyph glyph-name="acute" unicode="&#xb4;" horiz-adv-x="368" 
d="M41 1167h100l187 260h-123z" />
    <glyph glyph-name="uni00B5" unicode="&#xb5;" horiz-adv-x="1243" 
d="M1108 100h68v-100h-78q-82 0 -130 49.5t-48 134.5v6q-113 -213 -365 -213q-199 0 -295 138v-525h-102v1434h102v-637q0 -143 80 -227t223 -84q157 0 257 104.5t100 302.5v541h104v-840q0 -39 22.5 -61.5t61.5 -22.5z" />
    <glyph glyph-name="paragraph" unicode="&#xb6;" horiz-adv-x="1167" 
d="M1079 1434v-97h-123v-1747h-102v1747h-268v-1747h-101v1051q-165 0 -281 116t-116 281q0 164 116 280t281 116h594z" />
    <glyph glyph-name="periodcentered" unicode="&#xb7;" horiz-adv-x="436" 
d="M219 614q-39 0 -65.5 27t-26.5 66t26.5 65.5t65.5 26.5q38 0 65 -27t27 -65t-27 -65.5t-65 -27.5z" />
    <glyph glyph-name="cedilla" unicode="&#xb8;" horiz-adv-x="466" 
d="M246 -115q82 -9 134 -49.5t52 -103.5q0 -32 -11.5 -58t-39 -50t-73.5 -38t-114 -20.5t-161 2.5v84q151 -15 230 7t79 73q0 88 -188 88v180h92v-115z" />
    <glyph glyph-name="guillemotright" unicode="&#xbb;" horiz-adv-x="960" 
d="M291 987l217 -354l-217 -354h-127l217 354l-217 354h127zM578 987l219 -354l-219 -354h-127l219 354l-219 354h127z" />
    <glyph glyph-name="onequarter" unicode="&#xbc;" horiz-adv-x="1697" 
d="M356 614h-98v709l-205 -68l-26 86l252 93h77v-820zM1104 1434h96l-833 -1434h-95zM1649 256v-92h-111v-164h-98v164h-436v92l307 563h106l-307 -563h330v213h98v-213h111z" />
    <glyph glyph-name="onehalf" unicode="&#xbd;" horiz-adv-x="1669" 
d="M356 614h-98v709l-205 -68l-26 86l252 93h77v-820zM1104 1434h96l-833 -1434h-95zM1184 94h418v-94h-564v80l359 334q43 39 66.5 88t23.5 96q0 65 -45.5 108.5t-124.5 43.5q-144 0 -195 -136l-82 45q33 87 104.5 136t172.5 49q121 0 194.5 -71t73.5 -175
q0 -136 -121 -248z" />
    <glyph glyph-name="threequarters" unicode="&#xbe;" horiz-adv-x="1908" 
d="M631 850q0 -114 -79 -187t-212 -73q-103 0 -175 43.5t-108 122.5l82 47q53 -119 201 -119q93 0 142.5 46t49.5 120q0 73 -50.5 120.5t-141.5 47.5h-8l-47 72l198 249h-401v95h516v-95l-197 -243q108 -15 169 -81.5t61 -164.5zM1315 1434h96l-833 -1434h-95zM1860 256v-92
h-111v-164h-98v164h-437v92l308 563h106l-307 -563h330v213h98v-213h111z" />
    <glyph glyph-name="questiondown" unicode="&#xbf;" horiz-adv-x="1085" 
d="M580 1044q39 0 65.5 -26.5t26.5 -65.5t-26.5 -65.5t-65.5 -26.5q-38 0 -65.5 27t-27.5 65t27.5 65t65.5 27zM635 655q0 -73 -22 -138.5t-56.5 -114.5t-76.5 -94.5t-84.5 -87.5t-77 -84t-56.5 -93t-22 -106q0 -127 84.5 -196t226.5 -69q123 0 212 56t122 161l92 -51
q-46 -130 -162.5 -200t-263.5 -70q-117 0 -211 41t-152.5 126t-58.5 202q0 63 22 120.5t57 103t77 89.5t84.5 88.5t77.5 90.5t57 104.5t22 121.5h109z" />
    <glyph glyph-name="Agrave" unicode="&#xc0;" horiz-adv-x="1288" 
d="M743 1577h-98l-188 260h123zM1143 0l-139 365h-719l-140 -365h-114l557 1434h114l555 -1434h-114zM326 467h639l-320 833z" />
    <glyph glyph-name="Aacute" unicode="&#xc1;" horiz-adv-x="1288" 
d="M846 1837l-187 -260h-100l164 260h123zM1143 0l-139 365h-719l-140 -365h-114l557 1434h114l555 -1434h-114zM326 467h639l-320 833z" />
    <glyph glyph-name="Acircumflex" unicode="&#xc2;" horiz-adv-x="1288" 
d="M645 1772l-166 -195h-117l222 260h121l221 -260h-117zM1143 0l-139 365h-719l-140 -365h-114l557 1434h114l555 -1434h-114zM326 467h639l-320 833z" />
    <glyph glyph-name="Atilde" unicode="&#xc3;" horiz-adv-x="1288" 
d="M641 1661q-60 51 -99.5 65t-62 -15t-22.5 -107h-90q0 111 41 168t105.5 51t135.5 -68q44 -38 77.5 -55t58 -12.5t37 35.5t12.5 89h90q0 -111 -41.5 -167.5t-106 -51t-135.5 67.5zM1143 0l-139 365h-719l-140 -365h-114l557 1434h114l555 -1434h-114zM326 467h639
l-320 833z" />
    <glyph glyph-name="Adieresis" unicode="&#xc4;" horiz-adv-x="1288" 
d="M461 1591q-32 0 -54 21.5t-22 52.5q0 32 22 54t54 22q31 0 52.5 -22t21.5 -54q0 -31 -21.5 -52.5t-52.5 -21.5zM829 1591q-32 0 -53.5 21.5t-21.5 52.5q0 32 21.5 54t53.5 22q31 0 52.5 -22t21.5 -54q0 -31 -21.5 -52.5t-52.5 -21.5zM1143 0l-139 365h-719l-140 -365
h-114l557 1434h114l555 -1434h-114zM326 467h639l-320 833z" />
    <glyph glyph-name="Aring" unicode="&#xc5;" horiz-adv-x="1288" 
d="M1143 0l-139 365h-719l-140 -365h-114l538 1384q-63 20 -99 70.5t-36 116.5q0 86 58 142t151 56q94 0 152.5 -56t58.5 -142q0 -66 -36 -116.5t-97 -70.5l536 -1384h-114zM522 1571q0 -52 32.5 -84.5t88.5 -32.5q58 0 91.5 32.5t33.5 84.5t-33.5 84.5t-91.5 32.5
q-56 0 -88.5 -32.5t-32.5 -84.5zM326 467h639l-320 833z" />
    <glyph glyph-name="AE" unicode="&#xc6;" horiz-adv-x="1787" 
d="M1030 102h668v-102h-778v375h-560l-229 -375h-125l879 1434h803v-103h-658v-557h621v-102h-621v-570zM422 477h498v815z" />
    <glyph glyph-name="Ccedilla" unicode="&#xc7;" horiz-adv-x="1538" 
d="M1460 328q-84 -151 -236 -244.5t-337 -103.5v-95q82 -9 134 -49.5t52 -103.5q0 -32 -11.5 -58t-39 -50t-73.5 -38t-114 -20.5t-161 2.5v84q151 -15 230 7t79 73q0 88 -188 88v160q-202 11 -362.5 112t-248.5 265t-88 360q0 152 56 288t153 235.5t237 157.5t300 58
q196 0 360 -93t254 -251l-96 -55q-71 133 -211 214t-307 81q-138 0 -258 -50t-202.5 -135.5t-129.5 -202t-47 -247.5t47 -247.5t129.5 -202t202.5 -135.5t258 -50q169 0 310 82.5t212 218.5z" />
    <glyph glyph-name="Egrave" unicode="&#xc8;" horiz-adv-x="1091" 
d="M684 1577h-98l-189 260h123zM287 102h717v-102h-826v1434h815v-103h-706v-557h655v-102h-655v-570z" />
    <glyph glyph-name="Eacute" unicode="&#xc9;" horiz-adv-x="1091" 
d="M786 1837l-186 -260h-100l164 260h122zM287 102h717v-102h-826v1434h815v-103h-706v-557h655v-102h-655v-570z" />
    <glyph glyph-name="Ecircumflex" unicode="&#xca;" horiz-adv-x="1091" 
d="M586 1772l-166 -195h-117l221 260h121l221 -260h-116zM287 102h717v-102h-826v1434h815v-103h-706v-557h655v-102h-655v-570z" />
    <glyph glyph-name="Edieresis" unicode="&#xcb;" horiz-adv-x="1091" 
d="M401 1591q-32 0 -53.5 21.5t-21.5 52.5q0 32 21.5 54t53.5 22q31 0 52.5 -22t21.5 -54q0 -31 -21.5 -52.5t-52.5 -21.5zM770 1591q-32 0 -54 21.5t-22 52.5q0 32 22 54t54 22q31 0 52.5 -22t21.5 -54q0 -31 -21.5 -52.5t-52.5 -21.5zM287 102h717v-102h-826v1434h815
v-103h-706v-557h655v-102h-655v-570z" />
    <glyph glyph-name="Igrave" unicode="&#xcc;" horiz-adv-x="464" 
d="M330 1577l-164 260h-123l188 -260h99zM178 1434h109v-1434h-109v1434z" />
    <glyph glyph-name="Iacute" unicode="&#xcd;" horiz-adv-x="464" 
d="M145 1577h101l186 260h-123zM178 1434h109v-1434h-109v1434z" />
    <glyph glyph-name="Icircumflex" unicode="&#xce;" horiz-adv-x="464" 
d="M291 1837l221 -260h-117l-164 195l-165 -195h-117l221 260h121zM178 0v1434h109v-1434h-109z" />
    <glyph glyph-name="Idieresis" unicode="&#xcf;" horiz-adv-x="464" 
d="M47 1591q-32 0 -54 21.5t-22 52.5q0 32 22 54t54 22q31 0 52.5 -22t21.5 -54q0 -31 -21.5 -52.5t-52.5 -21.5zM416 1591q-32 0 -54 21.5t-22 52.5q0 32 22 54t54 22q31 0 52 -22t21 -54q0 -31 -21 -52.5t-52 -21.5zM178 1434h109v-1434h-109v1434z" />
    <glyph glyph-name="Eth" unicode="&#xd0;" horiz-adv-x="1529" 
d="M758 1434q145 0 271.5 -56.5t215 -153.5t139 -228.5t50.5 -278.5t-50.5 -278.5t-139 -228.5t-215 -153.5t-271.5 -56.5h-539v668h-137v98h137v668h539zM758 102q165 0 296 83t202 223t71 309t-71 309t-202 222.5t-296 82.5h-430v-565h491v-98h-491v-566h430z" />
    <glyph glyph-name="Ntilde" unicode="&#xd1;" horiz-adv-x="1406" 
d="M418 1604q0 111 41 168t105.5 51t135.5 -68q44 -38 77.5 -55t58 -12.5t37 35.5t12.5 89h90q0 -111 -41.5 -167.5t-106 -51t-135.5 67.5q-60 51 -99.5 65t-62 -15t-22.5 -107h-90zM1120 1434h109v-1434h-96l-846 1233v-1233h-109v1434h94l848 -1233v1233z" />
    <glyph glyph-name="Ograve" unicode="&#xd2;" horiz-adv-x="1671" 
d="M934 1577l-164 260h-123l189 -260h98zM836 -23q-203 0 -373.5 99t-268.5 269t-98 372q0 151 58 288t156.5 236t236 157t289.5 58q122 0 235.5 -37t204 -105.5t158.5 -159t104.5 -203.5t36.5 -234q0 -202 -97.5 -372t-268 -269t-373.5 -99zM836 82q174 0 319 85t228 230.5
t83 319.5t-83 319.5t-228 230.5t-319 85t-319.5 -85t-228.5 -230.5t-83 -319.5t83 -319.5t228.5 -230.5t319.5 -85z" />
    <glyph glyph-name="Oacute" unicode="&#xd3;" horiz-adv-x="1671" 
d="M750 1577h100l186 260h-123zM836 -23q-203 0 -373.5 99t-268.5 269t-98 372q0 151 58 288t156.5 236t236 157t289.5 58q122 0 235.5 -37t204 -105.5t158.5 -159t104.5 -203.5t36.5 -234q0 -202 -97.5 -372t-268 -269t-373.5 -99zM836 82q174 0 319 85t228 230.5t83 319.5
t-83 319.5t-228 230.5t-319 85t-319.5 -85t-228.5 -230.5t-83 -319.5t83 -319.5t228.5 -230.5t319.5 -85z" />
    <glyph glyph-name="Ocircumflex" unicode="&#xd4;" horiz-adv-x="1671" 
d="M836 1772l-166 -195h-117l221 260h121l221 -260h-117zM836 1456q122 0 235.5 -37t204 -105.5t158.5 -159t104.5 -203.5t36.5 -234q0 -202 -97.5 -372t-268 -269t-373.5 -99t-373.5 99t-268.5 269t-98 372q0 151 58 288t156.5 236t236 157t289.5 58zM836 82q174 0 319 85
t228 230.5t83 319.5t-83 319.5t-228 230.5t-319 85t-319.5 -85t-228.5 -230.5t-83 -319.5t83 -319.5t228.5 -230.5t319.5 -85z" />
    <glyph glyph-name="Otilde" unicode="&#xd5;" horiz-adv-x="1671" 
d="M557 1604q0 111 41.5 168t106 51t135.5 -68q60 -51 99.5 -64.5t62 15.5t22.5 106h90q0 -111 -41.5 -167.5t-106 -51t-135.5 67.5q-60 51 -99.5 65t-62 -15t-22.5 -107h-90zM836 -23q-203 0 -373.5 99t-268.5 269t-98 372q0 151 58 288t156.5 236t236 157t289.5 58
q122 0 235.5 -37t204 -105.5t158.5 -159t104.5 -203.5t36.5 -234q0 -202 -97.5 -372t-268 -269t-373.5 -99zM836 82q174 0 319 85t228 230.5t83 319.5t-83 319.5t-228 230.5t-319 85t-319.5 -85t-228.5 -230.5t-83 -319.5t83 -319.5t228.5 -230.5t319.5 -85z" />
    <glyph glyph-name="Odieresis" unicode="&#xd6;" horiz-adv-x="1671" 
d="M651 1591q-32 0 -54 21.5t-22 52.5q0 32 22 54t54 22q31 0 52.5 -22t21.5 -54q0 -31 -21.5 -52.5t-52.5 -21.5zM1020 1591q-32 0 -54 21.5t-22 52.5q0 32 22 54t54 22q31 0 52.5 -22t21.5 -54q0 -31 -21.5 -52.5t-52.5 -21.5zM836 -23q-203 0 -373.5 99t-268.5 269
t-98 372q0 151 58 288t156.5 236t236 157t289.5 58q122 0 235.5 -37t204 -105.5t158.5 -159t104.5 -203.5t36.5 -234q0 -202 -97.5 -372t-268 -269t-373.5 -99zM836 82q174 0 319 85t228 230.5t83 319.5t-83 319.5t-228 230.5t-319 85t-319.5 -85t-228.5 -230.5t-83 -319.5
t83 -319.5t228.5 -230.5t319.5 -85z" />
    <glyph glyph-name="multiply" unicode="&#xd7;" horiz-adv-x="960" 
d="M844 1012l-295 -295l295 -295l-72 -66l-293 293l-293 -293l-69 66l295 295l-295 295l69 65l293 -293l293 293z" />
    <glyph glyph-name="Oslash" unicode="&#xd8;" horiz-adv-x="1691" 
d="M1370 1251q106 -103 165.5 -241t59.5 -293q0 -202 -97.5 -372t-268 -269t-373.5 -99q-252 0 -448 150l-109 -127l-76 43l119 139q-106 103 -165.5 241.5t-59.5 293.5q0 121 36.5 234t104.5 203.5t158.5 159t204 105.5t235.5 37q253 0 451 -149l108 127l74 -43zM225 717
q0 -131 49.5 -248t137.5 -207l825 963q-165 127 -381 127q-174 0 -319.5 -85t-228.5 -230.5t-83 -319.5zM856 82q174 0 319.5 85t228.5 230.5t83 319.5q0 131 -49.5 247.5t-137.5 204.5l-823 -962q167 -125 379 -125z" />
    <glyph glyph-name="Ugrave" unicode="&#xd9;" horiz-adv-x="1366" 
d="M778 1577l-164 260h-122l188 -260h98zM682 -23q-236 0 -380 137.5t-144 364.5v955h108v-955q0 -179 109 -288t307 -109q199 0 308.5 109t109.5 288v955h108v-955q0 -227 -144.5 -364.5t-381.5 -137.5z" />
    <glyph glyph-name="Uacute" unicode="&#xda;" horiz-adv-x="1366" 
d="M594 1577h100l187 260h-123zM682 -23q-236 0 -380 137.5t-144 364.5v955h108v-955q0 -179 109 -288t307 -109q199 0 308.5 109t109.5 288v955h108v-955q0 -227 -144.5 -364.5t-381.5 -137.5z" />
    <glyph glyph-name="Ucircumflex" unicode="&#xdb;" horiz-adv-x="1366" 
d="M680 1772l-166 -195h-117l221 260h121l222 -260h-117zM1100 1434h108v-955q0 -227 -144.5 -364.5t-381.5 -137.5q-236 0 -380 137.5t-144 364.5v955h108v-955q0 -179 109 -288t307 -109q199 0 308.5 109t109.5 288v955z" />
    <glyph glyph-name="Udieresis" unicode="&#xdc;" horiz-adv-x="1366" 
d="M496 1591q-32 0 -54 21.5t-22 52.5q0 32 22 54t54 22q31 0 52 -22t21 -54q0 -31 -21 -52.5t-52 -21.5zM864 1591q-32 0 -54 21.5t-22 52.5q0 32 22 54t54 22q31 0 52.5 -22t21.5 -54q0 -31 -21.5 -52.5t-52.5 -21.5zM682 -23q-236 0 -380 137.5t-144 364.5v955h108v-955
q0 -179 109 -288t307 -109q199 0 308.5 109t109.5 288v955h108v-955q0 -227 -144.5 -364.5t-381.5 -137.5z" />
    <glyph glyph-name="Yacute" unicode="&#xdd;" horiz-adv-x="1193" 
d="M793 1837l-187 -260h-100l164 260h123zM1174 1434l-523 -844v-590h-108v590l-523 844h123l455 -740l453 740h123z" />
    <glyph glyph-name="Thorn" unicode="&#xde;" horiz-adv-x="1202" 
d="M666 1161q193 0 319.5 -126.5t126.5 -317.5q0 -190 -126.5 -317.5t-319.5 -127.5h-379v-272h-109v1434h109v-273h379zM666 375q147 0 242.5 97t95.5 245q0 149 -95 245.5t-243 96.5h-379v-684h379z" />
    <glyph glyph-name="germandbls" unicode="&#xdf;" horiz-adv-x="1056" 
d="M594 -8v94q145 -8 228 44t83 159q0 57 -31 115t-75.5 107.5t-88.5 97t-75 99.5t-31 99q0 35 19.5 70t47 64.5t54.5 60t46.5 67t19.5 74.5q0 97 -66 156t-176 59q-127 0 -208 -76.5t-81 -224.5v-1057h-102v1057q0 187 108.5 293t282.5 106q161 0 253.5 -90t92.5 -223
q0 -46 -19.5 -89t-47 -75t-55 -61t-47 -57.5t-19.5 -53.5q0 -32 22.5 -68.5t56 -70t73 -77t73 -86t56 -99.5t22.5 -117q0 -144 -110.5 -225.5t-305.5 -71.5z" />
    <glyph glyph-name="agrave" unicode="&#xe0;" horiz-adv-x="1320" 
d="M727 1167h-98l-189 260h123zM1059 1024h104v-1024h-104v231q-66 -118 -181 -186t-260 -68q-144 0 -265.5 70t-193 193t-71.5 272t71.5 272t193 193t265.5 70q145 0 260 -68t181 -186v231zM627 76q183 0 307.5 126.5t124.5 309.5t-124.5 309.5t-307.5 126.5t-308.5 -126.5
t-125.5 -309.5t125.5 -309.5t308.5 -126.5z" />
    <glyph glyph-name="aacute" unicode="&#xe1;" horiz-adv-x="1320" 
d="M829 1427l-186 -260h-100l164 260h122zM1059 1024h104v-1024h-104v231q-66 -118 -181 -186t-260 -68q-144 0 -265.5 70t-193 193t-71.5 272t71.5 272t193 193t265.5 70q145 0 260 -68t181 -186v231zM627 76q183 0 307.5 126.5t124.5 309.5t-124.5 309.5t-307.5 126.5
t-308.5 -126.5t-125.5 -309.5t125.5 -309.5t308.5 -126.5z" />
    <glyph glyph-name="acircumflex" unicode="&#xe2;" horiz-adv-x="1320" 
d="M629 1362l-166 -195h-117l221 260h121l221 -260h-116zM1059 1024h104v-1024h-104v231q-66 -118 -181 -186t-260 -68q-144 0 -265.5 70t-193 193t-71.5 272t71.5 272t193 193t265.5 70q145 0 260 -68t181 -186v231zM627 76q183 0 307.5 126.5t124.5 309.5t-124.5 309.5
t-307.5 126.5t-308.5 -126.5t-125.5 -309.5t125.5 -309.5t308.5 -126.5z" />
    <glyph glyph-name="atilde" unicode="&#xe3;" horiz-adv-x="1320" 
d="M625 1251q-60 51 -99.5 65t-62.5 -15t-23 -107h-90q0 111 41.5 168t106 51.5t135.5 -67.5q60 -51 99.5 -64.5t62 15.5t22.5 106h90q0 -83 -24.5 -137t-64 -71.5t-90 -3.5t-103.5 60zM1059 1024h104v-1024h-104v231q-66 -118 -181 -186t-260 -68q-144 0 -265.5 70
t-193 193t-71.5 272t71.5 272t193 193t265.5 70q145 0 260 -68t181 -186v231zM627 76q183 0 307.5 126.5t124.5 309.5t-124.5 309.5t-307.5 126.5t-308.5 -126.5t-125.5 -309.5t125.5 -309.5t308.5 -126.5z" />
    <glyph glyph-name="adieresis" unicode="&#xe4;" horiz-adv-x="1320" 
d="M444 1182q-32 0 -53.5 21t-21.5 52q0 32 21.5 54t53.5 22q31 0 52.5 -22t21.5 -54q0 -31 -21.5 -52t-52.5 -21zM813 1182q-32 0 -54 21t-22 52q0 32 22 54t54 22q31 0 52.5 -22t21.5 -54q0 -31 -21.5 -52t-52.5 -21zM1059 1024h104v-1024h-104v231q-66 -118 -181 -186
t-260 -68q-144 0 -265.5 70t-193 193t-71.5 272t71.5 272t193 193t265.5 70q145 0 260 -68t181 -186v231zM627 76q183 0 307.5 126.5t124.5 309.5t-124.5 309.5t-307.5 126.5t-308.5 -126.5t-125.5 -309.5t125.5 -309.5t308.5 -126.5z" />
    <glyph glyph-name="aring" unicode="&#xe5;" horiz-adv-x="1320" 
d="M629 1133q-93 0 -151 56t-58 142t58 142.5t151 56.5q94 0 152.5 -56.5t58.5 -142.5t-58.5 -142t-152.5 -56zM629 1448q-56 0 -88.5 -32.5t-32.5 -84.5t32.5 -84.5t88.5 -32.5q58 0 91.5 32.5t33.5 84.5t-33.5 84.5t-91.5 32.5zM1059 1024h104v-1024h-104v231
q-66 -118 -181 -186t-260 -68q-144 0 -265.5 70t-193 193t-71.5 272t71.5 272t193 193t265.5 70q145 0 260 -68t181 -186v231zM627 76q183 0 307.5 126.5t124.5 309.5t-124.5 309.5t-307.5 126.5t-308.5 -126.5t-125.5 -309.5t125.5 -309.5t308.5 -126.5z" />
    <glyph glyph-name="ae" unicode="&#xe6;" horiz-adv-x="2172" 
d="M1591 1047q117 0 213.5 -44.5t158 -120t95 -172t33.5 -202.5q0 -8 -1 -24.5t-1 -24.5h-924q17 -173 134 -278t292 -105q128 0 222.5 50.5t140.5 135.5l90 -53q-63 -107 -178.5 -169.5t-261.5 -62.5q-153 0 -267.5 67t-175.5 189v-233h-102v231q-66 -118 -181 -186
t-260 -68q-144 0 -265.5 70t-193 193t-71.5 272t71.5 272t193 193t265.5 70q145 0 260 -68t181 -186v231h102v-238q60 122 170 191.5t260 69.5zM627 76q183 0 307.5 126.5t124.5 309.5t-124.5 309.5t-307.5 126.5t-308.5 -126.5t-125.5 -309.5t125.5 -309.5t308.5 -126.5z
M1587 948q-178 0 -292.5 -108t-129.5 -281h822q-17 182 -128.5 285.5t-271.5 103.5z" />
    <glyph glyph-name="ccedilla" unicode="&#xe7;" horiz-adv-x="1148" 
d="M1081 238q-57 -109 -166 -178.5t-243 -79.5v-95q82 -9 134 -49.5t52 -103.5q0 -32 -11.5 -58t-39 -50t-73.5 -38t-114 -20.5t-161 2.5v84q151 -15 230 7t79 73q0 88 -188 88v160q-214 17 -353 167t-139 365q0 228 154 381.5t385 153.5q150 0 270 -71t176 -192l-84 -49
q-45 97 -142.5 155t-219.5 58q-185 0 -309.5 -126t-124.5 -310t124.5 -310t309.5 -126q122 0 219 57.5t149 155.5z" />
    <glyph glyph-name="egrave" unicode="&#xe8;" horiz-adv-x="1206" 
d="M705 1167h-99l-188 260h123zM618 1047q150 0 267.5 -76.5t178 -198.5t60.5 -264q0 -8 -1 -24.5t-1 -24.5h-927q19 -173 139 -278t295 -105q123 0 215.5 51t138.5 135l90 -53q-65 -107 -181 -169.5t-265 -62.5q-236 0 -387.5 151.5t-151.5 383.5q0 228 149 381.5
t381 153.5zM618 948q-174 0 -291 -109t-132 -280h823q-17 181 -130 285t-270 104z" />
    <glyph glyph-name="eacute" unicode="&#xe9;" horiz-adv-x="1206" 
d="M807 1427l-186 -260h-101l164 260h123zM618 1047q150 0 267.5 -76.5t178 -198.5t60.5 -264q0 -8 -1 -24.5t-1 -24.5h-927q19 -173 139 -278t295 -105q123 0 215.5 51t138.5 135l90 -53q-65 -107 -181 -169.5t-265 -62.5q-236 0 -387.5 151.5t-151.5 383.5
q0 228 149 381.5t381 153.5zM618 948q-174 0 -291 -109t-132 -280h823q-17 181 -130 285t-270 104z" />
    <glyph glyph-name="ecircumflex" unicode="&#xea;" horiz-adv-x="1206" 
d="M606 1362l-166 -195h-116l221 260h121l221 -260h-117zM618 1047q150 0 267.5 -76.5t178 -198.5t60.5 -264q0 -8 -1 -24.5t-1 -24.5h-927q19 -173 139 -278t295 -105q123 0 215.5 51t138.5 135l90 -53q-65 -107 -181 -169.5t-265 -62.5q-236 0 -387.5 151.5t-151.5 383.5
q0 228 149 381.5t381 153.5zM618 948q-174 0 -291 -109t-132 -280h823q-17 181 -130 285t-270 104z" />
    <glyph glyph-name="edieresis" unicode="&#xeb;" horiz-adv-x="1206" 
d="M422 1182q-32 0 -54 21t-22 52q0 32 22 54t54 22q31 0 52.5 -22t21.5 -54q0 -31 -21.5 -52t-52.5 -21zM791 1182q-32 0 -54 21t-22 52q0 32 22 54t54 22q31 0 52 -22t21 -54q0 -31 -21 -52t-52 -21zM618 1047q150 0 267.5 -76.5t178 -198.5t60.5 -264q0 -8 -1 -24.5
t-1 -24.5h-927q19 -173 139 -278t295 -105q123 0 215.5 51t138.5 135l90 -53q-65 -107 -181 -169.5t-265 -62.5q-236 0 -387.5 151.5t-151.5 383.5q0 228 149 381.5t381 153.5zM618 948q-174 0 -291 -109t-132 -280h823q-17 181 -130 285t-270 104z" />
    <glyph glyph-name="igrave" unicode="&#xec;" horiz-adv-x="417" 
d="M262 1167l-112 260h-123l135 -260h100zM260 0h-102v1024h102v-1024z" />
    <glyph glyph-name="iacute" unicode="&#xed;" horiz-adv-x="417" 
d="M154 1167h100l137 260h-125zM158 0v1024h102v-1024h-102z" />
    <glyph glyph-name="icircumflex" unicode="&#xee;" horiz-adv-x="417" 
d="M270 1427l172 -260h-116l-117 176l-117 -176h-117l172 260h123zM158 0v1024h102v-1024h-102z" />
    <glyph glyph-name="idieresis" unicode="&#xef;" horiz-adv-x="417" 
d="M72 1182q-31 0 -52.5 21t-21.5 52q0 32 21.5 54t52.5 22q32 0 53.5 -22t21.5 -54q0 -31 -21.5 -52t-53.5 -21zM346 1182q-32 0 -54 21t-22 52q0 32 22 54t54 22q31 0 52.5 -22t21.5 -54q0 -31 -21.5 -52t-52.5 -21zM158 0v1024h102v-1024h-102z" />
    <glyph glyph-name="eth" unicode="&#xf0;" horiz-adv-x="1202" 
d="M1020 758q94 -129 94 -287q0 -110 -42 -204.5t-112.5 -157t-163.5 -97.5t-194 -35t-194 35t-164 97.5t-113.5 157t-42.5 204.5q0 141 71 252.5t184 170t243 58.5q114 0 202 -45l-210 281l-244 -150v95l196 120l-135 181h121l96 -129l228 139v-94l-178 -111zM602 76
q171 0 289.5 110t118.5 285q0 138 -68 229q-117 154 -340 154q-175 0 -292 -108t-117 -275q0 -175 119 -285t290 -110z" />
    <glyph glyph-name="ntilde" unicode="&#xf1;" 
d="M594 1251q-60 51 -99.5 65t-62 -15t-22.5 -107h-91q0 111 41.5 168t106 51.5t135.5 -67.5q60 -51 99.5 -64.5t62 15.5t22.5 106h91q0 -83 -24.5 -137t-64 -71.5t-90.5 -3.5t-104 60zM627 1047q182 0 289.5 -111.5t107.5 -298.5v-637h-104v637q0 143 -79.5 227t-222.5 84
q-159 0 -258.5 -104t-99.5 -303v-541h-102v1024h102v-195q112 218 367 218z" />
    <glyph glyph-name="ograve" unicode="&#xf2;" horiz-adv-x="1251" 
d="M719 1167l-164 260h-123l189 -260h98zM627 -23q-148 0 -271.5 70t-195.5 193t-72 272t72 272t195.5 193t271.5 70q147 0 270 -70t194.5 -193t71.5 -272t-71.5 -272t-194.5 -193t-270 -70zM627 76q183 0 307.5 126.5t124.5 309.5t-124.5 309.5t-307.5 126.5t-308.5 -126.5
t-125.5 -309.5t125.5 -309.5t308.5 -126.5z" />
    <glyph glyph-name="oacute" unicode="&#xf3;" horiz-adv-x="1251" 
d="M535 1167h100l186 260h-123zM627 -23q-148 0 -271.5 70t-195.5 193t-72 272t72 272t195.5 193t271.5 70q147 0 270 -70t194.5 -193t71.5 -272t-71.5 -272t-194.5 -193t-270 -70zM627 76q183 0 307.5 126.5t124.5 309.5t-124.5 309.5t-307.5 126.5t-308.5 -126.5
t-125.5 -309.5t125.5 -309.5t308.5 -126.5z" />
    <glyph glyph-name="ocircumflex" unicode="&#xf4;" horiz-adv-x="1251" 
d="M621 1362l-166 -195h-117l221 260h121l221 -260h-117zM627 1047q147 0 270 -70t194.5 -193t71.5 -272t-71.5 -272t-194.5 -193t-270 -70q-148 0 -271.5 70t-195.5 193t-72 272t72 272t195.5 193t271.5 70zM627 76q183 0 307.5 126.5t124.5 309.5t-124.5 309.5
t-307.5 126.5t-308.5 -126.5t-125.5 -309.5t125.5 -309.5t308.5 -126.5z" />
    <glyph glyph-name="otilde" unicode="&#xf5;" horiz-adv-x="1251" 
d="M342 1194q0 111 41.5 168t106 51.5t135.5 -67.5q60 -51 99.5 -64.5t62 15.5t22.5 106h90q0 -83 -24.5 -137t-64 -71.5t-90.5 -3.5t-104 60q-60 51 -99.5 65t-62 -15t-22.5 -107h-90zM627 -23q-148 0 -271.5 70t-195.5 193t-72 272t72 272t195.5 193t271.5 70
q147 0 270 -70t194.5 -193t71.5 -272t-71.5 -272t-194.5 -193t-270 -70zM627 76q183 0 307.5 126.5t124.5 309.5t-124.5 309.5t-307.5 126.5t-308.5 -126.5t-125.5 -309.5t125.5 -309.5t308.5 -126.5z" />
    <glyph glyph-name="odieresis" unicode="&#xf6;" horiz-adv-x="1251" 
d="M436 1182q-32 0 -54 21t-22 52q0 32 22 54t54 22q31 0 52.5 -22t21.5 -54q0 -31 -21.5 -52t-52.5 -21zM805 1182q-32 0 -54 21t-22 52q0 32 22 54t54 22q31 0 52.5 -22t21.5 -54q0 -31 -21.5 -52t-52.5 -21zM627 -23q-148 0 -271.5 70t-195.5 193t-72 272t72 272
t195.5 193t271.5 70q147 0 270 -70t194.5 -193t71.5 -272t-71.5 -272t-194.5 -193t-270 -70zM627 76q183 0 307.5 126.5t124.5 309.5t-124.5 309.5t-307.5 126.5t-308.5 -126.5t-125.5 -309.5t125.5 -309.5t308.5 -126.5z" />
    <glyph glyph-name="divide" unicode="&#xf7;" horiz-adv-x="1187" 
d="M594 1008q-38 0 -65 27t-27 65t27 65t65 27t65 -27t27 -65t-27 -65t-65 -27zM129 668v98h930v-98h-930zM594 242q-38 0 -65 27t-27 65t27 65t65 27t65 -27t27 -65t-27 -65t-65 -27z" />
    <glyph glyph-name="oslash" unicode="&#xf8;" horiz-adv-x="1251" 
d="M1014 887q70 -74 109.5 -170.5t39.5 -204.5q0 -149 -71.5 -272t-194.5 -193t-270 -70q-190 0 -334 113l-86 -96l-64 37l97 106q-72 72 -112 169t-40 206q0 149 72 272t195.5 193t271.5 70q187 0 331 -113l86 96l66 -37zM193 512q0 -176 114 -299l584 647q-115 88 -264 88
q-183 0 -308.5 -126.5t-125.5 -309.5zM627 76q183 0 307.5 126.5t124.5 309.5q0 174 -115 299l-584 -647q118 -88 267 -88z" />
    <glyph glyph-name="ugrave" unicode="&#xf9;" 
d="M659 1167h-98l-188 260h123zM895 1024h102v-1024h-102v195q-112 -218 -367 -218q-182 0 -289.5 111.5t-107.5 298.5v637h105v-637q0 -143 79 -227t222 -84q159 0 258.5 104t99.5 303v541z" />
    <glyph glyph-name="uacute" unicode="&#xfa;" 
d="M762 1427l-187 -260h-100l164 260h123zM895 1024h102v-1024h-102v195q-112 -218 -367 -218q-182 0 -289.5 111.5t-107.5 298.5v637h105v-637q0 -143 79 -227t222 -84q159 0 258.5 104t99.5 303v541z" />
    <glyph glyph-name="ucircumflex" unicode="&#xfb;" 
d="M561 1362l-166 -195h-116l221 260h121l221 -260h-117zM895 1024h102v-1024h-102v195q-112 -218 -367 -218q-182 0 -289.5 111.5t-107.5 298.5v637h105v-637q0 -143 79 -227t222 -84q159 0 258.5 104t99.5 303v541z" />
    <glyph glyph-name="udieresis" unicode="&#xfc;" 
d="M377 1182q-32 0 -54 21t-22 52q0 32 22 54t54 22q31 0 52.5 -22t21.5 -54q0 -31 -21.5 -52t-52.5 -21zM745 1182q-32 0 -53.5 21t-21.5 52q0 32 21.5 54t53.5 22q31 0 52.5 -22t21.5 -54q0 -31 -21.5 -52t-52.5 -21zM895 1024h102v-1024h-102v195q-112 -218 -367 -218
q-182 0 -289.5 111.5t-107.5 298.5v637h105v-637q0 -143 79 -227t222 -84q159 0 258.5 104t99.5 303v541z" />
    <glyph glyph-name="yacute" unicode="&#xfd;" horiz-adv-x="1044" 
d="M729 1427l-186 -260h-101l164 260h123zM907 1024h111l-443 -1118q-60 -152 -168 -239t-237 -77v97q99 -9 177.5 56t127.5 183l23 56l-471 1042h110l414 -911z" />
    <glyph glyph-name="thorn" unicode="&#xfe;" horiz-adv-x="1320" 
d="M700 1047q145 0 266.5 -70t193 -193t71.5 -272t-71.5 -272t-193 -193t-266.5 -70q-146 0 -261 70t-179 191v-648h-102v1844h102v-648q64 121 179 191t261 70zM694 76q183 0 308.5 126.5t125.5 309.5t-125.5 309.5t-308.5 126.5t-308.5 -126.5t-125.5 -309.5t125.5 -309.5
t308.5 -126.5z" />
    <glyph glyph-name="ydieresis" unicode="&#xff;" horiz-adv-x="1044" 
d="M344 1182q-32 0 -54 21t-22 52q0 32 22 54t54 22q31 0 52.5 -22t21.5 -54q0 -31 -21.5 -52t-52.5 -21zM713 1182q-32 0 -54 21t-22 52q0 32 22 54t54 22q31 0 52 -22t21 -54q0 -31 -21 -52t-52 -21zM907 1024h111l-443 -1118q-60 -152 -168 -239t-237 -77v97
q99 -9 177.5 56t127.5 183l23 56l-471 1042h110l414 -911z" />
    <glyph glyph-name="Amacron" unicode="&#x100;" horiz-adv-x="1288" 
d="M903 1702v-90h-518v90h518zM1143 0l-139 365h-719l-140 -365h-114l557 1434h114l555 -1434h-114zM326 467h639l-320 833z" />
    <glyph glyph-name="amacron" unicode="&#x101;" horiz-adv-x="1320" 
d="M887 1292v-90h-518v90h518zM1059 1024h104v-1024h-104v231q-66 -118 -181 -186t-260 -68q-144 0 -265.5 70t-193 193t-71.5 272t71.5 272t193 193t265.5 70q145 0 260 -68t181 -186v231zM627 76q183 0 307.5 126.5t124.5 309.5t-124.5 309.5t-307.5 126.5t-308.5 -126.5
t-125.5 -309.5t125.5 -309.5t308.5 -126.5z" />
    <glyph glyph-name="Abreve" unicode="&#x102;" horiz-adv-x="1288" 
d="M645 1567q-124 0 -198 67t-74 183h98q0 -78 45.5 -119t128.5 -41t128.5 41t45.5 119h99q0 -116 -74 -183t-199 -67zM1143 0l-139 365h-719l-140 -365h-114l557 1434h114l555 -1434h-114zM326 467h639l-320 833z" />
    <glyph glyph-name="abreve" unicode="&#x103;" horiz-adv-x="1320" 
d="M629 1157q-124 0 -198.5 67t-74.5 183h99q0 -78 45.5 -119t128.5 -41t128.5 41t45.5 119h98q0 -116 -73.5 -183t-198.5 -67zM1059 1024h104v-1024h-104v231q-66 -118 -181 -186t-260 -68q-144 0 -265.5 70t-193 193t-71.5 272t71.5 272t193 193t265.5 70q145 0 260 -68
t181 -186v231zM627 76q183 0 307.5 126.5t124.5 309.5t-124.5 309.5t-307.5 126.5t-308.5 -126.5t-125.5 -309.5t125.5 -309.5t308.5 -126.5z" />
    <glyph glyph-name="Aogonek" unicode="&#x104;" horiz-adv-x="1288" 
d="M1087 -268q0 -37 22 -56.5t60 -19.5q47 0 88 18v-86q-44 -20 -110 -20q-75 0 -117.5 40t-42.5 107q0 133 158 285h-2l-139 365h-719l-140 -365h-114l557 1434h114l555 -1434q-170 -154 -170 -268zM326 467h639l-320 833z" />
    <glyph glyph-name="aogonek" unicode="&#x105;" horiz-adv-x="1320" 
d="M1163 0q-170 -154 -170 -268q0 -37 22 -56.5t60 -19.5q45 0 88 18v-86q-47 -20 -110 -20q-75 0 -117.5 40t-42.5 107q0 136 166 305v211q-66 -118 -181 -186t-260 -68q-144 0 -265.5 70t-193 193t-71.5 272t71.5 272t193 193t265.5 70q145 0 260 -68t181 -186v231h104
v-1024zM627 76q183 0 307.5 126.5t124.5 309.5t-124.5 309.5t-307.5 126.5t-308.5 -126.5t-125.5 -309.5t125.5 -309.5t308.5 -126.5z" />
    <glyph glyph-name="Cacute" unicode="&#x106;" horiz-adv-x="1538" 
d="M756 1577h100l186 260h-122zM842 -23q-160 0 -300 58t-237 157.5t-153 236t-56 288.5t56 288t153 235.5t237 157.5t300 58q196 0 360 -93t254 -251l-96 -55q-71 133 -211 214t-307 81q-138 0 -258 -50t-202.5 -135.5t-129.5 -202t-47 -247.5t47 -247.5t129.5 -202
t202.5 -135.5t258 -50q169 0 310 82.5t212 218.5l96 -55q-89 -160 -254 -255.5t-364 -95.5z" />
    <glyph glyph-name="cacute" unicode="&#x107;" horiz-adv-x="1148" 
d="M526 1167h101l186 260h-123zM627 -23q-231 0 -385 153.5t-154 381.5t154 381.5t385 153.5q150 0 270 -71t176 -192l-84 -49q-45 97 -142.5 155t-219.5 58q-185 0 -309.5 -126t-124.5 -310t124.5 -310t309.5 -126q122 0 219 57.5t149 155.5l86 -51q-62 -120 -183.5 -190.5
t-270.5 -70.5z" />
    <glyph glyph-name="Cdotaccent" unicode="&#x10a;" horiz-adv-x="1538" 
d="M842 1583q-41 0 -69 28t-28 68t28 68.5t69 28.5q39 0 66.5 -28.5t27.5 -68.5t-27 -68t-67 -28zM842 -23q-160 0 -300 58t-237 157.5t-153 236t-56 288.5t56 288t153 235.5t237 157.5t300 58q196 0 360 -93t254 -251l-96 -55q-71 133 -211 214t-307 81q-138 0 -258 -50
t-202.5 -135.5t-129.5 -202t-47 -247.5t47 -247.5t129.5 -202t202.5 -135.5t258 -50q169 0 310 82.5t212 218.5l96 -55q-89 -160 -254 -255.5t-364 -95.5z" />
    <glyph glyph-name="cdotaccent" unicode="&#x10b;" horiz-adv-x="1148" 
d="M612 1174q-41 0 -68.5 28t-27.5 68t27.5 68t68.5 28q40 0 67.5 -28t27.5 -68t-27.5 -68t-67.5 -28zM627 -23q-231 0 -385 153.5t-154 381.5t154 381.5t385 153.5q150 0 270 -71t176 -192l-84 -49q-45 97 -142.5 155t-219.5 58q-185 0 -309.5 -126t-124.5 -310t124.5 -310
t309.5 -126q122 0 219 57.5t149 155.5l86 -51q-62 -120 -183.5 -190.5t-270.5 -70.5z" />
    <glyph glyph-name="Ccaron" unicode="&#x10c;" horiz-adv-x="1538" 
d="M780 1577l-221 260h119l164 -195l164 195h118l-221 -260h-123zM1364 383l96 -55q-89 -160 -254 -255.5t-364 -95.5q-160 0 -300 58t-237 157.5t-153 236t-56 288.5t56 288t153 235.5t237 157.5t300 58q196 0 360 -93t254 -251l-96 -55q-71 133 -211 214t-307 81
q-138 0 -258 -50t-202.5 -135.5t-129.5 -202t-47 -247.5t47 -247.5t129.5 -202t202.5 -135.5t258 -50q169 0 310 82.5t212 218.5z" />
    <glyph glyph-name="ccaron" unicode="&#x10d;" horiz-adv-x="1148" 
d="M551 1167l-221 260h119l163 -194l164 194h119l-221 -260h-123zM995 289l86 -51q-62 -120 -183.5 -190.5t-270.5 -70.5q-231 0 -385 153.5t-154 381.5t154 381.5t385 153.5q150 0 270 -71t176 -192l-84 -49q-45 97 -142.5 155t-219.5 58q-185 0 -309.5 -126t-124.5 -310
t124.5 -310t309.5 -126q122 0 219 57.5t149 155.5z" />
    <glyph glyph-name="Dcaron" unicode="&#x10e;" horiz-adv-x="1488" 
d="M655 1577l-221 260h119l164 -195l164 195h118l-221 -260h-123zM717 1434q145 0 271.5 -56.5t215 -153.5t139 -228.5t50.5 -278.5t-50.5 -278.5t-139 -228.5t-215 -153.5t-271.5 -56.5h-539v1434h539zM717 102q165 0 296 83t202 223t71 309t-71 309t-202 222.5t-296 82.5
h-430v-1229h430z" />
    <glyph glyph-name="dcaron" unicode="&#x10f;" horiz-adv-x="1427" 
d="M1061 786v648h102v-1434h-102v238q-64 -121 -179 -191t-261 -70q-145 0 -266.5 70t-193 193t-71.5 272t71.5 272t193 193t266.5 70q146 0 261 -70t179 -191zM1337 1434h103l-49 -349h-74zM627 76q183 0 308.5 126.5t125.5 309.5t-125.5 309.5t-308.5 126.5t-308.5 -126.5
t-125.5 -309.5t125.5 -309.5t308.5 -126.5z" />
    <glyph glyph-name="Dcroat" unicode="&#x110;" horiz-adv-x="1529" 
d="M758 1434q145 0 271.5 -56.5t215 -153.5t139 -228.5t50.5 -278.5t-50.5 -278.5t-139 -228.5t-215 -153.5t-271.5 -56.5h-539v668h-137v98h137v668h539zM758 102q165 0 296 83t202 223t71 309t-71 309t-202 222.5t-296 82.5h-430v-565h491v-98h-491v-566h430z" />
    <glyph glyph-name="dcroat" unicode="&#x111;" horiz-adv-x="1337" 
d="M1303 1278v-86h-140v-1192h-104v233q-64 -119 -179.5 -187.5t-261.5 -68.5q-144 0 -265.5 70t-193 193t-71.5 272t71.5 272t193 193t265.5 70q146 0 261.5 -68.5t179.5 -187.5v401h-412v86h412v156h104v-156h140zM627 76q183 0 307.5 126.5t124.5 309.5t-124.5 309.5
t-307.5 126.5t-308.5 -126.5t-125.5 -309.5t125.5 -309.5t308.5 -126.5z" />
    <glyph glyph-name="Emacron" unicode="&#x112;" horiz-adv-x="1091" 
d="M844 1702v-90h-518v90h518zM287 102h717v-102h-826v1434h815v-103h-706v-557h655v-102h-655v-570z" />
    <glyph glyph-name="emacron" unicode="&#x113;" horiz-adv-x="1206" 
d="M864 1292v-90h-518v90h518zM618 1047q150 0 267.5 -76.5t178 -198.5t60.5 -264q0 -8 -1 -24.5t-1 -24.5h-927q19 -173 139 -278t295 -105q123 0 215.5 51t138.5 135l90 -53q-65 -107 -181 -169.5t-265 -62.5q-236 0 -387.5 151.5t-151.5 383.5q0 228 149 381.5t381 153.5
zM618 948q-174 0 -291 -109t-132 -280h823q-17 181 -130 285t-270 104z" />
    <glyph glyph-name="Edotaccent" unicode="&#x116;" horiz-adv-x="1091" 
d="M586 1583q-41 0 -69 28t-28 68t28 68.5t69 28.5q39 0 66.5 -28.5t27.5 -68.5t-27 -68t-67 -28zM287 102h717v-102h-826v1434h815v-103h-706v-557h655v-102h-655v-570z" />
    <glyph glyph-name="edotaccent" unicode="&#x117;" horiz-adv-x="1206" 
d="M606 1174q-41 0 -68.5 28t-27.5 68t27.5 68t68.5 28q40 0 67 -28t27 -68t-27 -68t-67 -28zM618 1047q150 0 267.5 -76.5t178 -198.5t60.5 -264q0 -8 -1 -24.5t-1 -24.5h-927q19 -173 139 -278t295 -105q123 0 215.5 51t138.5 135l90 -53q-65 -107 -181 -169.5t-265 -62.5
q-236 0 -387.5 151.5t-151.5 383.5q0 228 149 381.5t381 153.5zM618 948q-174 0 -291 -109t-132 -280h823q-17 181 -130 285t-270 104z" />
    <glyph glyph-name="Eogonek" unicode="&#x118;" horiz-adv-x="1093" 
d="M1001 0q-170 -154 -170 -268q0 -37 22.5 -56.5t61.5 -19.5q45 0 89 18v-86q-47 -20 -111 -20q-77 0 -119.5 40t-42.5 107q0 65 41 139t121 146h-715v1434h815v-103h-706v-557h655v-102h-655v-570h717v-102h-3z" />
    <glyph glyph-name="eogonek" unicode="&#x119;" horiz-adv-x="1206" 
d="M618 1047q150 0 267.5 -76.5t178 -198.5t60.5 -264q0 -8 -1 -24.5t-1 -24.5h-927q19 -173 139 -278t295 -105q123 0 215.5 51t138.5 135l90 -53q-40 -61 -80 -96q-138 -154 -194 -239t-56 -142q0 -37 22.5 -56.5t61.5 -19.5q44 0 88 18v-86q-47 -20 -112 -20
q-75 0 -117.5 40t-42.5 107q0 127 154 287q-80 -25 -170 -25q-236 0 -387.5 151.5t-151.5 383.5q0 228 149 381.5t381 153.5zM618 948q-174 0 -291 -109t-132 -280h823q-17 181 -130 285t-270 104z" />
    <glyph glyph-name="Ecaron" unicode="&#x11a;" horiz-adv-x="1091" 
d="M524 1577l-221 260h119l164 -195l164 195h118l-221 -260h-123zM287 102h717v-102h-826v1434h815v-103h-706v-557h655v-102h-655v-570z" />
    <glyph glyph-name="ecaron" unicode="&#x11b;" horiz-adv-x="1206" 
d="M545 1167l-221 260h118l164 -194l164 194h119l-221 -260h-123zM618 1047q150 0 267.5 -76.5t178 -198.5t60.5 -264q0 -8 -1 -24.5t-1 -24.5h-927q19 -173 139 -278t295 -105q123 0 215.5 51t138.5 135l90 -53q-65 -107 -181 -169.5t-265 -62.5q-236 0 -387.5 151.5
t-151.5 383.5q0 228 149 381.5t381 153.5zM618 948q-174 0 -291 -109t-132 -280h823q-17 181 -130 285t-270 104z" />
    <glyph glyph-name="Gbreve" unicode="&#x11e;" horiz-adv-x="1636" 
d="M821 1567q-124 0 -198 67t-74 183h98q0 -78 45.5 -119t128.5 -41t128.5 41t45.5 119h99q0 -116 -74 -183t-199 -67zM1542 668v-56q0 -130 -48.5 -245.5t-136 -202t-219 -137t-288.5 -50.5q-217 0 -390.5 99.5t-268.5 268t-95 372.5q0 152 56 288t153 235.5t237 157.5
t300 58q197 0 361 -94t255 -252l-96 -57q-71 136 -211.5 217.5t-308.5 81.5q-138 0 -258 -50t-202.5 -135.5t-129.5 -202t-47 -247.5q0 -176 80 -320t228.5 -229.5t336.5 -85.5q127 0 234 37.5t179.5 103.5t116 153.5t52.5 188.5h-609v103h719z" />
    <glyph glyph-name="gbreve" unicode="&#x11f;" horiz-adv-x="1327" 
d="M645 1157q-124 0 -198 67t-74 183h98q0 -78 45.5 -119t128.5 -41t128.5 41t45.5 119h99q0 -116 -74 -183t-199 -67zM1067 1024h102v-975q0 -149 -69 -260t-183.5 -166t-257.5 -55q-176 0 -301 65.5t-182 180.5l90 51q97 -199 393 -199q191 0 299.5 103.5t108.5 279.5v189
q-64 -121 -179 -191t-261 -70q-145 0 -266.5 70t-193 193t-71.5 272t71.5 272t193 193t266.5 70q146 0 261 -70t179 -191v238zM633 76q183 0 308.5 126.5t125.5 309.5t-125.5 309.5t-308.5 126.5t-308.5 -126.5t-125.5 -309.5t125.5 -309.5t308.5 -126.5z" />
    <glyph glyph-name="Gdotaccent" unicode="&#x120;" horiz-adv-x="1636" 
d="M821 1583q-41 0 -68.5 28t-27.5 68t27.5 68.5t68.5 28.5q39 0 66.5 -28.5t27.5 -68.5t-27 -68t-67 -28zM1542 668v-56q0 -130 -48.5 -245.5t-136 -202t-219 -137t-288.5 -50.5q-217 0 -390.5 99.5t-268.5 268t-95 372.5q0 152 56 288t153 235.5t237 157.5t300 58
q197 0 361 -94t255 -252l-96 -57q-71 136 -211.5 217.5t-308.5 81.5q-138 0 -258 -50t-202.5 -135.5t-129.5 -202t-47 -247.5q0 -176 80 -320t228.5 -229.5t336.5 -85.5q127 0 234 37.5t179.5 103.5t116 153.5t52.5 188.5h-609v103h719z" />
    <glyph glyph-name="gdotaccent" unicode="&#x121;" horiz-adv-x="1327" 
d="M645 1174q-41 0 -68.5 28t-27.5 68t27.5 68t68.5 28q40 0 67 -28t27 -68t-27 -68t-67 -28zM1067 1024h102v-975q0 -149 -69 -260t-183.5 -166t-257.5 -55q-176 0 -301 65.5t-182 180.5l90 51q97 -199 393 -199q191 0 299.5 103.5t108.5 279.5v189q-64 -121 -179 -191
t-261 -70q-145 0 -266.5 70t-193 193t-71.5 272t71.5 272t193 193t266.5 70q146 0 261 -70t179 -191v238zM633 76q183 0 308.5 126.5t125.5 309.5t-125.5 309.5t-308.5 126.5t-308.5 -126.5t-125.5 -309.5t125.5 -309.5t308.5 -126.5z" />
    <glyph glyph-name="Gcommaaccent" unicode="&#x122;" horiz-adv-x="1636" 
d="M1542 668v-56q0 -130 -48.5 -245.5t-136 -202t-219 -137t-288.5 -50.5q-217 0 -390.5 99.5t-268.5 268t-95 372.5q0 152 56 288t153 235.5t237 157.5t300 58q197 0 361 -94t255 -252l-96 -57q-71 136 -211.5 217.5t-308.5 81.5q-138 0 -258 -50t-202.5 -135.5
t-129.5 -202t-47 -247.5q0 -176 80 -320t228.5 -229.5t336.5 -85.5q127 0 234 37.5t179.5 103.5t116 153.5t52.5 188.5h-609v103h719zM807 -492l20 349h105l-51 -349h-74z" />
    <glyph glyph-name="gcommaaccent" unicode="&#x123;" horiz-adv-x="1327" 
d="M705 1556l-21 -348h-104l51 348h74zM1067 1024h102v-975q0 -149 -69 -260t-183.5 -166t-257.5 -55q-176 0 -301 65.5t-182 180.5l90 51q97 -199 393 -199q191 0 299.5 103.5t108.5 279.5v189q-64 -121 -179 -191t-261 -70q-145 0 -266.5 70t-193 193t-71.5 272t71.5 272
t193 193t266.5 70q146 0 261 -70t179 -191v238zM633 76q183 0 308.5 126.5t125.5 309.5t-125.5 309.5t-308.5 126.5t-308.5 -126.5t-125.5 -309.5t125.5 -309.5t308.5 -126.5z" />
    <glyph glyph-name="Hbar" unicode="&#x126;" horiz-adv-x="1515" 
d="M1419 1151v-90h-135v-1061h-110v686h-832v-686h-111v1061h-135v90h135v283h111v-283h832v283h110v-283h135zM1174 788v273h-832v-273h832z" />
    <glyph glyph-name="hbar" unicode="&#x127;" horiz-adv-x="1181" 
d="M653 1047q182 0 290 -111.5t108 -298.5v-637h-103v637q0 143 -80 227t-223 84q-157 0 -256.5 -104t-99.5 -303v-541h-105v1192h-149v86h149v156h105v-156h319v-86h-319v-358q113 213 364 213z" />
    <glyph glyph-name="Imacron" unicode="&#x12a;" horiz-adv-x="464" 
d="M-29 1612v90h518v-90h-518zM178 1434h109v-1434h-109v1434z" />
    <glyph glyph-name="imacron" unicode="&#x12b;" horiz-adv-x="417" 
d="M18 1202v90h381v-90h-381zM158 0v1024h102v-1024h-102z" />
    <glyph glyph-name="Iogonek" unicode="&#x12e;" horiz-adv-x="464" 
d="M272 -344q44 0 88 18v-86q-44 -20 -110 -20q-77 0 -119.5 40t-42.5 107q0 116 90 289v1430h109v-1434q-36 -67 -51 -96.5t-30.5 -79t-15.5 -92.5q0 -37 22 -56.5t60 -19.5z" />
    <glyph glyph-name="iogonek" unicode="&#x12f;" horiz-adv-x="417" 
d="M209 1272q-34 0 -58 24t-24 58q0 32 24 56t58 24t58 -24t24 -56q0 -34 -24 -58t-58 -24zM252 -344q44 0 88 18v-86q-44 -20 -111 -20q-75 0 -118 47.5t-43 116.5q0 112 90 280v1012h102v-1024q-90 -155 -90 -252q0 -39 23 -65.5t59 -26.5z" />
    <glyph glyph-name="Idotaccent" unicode="&#x130;" horiz-adv-x="464" 
d="M231 1583q-41 0 -68.5 28t-27.5 68t27.5 68.5t68.5 28.5q40 0 67.5 -28.5t27.5 -68.5t-27.5 -68t-67.5 -28zM178 1434h109v-1434h-109v1434z" />
    <glyph glyph-name="dotlessi" unicode="&#x131;" horiz-adv-x="417" 
d="M158 0v1024h102v-1024h-102z" />
    <glyph glyph-name="Kcommaaccent" unicode="&#x136;" horiz-adv-x="1171" 
d="M406 737l745 -737h-145l-719 707v-707h-109v1434h109v-668l698 668h145zM565 -492l21 349h104l-51 -349h-74z" />
    <glyph glyph-name="kcommaaccent" unicode="&#x137;" horiz-adv-x="989" 
d="M371 532l571 -532h-139l-543 504v-504h-102v1434h102v-875l518 465h144zM467 -492l20 349h105l-51 -349h-74z" />
    <glyph glyph-name="Lacute" unicode="&#x139;" horiz-adv-x="1009" 
d="M465 1837l-186 -260h-101l164 260h123zM287 102h676v-102h-785v1434h109v-1332z" />
    <glyph glyph-name="lacute" unicode="&#x13a;" horiz-adv-x="417" 
d="M156 1577h100l186 260h-123zM158 0v1495h102v-1495h-102z" />
    <glyph glyph-name="Lcommaaccent" unicode="&#x13b;" horiz-adv-x="1009" 
d="M287 102h676v-102h-785v1434h109v-1332zM514 -492l21 349h104l-51 -349h-74z" />
    <glyph glyph-name="lcommaaccent" unicode="&#x13c;" horiz-adv-x="417" 
d="M158 0v1495h102v-1495h-102zM213 -492l51 349h-104l-21 -349h74z" />
    <glyph glyph-name="Lcaron" unicode="&#x13d;" horiz-adv-x="1009" 
d="M287 102h676v-102h-785v1434h109v-1332zM662 1434l-50 -349h-73l20 349h103z" />
    <glyph glyph-name="lcaron" unicode="&#x13e;" horiz-adv-x="526" 
d="M158 0v1495h102v-1495h-102zM489 1147l50 348h-103l-20 -348h73z" />
    <glyph glyph-name="Lslash" unicode="&#x141;" horiz-adv-x="1044" 
d="M322 102h675v-102h-784v512l-125 -74v101l125 73v822h109v-758l374 221v-100l-374 -222v-473z" />
    <glyph glyph-name="lslash" unicode="&#x142;" horiz-adv-x="491" 
d="M451 928v-101l-154 -104v-723h-102v651l-154 -104v100l154 105v743h102v-672z" />
    <glyph glyph-name="Nacute" unicode="&#x143;" horiz-adv-x="1406" 
d="M610 1577h101l186 260h-123zM1120 1434h109v-1434h-96l-846 1233v-1233h-109v1434h94l848 -1233v1233z" />
    <glyph glyph-name="nacute" unicode="&#x144;" 
d="M799 1427l-187 -260h-100l164 260h123zM627 1047q182 0 289.5 -111.5t107.5 -298.5v-637h-104v637q0 143 -79.5 227t-222.5 84q-159 0 -258.5 -104t-99.5 -303v-541h-102v1024h102v-195q112 218 367 218z" />
    <glyph glyph-name="Ncommaaccent" unicode="&#x145;" horiz-adv-x="1406" 
d="M1120 1434h109v-1434h-96l-846 1233v-1233h-109v1434h94l848 -1233v1233zM700 -492l52 349h-105l-20 -349h73z" />
    <glyph glyph-name="ncommaaccent" unicode="&#x146;" 
d="M627 1047q182 0 289.5 -111.5t107.5 -298.5v-637h-104v637q0 143 -79.5 227t-222.5 84q-159 0 -258.5 -104t-99.5 -303v-541h-102v1024h102v-195q112 218 367 218zM535 -492l20 349h104l-51 -349h-73z" />
    <glyph glyph-name="Ncaron" unicode="&#x147;" horiz-adv-x="1406" 
d="M635 1577l-221 260h118l164 -195l164 195h119l-221 -260h-123zM1120 1434h109v-1434h-96l-846 1233v-1233h-109v1434h94l848 -1233v1233z" />
    <glyph glyph-name="ncaron" unicode="&#x148;" 
d="M537 1167l-222 260h119l164 -194l164 194h119l-222 -260h-122zM627 1047q182 0 289.5 -111.5t107.5 -298.5v-637h-104v637q0 143 -79.5 227t-222.5 84q-159 0 -258.5 -104t-99.5 -303v-541h-102v1024h102v-195q112 218 367 218z" />
    <glyph glyph-name="Eng" unicode="&#x14a;" horiz-adv-x="1406" 
d="M1120 1434h109v-1434q0 -410 -420 -410v105q156 0 233.5 66.5t77.5 238.5v18l-833 1215v-1233h-109v1434h94l848 -1233v1233z" />
    <glyph glyph-name="eng" unicode="&#x14b;" 
d="M627 1047q182 0 289.5 -111.5t107.5 -298.5v-754q0 -164 -88 -247t-252 -68v98q121 -12 178.5 41t57.5 176v754q0 143 -79.5 227t-222.5 84q-159 0 -258.5 -104t-99.5 -303v-541h-102v1024h102v-195q112 218 367 218z" />
    <glyph glyph-name="Omacron" unicode="&#x14c;" horiz-adv-x="1671" 
d="M575 1612v90h519v-90h-519zM836 -23q-203 0 -373.5 99t-268.5 269t-98 372q0 151 58 288t156.5 236t236 157t289.5 58q122 0 235.5 -37t204 -105.5t158.5 -159t104.5 -203.5t36.5 -234q0 -202 -97.5 -372t-268 -269t-373.5 -99zM836 82q174 0 319 85t228 230.5t83 319.5
t-83 319.5t-228 230.5t-319 85t-319.5 -85t-228.5 -230.5t-83 -319.5t83 -319.5t228.5 -230.5t319.5 -85z" />
    <glyph glyph-name="omacron" unicode="&#x14d;" horiz-adv-x="1251" 
d="M360 1202v90h519v-90h-519zM627 -23q-148 0 -271.5 70t-195.5 193t-72 272t72 272t195.5 193t271.5 70q147 0 270 -70t194.5 -193t71.5 -272t-71.5 -272t-194.5 -193t-270 -70zM627 76q183 0 307.5 126.5t124.5 309.5t-124.5 309.5t-307.5 126.5t-308.5 -126.5
t-125.5 -309.5t125.5 -309.5t308.5 -126.5z" />
    <glyph glyph-name="Ohungarumlaut" unicode="&#x150;" horiz-adv-x="1671" 
d="M584 1577h104l154 266h-115zM874 1577h105l174 266h-115zM836 -23q-203 0 -373.5 99t-268.5 269t-98 372q0 151 58 288t156.5 236t236 157t289.5 58q122 0 235.5 -37t204 -105.5t158.5 -159t104.5 -203.5t36.5 -234q0 -202 -97.5 -372t-268 -269t-373.5 -99zM836 82
q174 0 319 85t228 230.5t83 319.5t-83 319.5t-228 230.5t-319 85t-319.5 -85t-228.5 -230.5t-83 -319.5t83 -319.5t228.5 -230.5t319.5 -85z" />
    <glyph glyph-name="ohungarumlaut" unicode="&#x151;" horiz-adv-x="1251" 
d="M369 1167h104l154 267h-115zM659 1167h105l174 267h-115zM627 -23q-148 0 -271.5 70t-195.5 193t-72 272t72 272t195.5 193t271.5 70q147 0 270 -70t194.5 -193t71.5 -272t-71.5 -272t-194.5 -193t-270 -70zM627 76q183 0 307.5 126.5t124.5 309.5t-124.5 309.5
t-307.5 126.5t-308.5 -126.5t-125.5 -309.5t125.5 -309.5t308.5 -126.5z" />
    <glyph glyph-name="OE" unicode="&#x152;" horiz-adv-x="1867" 
d="M1116 102h664v-102h-772q-94 -23 -193 -23q-155 0 -290 58t-228.5 158t-147 236t-53.5 288t53.5 288t147 235.5t228.5 157.5t290 58q103 0 193 -22h761v-103h-653v-557h615v-102h-615v-570zM1008 111v1212q-92 29 -193 29q-133 0 -247.5 -50t-193.5 -135.5t-124 -202
t-45 -247.5t45 -247.5t124 -202t193.5 -135.5t247.5 -50q101 0 193 29z" />
    <glyph glyph-name="oe" unicode="&#x153;" horiz-adv-x="2172" 
d="M1587 1047q149 0 266 -76.5t177.5 -198.5t60.5 -264q0 -33 -2 -49h-928q19 -173 139 -278t295 -105q123 0 216 51t139 135l90 -53q-63 -107 -179 -169.5t-264 -62.5q-176 0 -305 88t-184 238q-58 -148 -187 -237t-294 -89q-113 0 -213.5 41.5t-171.5 112.5t-112.5 170
t-41.5 211t41.5 211t112.5 170t171.5 112.5t213.5 41.5q167 0 295 -89t186 -239q55 149 182 238.5t297 89.5zM627 76q182 0 306 126t124 310t-124 310t-306 126q-187 0 -310.5 -125.5t-123.5 -310.5t123.5 -310.5t310.5 -125.5zM1585 948q-173 0 -291 -109t-133 -280h824
q-17 181 -130 285t-270 104z" />
    <glyph glyph-name="Racute" unicode="&#x154;" horiz-adv-x="1255" 
d="M842 1837l-187 -260h-100l164 260h123zM1083 0l-344 588h-452v-588h-109v1434h565q175 0 299.5 -124.5t124.5 -299.5q0 -145 -88.5 -258t-226.5 -150l356 -602h-125zM287 1331v-641h456q130 0 223 94t93 226q0 133 -92.5 227t-223.5 94h-456z" />
    <glyph glyph-name="racute" unicode="&#x155;" horiz-adv-x="651" 
d="M580 1427l-187 -260h-100l164 260h123zM260 823q93 215 342 215v-98q-68 0 -128 -21.5t-108.5 -65t-77 -116.5t-28.5 -168v-569h-102v1024h102v-201z" />
    <glyph glyph-name="Rcommaaccent" unicode="&#x156;" horiz-adv-x="1255" 
d="M1208 0h-125l-344 588h-452v-588h-109v1434h565q175 0 299.5 -124.5t124.5 -299.5q0 -145 -88.5 -258t-226.5 -150zM287 1331v-641h456q130 0 223 94t93 226q0 133 -92.5 227t-223.5 94h-456zM612 -492l21 349h104l-51 -349h-74z" />
    <glyph glyph-name="rcommaaccent" unicode="&#x157;" horiz-adv-x="651" 
d="M260 823q93 215 342 215v-98q-68 0 -128 -21.5t-108.5 -65t-77 -116.5t-28.5 -168v-569h-102v1024h102v-201zM137 -492l21 349h104l-51 -349h-74z" />
    <glyph glyph-name="Rcaron" unicode="&#x158;" horiz-adv-x="1255" 
d="M580 1577l-222 260h119l164 -195l164 195h119l-222 -260h-122zM1083 0l-344 588h-452v-588h-109v1434h565q175 0 299.5 -124.5t124.5 -299.5q0 -145 -88.5 -258t-226.5 -150l356 -602h-125zM287 1331v-641h456q130 0 223 94t93 226q0 133 -92.5 227t-223.5 94h-456z" />
    <glyph glyph-name="rcaron" unicode="&#x159;" horiz-adv-x="651" 
d="M317 1167l-221 260h119l164 -194l164 194h119l-222 -260h-123zM260 823q93 215 342 215v-98q-68 0 -128 -21.5t-108.5 -65t-77 -116.5t-28.5 -168v-569h-102v1024h102v-201z" />
    <glyph glyph-name="Sacute" unicode="&#x15a;" horiz-adv-x="1175" 
d="M487 1577h101l186 260h-123zM616 -23q-198 0 -336 91.5t-188 246.5l94 56q38 -134 148 -211.5t282 -77.5q174 0 267.5 79.5t93.5 207.5q0 50 -18.5 91.5t-48 70.5t-80.5 56.5t-100 46t-124 42.5q-190 62 -264 101q-148 79 -180 208q-10 40 -10 86q0 174 123.5 279.5
t310.5 105.5q168 0 286.5 -83.5t174.5 -217.5l-93 -51q-45 109 -135 178.5t-233 69.5q-147 0 -235.5 -77.5t-88.5 -199.5q0 -36 9.5 -67t23.5 -54.5t41 -45t51.5 -36.5t66.5 -32.5t73.5 -28.5t84.5 -29q67 -22 107 -36.5t97 -38t90.5 -44.5t72.5 -52.5t59.5 -64.5t34.5 -78
t14 -97q0 -179 -128.5 -286.5t-342.5 -107.5z" />
    <glyph glyph-name="sacute" unicode="&#x15b;" horiz-adv-x="937" 
d="M670 1427l-187 -260h-100l164 260h123zM227 756q0 -55 34 -93t89 -58.5t121 -37t132.5 -37t121.5 -49.5t89 -83t34 -130q0 -127 -102 -209t-265 -82q-148 0 -249.5 62.5t-139.5 165.5l88 51q28 -84 107 -132t194 -48q114 0 189 50t75 142q0 56 -34 95t-89 60t-121 37.5
t-132 37t-121 49t-89 81.5t-34 128q0 124 97 207.5t251 83.5q123 0 214.5 -55t133.5 -150l-86 -49q-31 76 -102 115.5t-160 39.5q-104 0 -175 -51.5t-71 -140.5z" />
    <glyph glyph-name="Scedilla" unicode="&#x15e;" horiz-adv-x="1175" 
d="M1087 371q0 -174 -123.5 -282t-328.5 -112v-92q82 -9 134 -49.5t52 -103.5q0 -32 -11.5 -58t-39 -50t-73.5 -38t-114 -20.5t-161 2.5v84q151 -15 230 7t79 73q0 88 -188 88v162q-170 17 -288 105.5t-163 227.5l94 56q38 -134 148 -211.5t282 -77.5q174 0 267.5 79.5
t93.5 207.5q0 50 -18.5 91.5t-48 70.5t-80.5 56.5t-100 46t-124 42.5q-190 62 -264 101q-148 79 -180 208q-10 40 -10 86q0 174 123.5 279.5t310.5 105.5q168 0 286.5 -83.5t174.5 -217.5l-93 -51q-45 109 -135 178.5t-233 69.5q-147 0 -235.5 -77.5t-88.5 -199.5
q0 -36 9.5 -67t23.5 -54.5t41 -45t51.5 -36.5t66.5 -32.5t73.5 -28.5t84.5 -29q67 -22 107 -36.5t97 -38t90.5 -44.5t72.5 -52.5t59.5 -64.5t34.5 -78t14 -97z" />
    <glyph glyph-name="scedilla" unicode="&#x15f;" horiz-adv-x="937" 
d="M848 268q0 -119 -89 -198.5t-235 -89.5v-95q82 -9 134.5 -49.5t52.5 -103.5q0 -40 -19.5 -71.5t-63 -57t-124.5 -35t-193 -0.5v84q152 -15 231 7t79 73q0 88 -189 88v160q-130 10 -217.5 70.5t-122.5 154.5l88 51q28 -84 107 -132t194 -48q114 0 189 50t75 142
q0 56 -34 95t-89 60t-121 37.5t-132 37t-121 49t-89 81.5t-34 128q0 124 97 207.5t251 83.5q123 0 214.5 -55t133.5 -150l-86 -49q-31 76 -102 115.5t-160 39.5q-104 0 -175 -51.5t-71 -140.5q0 -55 34 -93t89 -58.5t121 -37t132.5 -37t121.5 -49.5t89 -83t34 -130z" />
    <glyph glyph-name="Scaron" unicode="&#x160;" horiz-adv-x="1175" 
d="M512 1577l-221 260h119l163 -195l164 195h119l-221 -260h-123zM612 782q67 -22 107 -36.5t97 -38t90.5 -44.5t72.5 -52.5t59.5 -64.5t34.5 -78t14 -97q0 -179 -128.5 -286.5t-342.5 -107.5q-198 0 -336 91.5t-188 246.5l94 56q38 -134 148 -211.5t282 -77.5
q174 0 267.5 79.5t93.5 207.5q0 50 -18.5 91.5t-48 70.5t-80.5 56.5t-100 46t-124 42.5q-190 62 -264 101q-148 79 -180 208q-10 40 -10 86q0 174 123.5 279.5t310.5 105.5q168 0 286.5 -83.5t174.5 -217.5l-93 -51q-45 109 -135 178.5t-233 69.5q-147 0 -235.5 -77.5
t-88.5 -199.5q0 -36 9.5 -67t23.5 -54.5t41 -45t51.5 -36.5t66.5 -32.5t73.5 -28.5t84.5 -29z" />
    <glyph glyph-name="scaron" unicode="&#x161;" horiz-adv-x="937" 
d="M408 1167l-222 260h119l164 -194l164 194h119l-222 -260h-122zM227 756q0 -55 34 -93t89 -58.5t121 -37t132.5 -37t121.5 -49.5t89 -83t34 -130q0 -127 -102 -209t-265 -82q-148 0 -249.5 62.5t-139.5 165.5l88 51q28 -84 107 -132t194 -48q114 0 189 50t75 142
q0 56 -34 95t-89 60t-121 37.5t-132 37t-121 49t-89 81.5t-34 128q0 124 97 207.5t251 83.5q123 0 214.5 -55t133.5 -150l-86 -49q-31 76 -102 115.5t-160 39.5q-104 0 -175 -51.5t-71 -140.5z" />
    <glyph glyph-name="uni0162" unicode="&#x162;" horiz-adv-x="1105" 
d="M1059 1434v-103h-451v-1331h-110v1331h-451v103h1012zM483 -492l21 349h104l-51 -349h-74z" />
    <glyph glyph-name="uni0163" unicode="&#x163;" horiz-adv-x="770" 
d="M682 924h-305v-666q0 -88 32.5 -127.5t100.5 -43.5t172 5v-92q-207 -32 -308.5 28t-101.5 230v666h-225v100h225v256l105 31v-287h305v-100zM414 -492l20 349h105l-52 -349h-73z" />
    <glyph glyph-name="Tcaron" unicode="&#x164;" horiz-adv-x="1105" 
d="M492 1577l-222 260h119l164 -195l164 195h119l-222 -260h-122zM1059 1434v-103h-451v-1331h-110v1331h-451v103h1012z" />
    <glyph glyph-name="tcaron" unicode="&#x165;" horiz-adv-x="770" 
d="M621 1462l-50 -321h-73l20 321h103zM682 924h-305v-666q0 -88 32.5 -127.5t100.5 -43.5t172 5v-92q-207 -32 -308.5 28t-101.5 230v666h-225v100h225v256l105 31v-287h305v-100z" />
    <glyph glyph-name="Tbar" unicode="&#x166;" horiz-adv-x="1105" 
d="M1059 1331h-451v-565h314v-98h-314v-668h-110v668h-314v98h314v565h-451v103h1012v-103z" />
    <glyph glyph-name="tbar" unicode="&#x167;" horiz-adv-x="770" 
d="M682 924h-305v-344h205v-86h-205v-236q0 -88 32.5 -127.5t100.5 -43.5t172 5v-92q-207 -32 -308.5 28t-101.5 230v236h-141v86h141v344h-225v100h225v256l105 31v-287h305v-100z" />
    <glyph glyph-name="Umacron" unicode="&#x16a;" horiz-adv-x="1366" 
d="M420 1612v90h518v-90h-518zM682 -23q-236 0 -380 137.5t-144 364.5v955h108v-955q0 -179 109 -288t307 -109q199 0 308.5 109t109.5 288v955h108v-955q0 -227 -144.5 -364.5t-381.5 -137.5z" />
    <glyph glyph-name="umacron" unicode="&#x16b;" 
d="M819 1292v-90h-518v90h518zM895 1024h102v-1024h-102v195q-112 -218 -367 -218q-182 0 -289.5 111.5t-107.5 298.5v637h105v-637q0 -143 79 -227t222 -84q159 0 258.5 104t99.5 303v541z" />
    <glyph glyph-name="Uring" unicode="&#x16e;" horiz-adv-x="1366" 
d="M678 1475q-93 0 -151 56t-58 142t58 142.5t151 56.5q94 0 152.5 -56.5t58.5 -142.5t-58.5 -142t-152.5 -56zM678 1556q58 0 91.5 32.5t33.5 84.5t-33.5 84.5t-91.5 32.5q-56 0 -88.5 -32.5t-32.5 -84.5t32.5 -84.5t88.5 -32.5zM682 -23q-236 0 -380 137.5t-144 364.5v955
h108v-955q0 -179 109 -288t307 -109q199 0 308.5 109t109.5 288v955h108v-955q0 -227 -144.5 -364.5t-381.5 -137.5z" />
    <glyph glyph-name="uring" unicode="&#x16f;" 
d="M561 1133q-93 0 -151 56t-58 142t58 142.5t151 56.5q94 0 152.5 -56.5t58.5 -142.5t-58.5 -142t-152.5 -56zM561 1448q-56 0 -88.5 -32.5t-32.5 -84.5t32.5 -84.5t88.5 -32.5q58 0 91.5 32.5t33.5 84.5t-33.5 84.5t-91.5 32.5zM895 1024h102v-1024h-102v195
q-112 -218 -367 -218q-182 0 -289.5 111.5t-107.5 298.5v637h105v-637q0 -143 79 -227t222 -84q159 0 258.5 104t99.5 303v541z" />
    <glyph glyph-name="Uhungarumlaut" unicode="&#x170;" horiz-adv-x="1366" 
d="M428 1577h104l154 266h-115zM719 1577h104l174 266h-114zM682 -23q-236 0 -380 137.5t-144 364.5v955h108v-955q0 -179 109 -288t307 -109q199 0 308.5 109t109.5 288v955h108v-955q0 -227 -144.5 -364.5t-381.5 -137.5z" />
    <glyph glyph-name="uhungarumlaut" unicode="&#x171;" 
d="M567 1434l-153 -267h-105l144 267h114zM879 1434l-174 -267h-105l164 267h115zM895 1024h102v-1024h-102v195q-112 -218 -367 -218q-182 0 -289.5 111.5t-107.5 298.5v637h105v-637q0 -143 79 -227t222 -84q159 0 258.5 104t99.5 303v541z" />
    <glyph glyph-name="Uogonek" unicode="&#x172;" horiz-adv-x="1366" 
d="M1100 1434h108v-955q0 -257 -180 -395q-150 -133 -206 -207t-56 -145q0 -37 22 -56.5t60 -19.5q44 0 88 18v-86q-44 -20 -111 -20q-77 0 -119 40t-42 107q0 131 153 275q-70 -13 -135 -13q-236 0 -380 137.5t-144 364.5v955h108v-955q0 -179 109 -288t307 -109
q199 0 308.5 109t109.5 288v955z" />
    <glyph glyph-name="uogonek" unicode="&#x173;" 
d="M997 0q-170 -154 -170 -268q0 -37 22 -56.5t60 -19.5q45 0 88 18v-86q-47 -20 -110 -20q-75 0 -117.5 40t-42.5 107q0 126 168 305v175q-112 -218 -367 -218q-182 0 -289.5 111.5t-107.5 298.5v637h105v-637q0 -143 79 -227t222 -84q159 0 258.5 104t99.5 303v541h102
v-1024z" />
    <glyph glyph-name="Wcircumflex" unicode="&#x174;" horiz-adv-x="2033" 
d="M971 1772l-166 -195h-117l221 260h121l221 -260h-116zM1851 1434h115l-416 -1434h-131l-401 1292l-404 -1292h-131l-415 1434h114l371 -1289l399 1289h129l402 -1289z" />
    <glyph glyph-name="wcircumflex" unicode="&#x175;" horiz-adv-x="1576" 
d="M788 1362l-165 -195h-117l221 260h121l221 -260h-117zM1401 1024h108l-323 -1024h-113l-285 872l-284 -872h-113l-323 1024h108l273 -891l286 891h107l286 -891z" />
    <glyph glyph-name="Ycircumflex" unicode="&#x176;" horiz-adv-x="1193" 
d="M592 1772l-166 -195h-117l221 260h121l221 -260h-116zM1174 1434l-523 -844v-590h-108v590l-523 844h123l455 -740l453 740h123z" />
    <glyph glyph-name="ycircumflex" unicode="&#x177;" horiz-adv-x="1044" 
d="M528 1362l-166 -195h-116l221 260h121l221 -260h-117zM907 1024h111l-443 -1118q-60 -152 -168 -239t-237 -77v97q99 -9 177.5 56t127.5 183l23 56l-471 1042h110l414 -911z" />
    <glyph glyph-name="Ydieresis" unicode="&#x178;" horiz-adv-x="1193" 
d="M408 1591q-32 0 -54 21.5t-22 52.5q0 32 22 54t54 22q31 0 52 -22t21 -54q0 -31 -21 -52.5t-52 -21.5zM776 1591q-32 0 -54 21.5t-22 52.5q0 32 22 54t54 22q31 0 52.5 -22t21.5 -54q0 -31 -21.5 -52.5t-52.5 -21.5zM1174 1434l-523 -844v-590h-108v590l-523 844h123
l455 -740l453 740h123z" />
    <glyph glyph-name="Zacute" unicode="&#x179;" horiz-adv-x="1071" 
d="M748 1837l-187 -260h-100l164 260h123zM209 102h795v-102h-916v102l774 1229h-753v103h874v-103z" />
    <glyph glyph-name="zacute" unicode="&#x17a;" horiz-adv-x="976" 
d="M702 1427l-186 -260h-100l164 260h122zM254 100h633v-100h-778v68l614 856h-594v100h737v-68z" />
    <glyph glyph-name="Zdotaccent" unicode="&#x17b;" horiz-adv-x="1071" 
d="M547 1583q-41 0 -68.5 28t-27.5 68t27.5 68.5t68.5 28.5q39 0 66.5 -28.5t27.5 -68.5t-27 -68t-67 -28zM209 102h795v-102h-916v102l774 1229h-753v103h874v-103z" />
    <glyph glyph-name="zdotaccent" unicode="&#x17c;" horiz-adv-x="976" 
d="M502 1174q-41 0 -68.5 28t-27.5 68t27.5 68t68.5 28q40 0 67 -28t27 -68t-27 -68t-67 -28zM254 100h633v-100h-778v68l614 856h-594v100h737v-68z" />
    <glyph glyph-name="Zcaron" unicode="&#x17d;" horiz-adv-x="1071" 
d="M485 1577l-221 260h119l164 -195l164 195h118l-221 -260h-123zM209 102h795v-102h-916v102l774 1229h-753v103h874v-103z" />
    <glyph glyph-name="zcaron" unicode="&#x17e;" horiz-adv-x="976" 
d="M440 1167l-221 260h119l164 -194l164 194h118l-221 -260h-123zM254 100h633v-100h-778v68l614 856h-594v100h737v-68z" />
    <glyph glyph-name="florin" unicode="&#x192;" horiz-adv-x="892" 
d="M510 1182q27 168 133.5 235.5t249.5 22.5v-103q-107 44 -184 0t-97 -157l-69 -412h245v-100h-262l-141 -826q-29 -168 -135.5 -235.5t-249.5 -22.5v103q108 -44 185 0t96 157l141 824h-236v100h252z" />
    <glyph glyph-name="Scommaaccent" unicode="&#x218;" horiz-adv-x="1175" 
d="M616 -23q-198 0 -336 91.5t-188 246.5l94 56q38 -134 148 -211.5t282 -77.5q174 0 267.5 79.5t93.5 207.5q0 50 -18.5 91.5t-48 70.5t-80.5 56.5t-100 46t-124 42.5q-190 62 -264 101q-148 79 -180 208q-10 40 -10 86q0 174 123.5 279.5t310.5 105.5q168 0 286.5 -83.5
t174.5 -217.5l-93 -51q-45 109 -135 178.5t-233 69.5q-147 0 -235.5 -77.5t-88.5 -199.5q0 -36 9.5 -67t23.5 -54.5t41 -45t51.5 -36.5t66.5 -32.5t73.5 -28.5t84.5 -29q67 -22 107 -36.5t97 -38t90.5 -44.5t72.5 -52.5t59.5 -64.5t34.5 -78t14 -97q0 -179 -128.5 -286.5
t-342.5 -107.5zM614 -492l52 349h-105l-20 -349h73z" />
    <glyph glyph-name="scommaaccent" unicode="&#x219;" horiz-adv-x="937" 
d="M227 756q0 -55 34 -93t89 -58.5t121 -37t132.5 -37t121.5 -49.5t89 -83t34 -130q0 -127 -102 -209t-265 -82q-148 0 -249.5 62.5t-139.5 165.5l88 51q28 -84 107 -132t194 -48q114 0 189 50t75 142q0 56 -34 95t-89 60t-121 37.5t-132 37t-121 49t-89 81.5t-34 128
q0 124 97 207.5t251 83.5q123 0 214.5 -55t133.5 -150l-86 -49q-31 76 -102 115.5t-160 39.5q-104 0 -175 -51.5t-71 -140.5zM430 -492l21 349h104l-51 -349h-74z" />
    <glyph glyph-name="uni021A" unicode="&#x21a;" horiz-adv-x="1105" 
d="M1059 1434v-103h-451v-1331h-110v1331h-451v103h1012zM483 -492l21 349h104l-51 -349h-74z" />
    <glyph glyph-name="uni021B" unicode="&#x21b;" horiz-adv-x="770" 
d="M682 924h-305v-666q0 -88 32.5 -127.5t100.5 -43.5t172 5v-92q-207 -32 -308.5 28t-101.5 230v666h-225v100h225v256l105 31v-287h305v-100zM414 -492l20 349h105l-52 -349h-73z" />
    <glyph glyph-name="circumflex" unicode="&#x2c6;" horiz-adv-x="645" 
d="M604 1167h-117l-163 195l-166 -195h-117l221 260h121z" />
    <glyph glyph-name="caron" unicode="&#x2c7;" horiz-adv-x="645" 
d="M487 1427h119l-221 -260h-123l-221 260h119l164 -194z" />
    <glyph glyph-name="breve" unicode="&#x2d8;" horiz-adv-x="628" 
d="M313 1157q-124 0 -198 67t-74 183h98q0 -78 45.5 -119t128.5 -41t128.5 41t45.5 119h99q0 -116 -74 -183t-199 -67z" />
    <glyph glyph-name="dotaccent" unicode="&#x2d9;" horiz-adv-x="272" 
d="M137 1174q-41 0 -68.5 28t-27.5 68t27.5 68t68.5 28q40 0 67 -28t27 -68t-27 -68t-67 -28z" />
    <glyph glyph-name="ring" unicode="&#x2da;" horiz-adv-x="501" 
d="M250 1133q-93 0 -151 56t-58 142t58 142.5t151 56.5q94 0 152.5 -56.5t58.5 -142.5t-58.5 -142t-152.5 -56zM250 1214q58 0 91.5 32.5t33.5 84.5t-33.5 84.5t-91.5 32.5q-56 0 -88.5 -32.5t-32.5 -84.5t32.5 -84.5t88.5 -32.5z" />
    <glyph glyph-name="ogonek" unicode="&#x2db;" horiz-adv-x="354" 
d="M203 -432q-77 0 -119.5 40t-42.5 107q0 65 41 139t121 146h108q-170 -154 -170 -268q0 -37 22.5 -56.5t61.5 -19.5q45 0 88 18v-86q-47 -20 -110 -20z" />
    <glyph glyph-name="tilde" unicode="&#x2dc;" horiz-adv-x="638" 
d="M41 1194q0 111 41.5 168t106 51.5t135.5 -67.5q60 -51 99.5 -64.5t62 15.5t22.5 106h90q0 -83 -24.5 -137t-64 -71.5t-90.5 -3.5t-104 60q-60 51 -99.5 65t-62 -15t-22.5 -107h-90z" />
    <glyph glyph-name="hungarumlaut" unicode="&#x2dd;" horiz-adv-x="651" 
d="M41 1167h104l154 267h-115zM332 1167h104l174 267h-114z" />
    <glyph glyph-name="gravecomb" unicode="&#x300;" horiz-adv-x="0" 
d="M-41 1167l-164 260h-123l189 -260h98z" />
    <glyph glyph-name="acutecomb" unicode="&#x301;" horiz-adv-x="0" 
d="M-328 1167h101l186 260h-123z" />
    <glyph glyph-name="uni0302" unicode="&#x302;" horiz-adv-x="0" 
d="M-41 1167h-117l-164 195l-165 -195h-117l221 260h121z" />
    <glyph glyph-name="tildecomb" unicode="&#x303;" horiz-adv-x="0" 
d="M-598 1194q0 111 41.5 168t106 51.5t135.5 -67.5q60 -51 99.5 -64.5t62 15.5t22.5 106h90q0 -83 -24.5 -137t-64 -71.5t-90.5 -3.5t-104 60q-60 51 -99.5 65t-62 -15t-22.5 -107h-90z" />
    <glyph glyph-name="uni0304" unicode="&#x304;" horiz-adv-x="0" 
d="M-559 1202v90h518v-90h-518z" />
    <glyph glyph-name="uni0306" unicode="&#x306;" horiz-adv-x="0" 
d="M-328 1157q-124 0 -198 67t-74 183h98q0 -78 45.5 -119t128.5 -41t128.5 41t45.5 119h99q0 -116 -74 -183t-199 -67z" />
    <glyph glyph-name="uni0307" unicode="&#x307;" horiz-adv-x="0" 
d="M-135 1174q-41 0 -68.5 28t-27.5 68t27.5 68t68.5 28q40 0 67 -28t27 -68t-27 -68t-67 -28z" />
    <glyph glyph-name="uni0308" unicode="&#x308;" horiz-adv-x="0" 
d="M-483 1182q-32 0 -54 21t-22 52q0 32 22 54t54 22q31 0 52 -22t21 -54q0 -31 -21 -52t-52 -21zM-115 1182q-32 0 -53.5 21t-21.5 52q0 32 21.5 54t53.5 22q31 0 52.5 -22t21.5 -54q0 -31 -21.5 -52t-52.5 -21z" />
    <glyph glyph-name="uni030A" unicode="&#x30a;" horiz-adv-x="0" 
d="M-252 1133q-93 0 -151 56t-58 142t58 142.5t151 56.5q94 0 152.5 -56.5t58.5 -142.5t-58.5 -142t-152.5 -56zM-252 1214q58 0 91.5 32.5t33.5 84.5t-33.5 84.5t-91.5 32.5q-56 0 -88.5 -32.5t-32.5 -84.5t32.5 -84.5t88.5 -32.5z" />
    <glyph glyph-name="uni030B" unicode="&#x30b;" horiz-adv-x="0" 
d="M-604 1167h104l154 267h-115zM-313 1167h104l174 267h-115z" />
    <glyph glyph-name="uni030C" unicode="&#x30c;" horiz-adv-x="0" 
d="M-158 1427h119l-221 -260h-123l-221 260h119l163 -194z" />
    <glyph glyph-name="uni0312" unicode="&#x312;" horiz-adv-x="0" 
d="M-115 1966l-51 -348h105l20 348h-74z" />
    <glyph glyph-name="uni0326" unicode="&#x326;" horiz-adv-x="0" 
d="M-92 -492l51 349h-104l-21 -349h74z" />
    <glyph glyph-name="uni0327" unicode="&#x327;" horiz-adv-x="0" 
d="M-227 -115q82 -9 134 -49.5t52 -103.5q0 -32 -11.5 -58t-39 -50t-73.5 -38t-114 -20.5t-161 2.5v84q151 -15 230 7t79 73q0 88 -188 88v180h92v-115z" />
    <glyph glyph-name="uni0328" unicode="&#x328;" horiz-adv-x="0" 
d="M-152 -432q-77 0 -119 40t-42 107q0 65 40.5 139.5t120.5 145.5h109q-170 -154 -170 -268q0 -37 22.5 -56.5t61.5 -19.5q45 0 88 18v-86q-47 -20 -111 -20z" />
    <glyph glyph-name="uni0394" unicode="&#x394;" horiz-adv-x="1282" 
d="M698 1434l557 -1434h-1228l557 1434h114zM182 102h918l-459 1198z" />
    <glyph glyph-name="uni03A9" unicode="&#x3a9;" horiz-adv-x="1671" 
d="M1575 717q0 -198 -96 -361t-258 -254h331v-102h-555v102q206 53 337.5 223.5t131.5 391.5q0 174 -83 319.5t-228 230.5t-319 85t-319.5 -85t-228.5 -230.5t-83 -319.5q0 -221 131 -391.5t338 -223.5v-102h-555v102h332q-163 91 -259 254t-96 361q0 151 58 288t156.5 236
t236 157t289.5 58q122 0 235.5 -37t204 -105.5t158.5 -159t104.5 -203.5t36.5 -234z" />
    <glyph glyph-name="pi" unicode="&#x3c0;" horiz-adv-x="1331" 
d="M1264 1024v-100h-170v-924h-105v924h-639v-924h-104v924h-178v100h1196z" />
    <glyph glyph-name="uni0401" unicode="&#x401;" horiz-adv-x="1091" 
d="M401 1591q-32 0 -53.5 21.5t-21.5 52.5q0 32 21.5 54t53.5 22q31 0 52.5 -22t21.5 -54q0 -31 -21.5 -52.5t-52.5 -21.5zM770 1591q-32 0 -54 21.5t-22 52.5q0 32 22 54t54 22q31 0 52.5 -22t21.5 -54q0 -31 -21.5 -52.5t-52.5 -21.5zM287 102h717v-102h-826v1434h815
v-103h-706v-557h655v-102h-655v-570z" />
    <glyph glyph-name="uni0402" unicode="&#x402;" horiz-adv-x="1431" 
d="M918 965q165 0 270.5 -97t105.5 -280v-285q0 -166 -88 -249t-252 -68v100q121 -13 176.5 39.5t55.5 177.5v285q0 138 -73 208t-195 70q-170 0 -351 -80v-786h-110v1331h-410v103h997v-103h-477v-446q166 80 351 80z" />
    <glyph glyph-name="uni0403" unicode="&#x403;" horiz-adv-x="1009" 
d="M766 1835l-186 -260h-101l164 260h123zM963 1434v-103h-676v-1331h-109v1434h785z" />
    <glyph glyph-name="uni0404" unicode="&#x404;" horiz-adv-x="1531" 
d="M1356 383l98 -55q-89 -160 -255 -255.5t-363 -95.5q-213 0 -383.5 99.5t-263.5 268t-93 372.5q0 152 55 288t151 235.5t235 157.5t299 58q195 0 359.5 -93t254.5 -251l-96 -55q-73 133 -213 214t-305 81q-131 0 -245.5 -45t-195 -123.5t-130 -186t-58.5 -229.5h809v-102
h-809q9 -122 58.5 -229.5t130 -186t195 -123.5t245.5 -45q168 0 308.5 82t211.5 219z" />
    <glyph glyph-name="uni0405" unicode="&#x405;" horiz-adv-x="1175" 
d="M616 -23q-198 0 -336 91.5t-188 246.5l94 56q38 -134 148 -211.5t282 -77.5q174 0 267.5 79.5t93.5 207.5q0 50 -18.5 91.5t-48 70.5t-80.5 56.5t-100 46t-124 42.5q-190 62 -264 101q-148 79 -180 208q-10 40 -10 86q0 174 123.5 279.5t310.5 105.5q168 0 286.5 -83.5
t174.5 -217.5l-93 -51q-45 109 -135 178.5t-233 69.5q-147 0 -235.5 -77.5t-88.5 -199.5q0 -36 9.5 -67t23.5 -54.5t41 -45t51.5 -36.5t66.5 -32.5t73.5 -28.5t84.5 -29q67 -22 107 -36.5t97 -38t90.5 -44.5t72.5 -52.5t59.5 -64.5t34.5 -78t14 -97q0 -179 -128.5 -286.5
t-342.5 -107.5z" />
    <glyph glyph-name="uni0406" unicode="&#x406;" horiz-adv-x="464" 
d="M178 1434h109v-1434h-109v1434z" />
    <glyph glyph-name="uni0407" unicode="&#x407;" horiz-adv-x="464" 
d="M47 1591q-32 0 -54 21.5t-22 52.5q0 32 22 54t54 22q31 0 52.5 -22t21.5 -54q0 -31 -21.5 -52.5t-52.5 -21.5zM416 1591q-32 0 -54 21.5t-22 52.5q0 32 22 54t54 22q31 0 52 -22t21 -54q0 -31 -21 -52.5t-52 -21.5zM178 1434h109v-1434h-109v1434z" />
    <glyph glyph-name="uni0408" unicode="&#x408;" horiz-adv-x="1132" 
d="M516 -23q-151 0 -263.5 61.5t-164.5 178.5l92 55q37 -95 124.5 -142.5t211.5 -47.5q161 0 255.5 80.5t94.5 230.5v1041h111v-1041q0 -133 -63 -228.5t-165.5 -141.5t-232.5 -46z" />
    <glyph glyph-name="uni0409" unicode="&#x409;" horiz-adv-x="2037" 
d="M1526 805q115 0 212.5 -52t154.5 -144.5t57 -205.5q0 -173 -123.5 -288t-300.5 -115h-451v1331h-620v-725q0 -176 -27.5 -299t-83 -193t-130.5 -97.5t-177 -18.5v96q73 -8 128 13.5t96.5 78.5t63 163t21.5 259v826h838v-629h342zM1526 102q131 0 222 85t91 216
q0 130 -91 214.5t-222 84.5h-342v-600h342z" />
    <glyph glyph-name="uni040A" unicode="&#x40a;" horiz-adv-x="2013" 
d="M1501 805q115 0 212.5 -52t154.5 -144.5t57 -205.5q0 -173 -123.5 -288t-300.5 -115h-450v702h-764v-702h-109v1434h109v-629h764v629h110v-629h340zM1501 102q133 0 224.5 85t91.5 216q0 130 -91.5 214.5t-224.5 84.5h-340v-600h340z" />
    <glyph glyph-name="uni040B" unicode="&#x40b;" horiz-adv-x="1443" 
d="M918 965q165 0 270.5 -97t105.5 -280v-588h-108v588q0 138 -73 208t-195 70q-170 0 -351 -80v-786h-110v1331h-410v103h997v-103h-477v-446q166 80 351 80z" />
    <glyph glyph-name="uni040C" unicode="&#x40c;" horiz-adv-x="1171" 
d="M786 1835l-186 -260h-100l164 260h122zM1151 0h-145l-719 707v-707h-109v1434h109v-668l698 668h145l-724 -697z" />
    <glyph glyph-name="uni040E" unicode="&#x40e;" horiz-adv-x="1159" 
d="M850 1700v-90h-518v90h518zM1020 1434h113l-478 -1121q-74 -174 -180.5 -249t-255.5 -64v100q115 -12 193.5 42.5t134.5 183.5l24 57l-503 1051h112l443 -928z" />
    <glyph glyph-name="uni040F" unicode="&#x40f;" horiz-adv-x="1378" 
d="M1092 1434h110v-1434h-459v-274h-108v274h-457v1434h109v-1332h805v1332z" />
    <glyph glyph-name="uni0410" unicode="&#x410;" horiz-adv-x="1288" 
d="M1143 0l-139 365h-719l-140 -365h-114l557 1434h114l555 -1434h-114zM326 467h639l-320 833z" />
    <glyph glyph-name="uni0411" unicode="&#x411;" horiz-adv-x="1198" 
d="M696 846q175 0 299.5 -124.5t124.5 -297.5q0 -175 -124.5 -299.5t-299.5 -124.5h-518v1434h826v-103h-717v-485h409zM696 102q129 0 221.5 94.5t92.5 227.5q0 132 -92.5 225.5t-221.5 93.5h-409v-641h409z" />
    <glyph glyph-name="uni0412" unicode="&#x412;" horiz-adv-x="1275" 
d="M942 743q110 -42 178 -137t68 -215q0 -163 -114 -277t-277 -114h-619v1434h572q156 0 266 -110.5t110 -266.5q0 -103 -49.5 -186t-134.5 -128zM750 1331h-463v-549h463q110 0 189 80.5t79 194.5t-78.5 194t-189.5 80zM797 102q117 0 199.5 84.5t82.5 204.5t-82.5 204.5
t-199.5 84.5h-510v-578h510z" />
    <glyph glyph-name="uni0413" unicode="&#x413;" horiz-adv-x="1009" 
d="M963 1434v-103h-676v-1331h-109v1434h785z" />
    <glyph glyph-name="uni0414" unicode="&#x414;" horiz-adv-x="1413" 
d="M1184 102h151v-376h-110v274h-1078v-274h-110v376h115q147 165 147 514v818h885v-1332zM408 614q0 -334 -127 -512h794v1229h-667v-717z" />
    <glyph glyph-name="uni0415" unicode="&#x415;" horiz-adv-x="1091" 
d="M287 102h717v-102h-826v1434h815v-103h-706v-557h655v-102h-655v-570z" />
    <glyph glyph-name="uni0416" unicode="&#x416;" horiz-adv-x="1712" 
d="M1671 0h-129l-631 711v-711h-110v711l-631 -711h-129l651 737l-631 697h129l611 -670v670h110v-670l611 670h129l-631 -697z" />
    <glyph glyph-name="uni0417" unicode="&#x417;" horiz-adv-x="1140" 
d="M793 741q126 -43 196 -137.5t70 -222.5q0 -175 -132 -289.5t-352 -114.5q-200 0 -322.5 87t-170.5 229l94 51q32 -117 129.5 -190.5t269.5 -73.5q175 0 274 83.5t99 217.5q0 130 -90 214.5t-246 84.5h-161v102h114q152 0 242 80.5t90 204.5q0 125 -90.5 206t-239.5 81
q-276 0 -368 -236l-90 51q55 132 168 209.5t290 77.5q194 0 316.5 -111t122.5 -278q0 -108 -56.5 -194t-156.5 -132z" />
    <glyph glyph-name="uni0418" unicode="&#x418;" horiz-adv-x="1406" 
d="M1120 0v1233l-848 -1233h-94v1434h109v-1233l846 1233h96v-1434h-109z" />
    <glyph glyph-name="uni0419" unicode="&#x419;" horiz-adv-x="1406" 
d="M442 1612v90h519v-90h-519zM1120 0v1233l-848 -1233h-94v1434h109v-1233l846 1233h96v-1434h-109z" />
    <glyph glyph-name="uni041A" unicode="&#x41a;" horiz-adv-x="1171" 
d="M1151 0h-145l-719 707v-707h-109v1434h109v-668l698 668h145l-724 -697z" />
    <glyph glyph-name="uni041B" unicode="&#x41b;" horiz-adv-x="1429" 
d="M37 0v96q73 -9 128 12t96.5 78t63 163t21.5 259v826h907v-1434h-110v1331h-688v-725q0 -176 -27.5 -298.5t-83 -192.5t-130.5 -97t-177 -18z" />
    <glyph glyph-name="uni041C" unicode="&#x41c;" horiz-adv-x="1652" 
d="M1475 1434v-1434h-109v1274l-530 -881h-19l-530 881v-1274h-109v1434h135l512 -848l512 848h138z" />
    <glyph glyph-name="uni041D" unicode="&#x41d;" horiz-adv-x="1406" 
d="M1120 1434h109v-1434h-109v686h-833v-686h-109v1434h109v-646h833v646z" />
    <glyph glyph-name="uni041E" unicode="&#x41e;" horiz-adv-x="1671" 
d="M836 -23q-203 0 -373.5 99t-268.5 269t-98 372q0 151 58 288t156.5 236t236 157t289.5 58q122 0 235.5 -37t204 -105.5t158.5 -159t104.5 -203.5t36.5 -234q0 -202 -97.5 -372t-268 -269t-373.5 -99zM836 82q174 0 319 85t228 230.5t83 319.5t-83 319.5t-228 230.5
t-319 85t-319.5 -85t-228.5 -230.5t-83 -319.5t83 -319.5t228.5 -230.5t319.5 -85z" />
    <glyph glyph-name="uni041F" unicode="&#x41f;" horiz-adv-x="1378" 
d="M1202 1434v-1434h-110v1331h-805v-1331h-109v1434h1024z" />
    <glyph glyph-name="uni0420" unicode="&#x420;" horiz-adv-x="1202" 
d="M666 1434q193 0 319.5 -127t126.5 -318q0 -190 -126.5 -316t-319.5 -126h-379v-547h-109v1434h488zM666 649q148 0 243 96t95 244q0 149 -95 245.5t-243 96.5h-379v-682h379z" />
    <glyph glyph-name="uni0421" unicode="&#x421;" horiz-adv-x="1538" 
d="M842 -23q-160 0 -300 58t-237 157.5t-153 236t-56 288.5t56 288t153 235.5t237 157.5t300 58q196 0 360 -93t254 -251l-96 -55q-71 133 -211 214t-307 81q-138 0 -258 -50t-202.5 -135.5t-129.5 -202t-47 -247.5t47 -247.5t129.5 -202t202.5 -135.5t258 -50
q169 0 310 82.5t212 218.5l96 -55q-89 -160 -254 -255.5t-364 -95.5z" />
    <glyph glyph-name="uni0422" unicode="&#x422;" horiz-adv-x="1105" 
d="M1059 1434v-103h-451v-1331h-110v1331h-451v103h1012z" />
    <glyph glyph-name="uni0423" unicode="&#x423;" horiz-adv-x="1159" 
d="M1020 1434h113l-478 -1121q-74 -174 -180.5 -249t-255.5 -64v100q115 -12 193.5 42.5t134.5 183.5l24 57l-503 1051h112l443 -928z" />
    <glyph glyph-name="uni0424" unicode="&#x424;" horiz-adv-x="1646" 
d="M1579 717q0 -129 -52.5 -232.5t-146.5 -172t-221.5 -107t-279.5 -43.5v-162h-111v162q-152 5 -279.5 43.5t-221.5 107t-146.5 172t-52.5 232.5t52.5 232.5t146.5 172t221.5 107t279.5 43.5v162h111v-162q152 -5 279.5 -43.5t221.5 -107t146.5 -172t52.5 -232.5zM178 717
q0 -211 159 -327.5t431 -127.5v909q-272 -11 -431 -127t-159 -327zM879 262q272 11 430.5 127.5t158.5 327.5t-158.5 327t-430.5 127v-909z" />
    <glyph glyph-name="uni0425" unicode="&#x425;" horiz-adv-x="1173" 
d="M1126 0h-125l-413 639l-414 -639h-127l477 737l-450 697h125l389 -600l387 600h125l-451 -697z" />
    <glyph glyph-name="uni0426" unicode="&#x426;" horiz-adv-x="1413" 
d="M1188 102h149v-376h-108v274h-1051v1434h109v-1332h792v1332h109v-1332z" />
    <glyph glyph-name="uni0427" unicode="&#x427;" horiz-adv-x="1284" 
d="M997 1434h109v-1434h-109v621q-194 -95 -403 -95q-208 0 -329.5 113.5t-121.5 288.5v506h109v-506q0 -135 90.5 -217t251.5 -82q211 0 403 94v711z" />
    <glyph glyph-name="uni0428" unicode="&#x428;" horiz-adv-x="1959" 
d="M1673 1434h109v-1434h-1604v1434h109v-1332h639v1332h108v-1332h639v1332z" />
    <glyph glyph-name="uni0429" unicode="&#x429;" horiz-adv-x="2007" 
d="M1782 102h149v-376h-108v274h-1645v1434h109v-1332h639v1332h108v-1332h639v1332h109v-1332z" />
    <glyph glyph-name="uni042A" unicode="&#x42a;" horiz-adv-x="1419" 
d="M395 0v1331h-395v103h506v-547h379q192 0 319 -127t127 -316q0 -191 -127 -317.5t-319 -126.5h-490zM506 102h379q148 0 243 96.5t95 245.5q0 148 -95 244t-243 96h-379v-682z" />
    <glyph glyph-name="uni042B" unicode="&#x42b;" horiz-adv-x="1562" 
d="M178 0v1434h109v-547h379q193 0 319.5 -126.5t126.5 -316.5q0 -191 -126.5 -317.5t-319.5 -126.5h-488zM1276 0v1434h110v-1434h-110zM287 102h379q148 0 243 96.5t95 245.5q0 148 -95 244t-243 96h-379v-682z" />
    <glyph glyph-name="uni042C" unicode="&#x42c;" horiz-adv-x="1202" 
d="M666 887q193 0 319.5 -126.5t126.5 -316.5q0 -191 -126.5 -317.5t-319.5 -126.5h-488v1434h109v-547h379zM666 102q148 0 243 96.5t95 245.5q0 148 -95 244t-243 96h-379v-682h379z" />
    <glyph glyph-name="uni042D" unicode="&#x42d;" horiz-adv-x="1531" 
d="M696 1456q160 0 299 -58t235 -157.5t151 -235.5t55 -288q0 -204 -93 -372.5t-263.5 -268t-383.5 -99.5q-197 0 -363 95.5t-255 255.5l98 55q71 -137 211.5 -219t308.5 -82q131 0 245.5 45t195 123.5t130 186t58.5 229.5h-809v102h809q-9 122 -58.5 229.5t-130 186
t-195 123.5t-245.5 45q-165 0 -305 -81t-213 -214l-96 55q90 158 254.5 251t359.5 93z" />
    <glyph glyph-name="uni042E" unicode="&#x42e;" horiz-adv-x="2144" 
d="M1309 1456q122 0 235.5 -37t204 -105.5t158.5 -159t104.5 -203.5t36.5 -234q0 -202 -97.5 -372t-268 -269t-373.5 -99q-199 0 -365.5 94.5t-264.5 257t-106 357.5h-286v-686h-109v1434h109v-646h291q13 139 74.5 262.5t157 212.5t225.5 141t274 52zM1309 82q174 0 319 85
t228 230.5t83 319.5t-83 319.5t-228 230.5t-319 85q-175 0 -320 -85t-228 -230.5t-83 -319.5t83 -319.5t228 -230.5t320 -85z" />
    <glyph glyph-name="uni042F" unicode="&#x42f;" horiz-adv-x="1284" 
d="M1106 1434v-1434h-109v588h-393l-405 -588h-123l407 592q-156 20 -261 139.5t-105 278.5q0 175 123.5 299.5t298.5 124.5h567zM539 690h458v641h-458q-129 0 -221.5 -94t-92.5 -227q0 -132 92.5 -226t221.5 -94z" />
    <glyph glyph-name="uni0430" unicode="&#x430;" horiz-adv-x="1320" 
d="M1059 1024h104v-1024h-104v231q-66 -118 -181 -186t-260 -68q-144 0 -265.5 70t-193 193t-71.5 272t71.5 272t193 193t265.5 70q145 0 260 -68t181 -186v231zM627 76q183 0 307.5 126.5t124.5 309.5t-124.5 309.5t-307.5 126.5t-308.5 -126.5t-125.5 -309.5t125.5 -309.5
t308.5 -126.5z" />
    <glyph glyph-name="uni0431" unicode="&#x431;" horiz-adv-x="1169" 
d="M604 -25q-222 0 -369 146.5t-147 380.5q0 102 8.5 175.5t32.5 144.5t66.5 125.5t110.5 106t165 99.5q45 21 106.5 47t99.5 41.5t82 39t70 46.5t46.5 57t27.5 76l82 -47q-8 -48 -33 -88t-54 -66.5t-79 -55t-87.5 -44.5t-103 -43.5t-102.5 -44.5q-152 -68 -222 -148
t-95 -214q72 112 186.5 167.5t231.5 55.5q204 0 339.5 -135t135.5 -344q0 -206 -141 -342t-357 -136zM604 78q173 0 283 106t110 269q0 165 -107 271.5t-276 106.5q-101 0 -192 -42t-153 -123.5t-70 -186.5q0 -176 114.5 -288.5t290.5 -112.5z" />
    <glyph glyph-name="uni0432" unicode="&#x432;" horiz-adv-x="1038" 
d="M788 528q88 -29 134.5 -92.5t46.5 -152.5q0 -124 -81.5 -203.5t-234.5 -79.5h-495v1024h456q146 0 226 -75.5t80 -192.5q0 -77 -33.5 -136.5t-98.5 -91.5zM614 924h-354v-355h354q98 0 149.5 47t51.5 134q0 82 -52.5 128t-148.5 46zM653 100q102 0 157.5 49.5t55.5 137.5
q0 85 -56 133.5t-157 48.5h-393v-369h393z" />
    <glyph glyph-name="uni0433" unicode="&#x433;" horiz-adv-x="823" 
d="M799 1024v-100h-539v-924h-102v1024h641z" />
    <glyph glyph-name="uni0434" unicode="&#x434;" horiz-adv-x="1208" 
d="M997 100h144v-374h-105v274h-884v-274h-105v374h119q57 78 85 172.5t28 239.5v512h718v-924zM293 100h600v824h-512v-412q0 -251 -88 -412z" />
    <glyph glyph-name="uni0435" unicode="&#x435;" horiz-adv-x="1206" 
d="M618 1047q150 0 267.5 -76.5t178 -198.5t60.5 -264q0 -8 -1 -24.5t-1 -24.5h-927q19 -173 139 -278t295 -105q123 0 215.5 51t138.5 135l90 -53q-65 -107 -181 -169.5t-265 -62.5q-236 0 -387.5 151.5t-151.5 383.5q0 228 149 381.5t381 153.5zM618 948q-174 0 -291 -109
t-132 -280h823q-17 181 -130 285t-270 104z" />
    <glyph glyph-name="uni0436" unicode="&#x436;" horiz-adv-x="1357" 
d="M1311 0h-127l-453 504v-504h-104v504l-453 -504h-127l485 532l-464 492h127l432 -463v463h104v-463l432 463h127l-463 -492z" />
    <glyph glyph-name="uni0437" unicode="&#x437;" horiz-adv-x="911" 
d="M649 528q93 -30 144 -97.5t51 -156.5q0 -125 -98.5 -211t-278.5 -86q-162 0 -259.5 66t-139.5 176l88 51q66 -194 311 -194q128 0 200 57t72 148q0 84 -61 136t-164 52h-141v100h102q99 0 157 51t58 138q0 83 -66.5 136.5t-174.5 53.5q-101 0 -173 -43t-104 -123l-86 49
q43 99 136 157.5t227 58.5q157 0 250.5 -83t93.5 -202q0 -76 -37.5 -138.5t-106.5 -95.5z" />
    <glyph glyph-name="uni0438" unicode="&#x438;" horiz-adv-x="1161" 
d="M913 1024h91v-1024h-105v846l-651 -846h-90v1024h102v-846z" />
    <glyph glyph-name="uni0439" unicode="&#x439;" horiz-adv-x="1161" 
d="M319 1202v90h519v-90h-519zM913 1024h91v-1024h-105v846l-651 -846h-90v1024h102v-846z" />
    <glyph glyph-name="uni043A" unicode="&#x43a;" horiz-adv-x="989" 
d="M942 0h-139l-543 504v-504h-102v1024h102v-465l518 465h144l-551 -492z" />
    <glyph glyph-name="uni043B" unicode="&#x43b;" horiz-adv-x="1146" 
d="M989 1024v-1024h-102v924h-516v-494q0 -105 -17.5 -183.5t-47.5 -127t-74.5 -77t-94 -37.5t-110.5 -5v96q123 -11 182 65.5t59 268.5v594h721z" />
    <glyph glyph-name="uni043C" unicode="&#x43c;" horiz-adv-x="1304" 
d="M1147 1024v-1024h-105v868l-383 -604h-14l-385 608v-872h-102v1024h121l372 -588l373 588h123z" />
    <glyph glyph-name="uni043D" unicode="&#x43d;" horiz-adv-x="1161" 
d="M899 1024h105v-1024h-105v463h-639v-463h-102v1024h102v-463h639v463z" />
    <glyph glyph-name="uni043E" unicode="&#x43e;" horiz-adv-x="1251" 
d="M627 -23q-148 0 -271.5 70t-195.5 193t-72 272t72 272t195.5 193t271.5 70q147 0 270 -70t194.5 -193t71.5 -272t-71.5 -272t-194.5 -193t-270 -70zM627 76q183 0 307.5 126.5t124.5 309.5t-124.5 309.5t-307.5 126.5t-308.5 -126.5t-125.5 -309.5t125.5 -309.5
t308.5 -126.5z" />
    <glyph glyph-name="uni043F" unicode="&#x43f;" horiz-adv-x="1161" 
d="M1004 1024v-1024h-105v924h-639v-924h-102v1024h846z" />
    <glyph glyph-name="uni0440" unicode="&#x440;" horiz-adv-x="1320" 
d="M700 1047q145 0 266.5 -70t193 -193t71.5 -272t-71.5 -272t-193 -193t-266.5 -70q-146 0 -261 70t-179 191v-648h-102v1434h102v-238q64 121 179 191t261 70zM694 76q183 0 308.5 126.5t125.5 309.5t-125.5 309.5t-308.5 126.5t-308.5 -126.5t-125.5 -309.5t125.5 -309.5
t308.5 -126.5z" />
    <glyph glyph-name="uni0441" unicode="&#x441;" horiz-adv-x="1148" 
d="M627 -23q-231 0 -385 153.5t-154 381.5t154 381.5t385 153.5q150 0 270 -71t176 -192l-84 -49q-45 97 -142.5 155t-219.5 58q-185 0 -309.5 -126t-124.5 -310t124.5 -310t309.5 -126q122 0 219 57.5t149 155.5l86 -51q-62 -120 -183.5 -190.5t-270.5 -70.5z" />
    <glyph glyph-name="uni0442" unicode="&#x442;" horiz-adv-x="901" 
d="M874 1024v-100h-372v-924h-103v924h-372v100h847z" />
    <glyph glyph-name="uni0443" unicode="&#x443;" horiz-adv-x="1044" 
d="M907 1024h111l-443 -1118q-60 -152 -168 -239t-237 -77v97q99 -9 177.5 56t127.5 183l23 56l-471 1042h110l414 -911z" />
    <glyph glyph-name="uni0444" unicode="&#x444;" horiz-adv-x="1372" 
d="M1284 512q0 -219 -151 -369.5t-396 -165.5v-387h-102v387q-245 15 -396 165.5t-151 369.5t151 369.5t396 165.5v387h102v-387q245 -15 396 -165.5t151 -369.5zM193 512q0 -177 120.5 -298t321.5 -136v868q-201 -15 -321.5 -136t-120.5 -298zM737 78q201 15 322 136
t121 298t-121 298t-322 136v-868z" />
    <glyph glyph-name="uni0445" unicode="&#x445;" horiz-adv-x="1038" 
d="M989 0h-125l-346 446l-346 -446h-125l410 526l-385 498h125l321 -416l324 416h123l-383 -496z" />
    <glyph glyph-name="uni0446" unicode="&#x446;" horiz-adv-x="1214" 
d="M983 100h164v-374h-105v274h-884v1024h102v-924h619v924h104v-924z" />
    <glyph glyph-name="uni0447" unicode="&#x447;" horiz-adv-x="1099" 
d="M838 1024h104v-1024h-104v401q-134 -67 -312 -67q-196 0 -302.5 91t-106.5 265v334h102v-334q0 -258 303 -258q169 0 316 66v526z" />
    <glyph glyph-name="uni0448" unicode="&#x448;" horiz-adv-x="1673" 
d="M1411 1024h105v-1024h-1358v1024h102v-924h524v924h105v-924h522v924z" />
    <glyph glyph-name="uni0449" unicode="&#x449;" horiz-adv-x="1726" 
d="M1516 100h143v-374h-105v274h-1396v1024h102v-924h524v924h105v-924h522v924h105v-924z" />
    <glyph glyph-name="uni044A" unicode="&#x44a;" horiz-adv-x="1105" 
d="M698 627q141 0 240.5 -88t99.5 -226t-99 -225.5t-241 -87.5h-405v924h-293v100h397v-397h301zM698 100q100 0 168 59t68 154q0 96 -67.5 154.5t-168.5 58.5h-301v-426h301z" />
    <glyph glyph-name="uni044B" unicode="&#x44b;" horiz-adv-x="1318" 
d="M563 627q140 0 239 -88t99 -226t-99 -225.5t-239 -87.5h-405v1024h102v-397h303zM1059 1024h102v-1024h-102v1024zM563 100q99 0 166.5 59t67.5 154q0 96 -67.5 154.5t-166.5 58.5h-303v-426h303z" />
    <glyph glyph-name="uni044C" unicode="&#x44c;" horiz-adv-x="968" 
d="M563 627q140 0 239 -88t99 -226t-99 -225.5t-239 -87.5h-405v1024h102v-397h303zM563 100q99 0 166.5 59t67.5 154q0 96 -67.5 154.5t-166.5 58.5h-303v-426h303z" />
    <glyph glyph-name="uni044D" unicode="&#x44d;" horiz-adv-x="1124" 
d="M518 1047q232 0 375 -152t143 -383q0 -151 -63.5 -272.5t-183 -192t-273.5 -70.5q-163 0 -284.5 70.5t-176.5 192.5l88 53q41 -99 139 -158t234 -59q174 0 286.5 109t127.5 278h-531v98h531q-15 169 -126.5 278t-285.5 109q-127 0 -224.5 -57.5t-143.5 -157.5l-91 51
q61 121 182.5 192t276.5 71z" />
    <glyph glyph-name="uni044E" unicode="&#x44e;" horiz-adv-x="1644" 
d="M1020 1047q147 0 270 -70t194.5 -193t71.5 -272t-71.5 -272t-194.5 -193t-270 -70q-212 0 -362 138t-169 348h-229v-463h-102v1024h102v-463h229q19 210 169 348t362 138zM1020 76q183 0 307.5 126.5t124.5 309.5t-124.5 309.5t-307.5 126.5t-308.5 -126.5t-125.5 -309.5
t125.5 -309.5t308.5 -126.5z" />
    <glyph glyph-name="uni044F" unicode="&#x44f;" horiz-adv-x="1024" 
d="M866 1024v-1024h-102v399h-221l-322 -399h-133l328 401q-125 14 -209 99t-84 211q0 138 99 225.5t239 87.5h405zM461 498h303v426h-303q-99 0 -166.5 -59t-67.5 -154q0 -96 67.5 -154.5t166.5 -58.5z" />
    <glyph glyph-name="uni0451" unicode="&#x451;" horiz-adv-x="1206" 
d="M422 1182q-32 0 -54 21t-22 52q0 32 22 54t54 22q31 0 52.5 -22t21.5 -54q0 -31 -21.5 -52t-52.5 -21zM791 1182q-32 0 -54 21t-22 52q0 32 22 54t54 22q31 0 52 -22t21 -54q0 -31 -21 -52t-52 -21zM618 1047q150 0 267.5 -76.5t178 -198.5t60.5 -264q0 -8 -1 -24.5
t-1 -24.5h-927q19 -173 139 -278t295 -105q123 0 215.5 51t138.5 135l90 -53q-65 -107 -181 -169.5t-265 -62.5q-236 0 -387.5 151.5t-151.5 383.5q0 228 149 381.5t381 153.5zM618 948q-174 0 -291 -109t-132 -280h823q-17 181 -130 285t-270 104z" />
    <glyph glyph-name="uni0452" unicode="&#x452;" horiz-adv-x="1181" 
d="M653 1047q182 0 290 -111.5t108 -298.5v-754q0 -164 -88 -247t-252 -68v98q121 -12 179 41t58 176v754q0 143 -80 227t-223 84q-157 0 -256.5 -104t-99.5 -303v-541h-105v1192h-149v86h149v156h105v-156h319v-86h-319v-358q113 213 364 213z" />
    <glyph glyph-name="uni0453" unicode="&#x453;" horiz-adv-x="823" 
d="M629 1427l-187 -260h-100l164 260h123zM799 1024v-100h-539v-924h-102v1024h641z" />
    <glyph glyph-name="uni0454" unicode="&#x454;" horiz-adv-x="1124" 
d="M981 293l88 -53q-55 -122 -176.5 -192.5t-284.5 -70.5q-154 0 -273.5 70.5t-183 192t-63.5 272.5q0 231 143 383t375 152q155 0 276.5 -71t182.5 -192l-90 -51q-46 99 -143.5 157t-225.5 58q-174 0 -285 -109t-126 -278h530v-98h-530q15 -169 127 -278t286 -109
q136 0 234 59t139 158z" />
    <glyph glyph-name="uni0455" unicode="&#x455;" horiz-adv-x="937" 
d="M227 756q0 -55 34 -93t89 -58.5t121 -37t132.5 -37t121.5 -49.5t89 -83t34 -130q0 -127 -102 -209t-265 -82q-148 0 -249.5 62.5t-139.5 165.5l88 51q28 -84 107 -132t194 -48q114 0 189 50t75 142q0 56 -34 95t-89 60t-121 37.5t-132 37t-121 49t-89 81.5t-34 128
q0 124 97 207.5t251 83.5q123 0 214.5 -55t133.5 -150l-86 -49q-31 76 -102 115.5t-160 39.5q-104 0 -175 -51.5t-71 -140.5z" />
    <glyph glyph-name="uni0456" unicode="&#x456;" horiz-adv-x="417" 
d="M209 1272q-34 0 -58 24t-24 58q0 32 24 56t58 24t58 -24t24 -56q0 -34 -24 -58t-58 -24zM158 0v1024h102v-1024h-102z" />
    <glyph glyph-name="uni0457" unicode="&#x457;" horiz-adv-x="417" 
d="M25 1182q-32 0 -54 21t-22 52q0 32 22 54t54 22q31 0 52 -22t21 -54q0 -31 -21 -52t-52 -21zM393 1182q-32 0 -54 21t-22 52q0 32 22 54t54 22q31 0 52.5 -22t21.5 -54q0 -31 -21.5 -52t-52.5 -21zM158 0v1024h102v-1024h-102z" />
    <glyph glyph-name="uni0458" unicode="&#x458;" horiz-adv-x="456" 
d="M248 1434q34 0 58 -24t24 -56q0 -34 -24 -58t-58 -24t-58 24t-24 58q0 32 24 56t58 24zM197 -117v1141h102v-1141q0 -164 -88 -247t-252 -68v98q122 -12 180 41t58 176z" />
    <glyph glyph-name="uni0459" unicode="&#x459;" horiz-adv-x="1644" 
d="M1257 586q135 0 226.5 -78.5t91.5 -214.5t-91.5 -214.5t-226.5 -78.5h-391v924h-495v-494q0 -105 -17.5 -183.5t-47.5 -127t-74.5 -77t-94 -37.5t-110.5 -5v96q123 -11 182 65.5t59 268.5v594h701v-438h288zM1257 100q94 0 155 50t61 143q0 94 -60.5 143t-155.5 49h-288
v-385h288z" />
    <glyph glyph-name="uni045A" unicode="&#x45a;" horiz-adv-x="1630" 
d="M1243 586q136 0 228 -78.5t92 -214.5t-92 -214.5t-228 -78.5h-391v485h-598v-485h-104v1024h104v-438h598v438h104v-438h287zM1243 100q95 0 155 50t60 143q0 94 -59.5 143t-155.5 49h-287v-385h287z" />
    <glyph glyph-name="uni045B" unicode="&#x45b;" horiz-adv-x="1181" 
d="M653 1047q182 0 290 -111.5t108 -298.5v-637h-103v637q0 143 -80 227t-223 84q-157 0 -256.5 -104t-99.5 -303v-541h-105v1192h-149v86h149v156h105v-156h319v-86h-319v-358q113 213 364 213z" />
    <glyph glyph-name="uni045C" unicode="&#x45c;" horiz-adv-x="989" 
d="M698 1427l-186 -260h-100l163 260h123zM942 0h-139l-543 504v-504h-102v1024h102v-465l518 465h144l-551 -492z" />
    <glyph glyph-name="uni045E" unicode="&#x45e;" horiz-adv-x="1044" 
d="M786 1292v-90h-518v90h518zM907 1024h111l-443 -1118q-60 -152 -168 -239t-237 -77v97q99 -9 177.5 56t127.5 183l23 56l-471 1042h110l414 -911z" />
    <glyph glyph-name="uni045F" unicode="&#x45f;" horiz-adv-x="1161" 
d="M899 1024h105v-1024h-371v-274h-105v274h-370v1024h102v-924h639v924z" />
    <glyph glyph-name="uni0490" unicode="&#x490;" horiz-adv-x="1009" 
d="M854 1679h109v-348h-676v-1331h-109v1434h676v245z" />
    <glyph glyph-name="uni0491" unicode="&#x491;" horiz-adv-x="823" 
d="M694 1237h105v-313h-539v-924h-102v1024h536v213z" />
    <glyph glyph-name="Wgrave" unicode="&#x1e80;" horiz-adv-x="2033" 
d="M1069 1577l-164 260h-123l189 -260h98zM483 0l-415 1434h114l371 -1289l399 1289h129l402 -1289l368 1289h115l-416 -1434h-131l-401 1292l-404 -1292h-131z" />
    <glyph glyph-name="wgrave" unicode="&#x1e81;" horiz-adv-x="1576" 
d="M887 1167h-99l-188 260h123zM1401 1024h108l-323 -1024h-113l-285 872l-284 -872h-113l-323 1024h108l273 -891l286 891h107l286 -891z" />
    <glyph glyph-name="Wacute" unicode="&#x1e82;" horiz-adv-x="2033" 
d="M885 1577h100l186 260h-122zM483 0l-415 1434h114l371 -1289l399 1289h129l402 -1289l368 1289h115l-416 -1434h-131l-401 1292l-404 -1292h-131z" />
    <glyph glyph-name="wacute" unicode="&#x1e83;" horiz-adv-x="1576" 
d="M989 1427l-186 -260h-101l164 260h123zM1401 1024h108l-323 -1024h-113l-285 872l-284 -872h-113l-323 1024h108l273 -891l286 891h107l286 -891z" />
    <glyph glyph-name="Wdieresis" unicode="&#x1e84;" horiz-adv-x="2033" 
d="M786 1591q-32 0 -53.5 21.5t-21.5 52.5q0 32 21.5 54t53.5 22q31 0 52.5 -22t21.5 -54q0 -31 -21.5 -52.5t-52.5 -21.5zM1155 1591q-32 0 -54 21.5t-22 52.5q0 32 22 54t54 22q31 0 52.5 -22t21.5 -54q0 -31 -21.5 -52.5t-52.5 -21.5zM483 0l-415 1434h114l371 -1289
l399 1289h129l402 -1289l368 1289h115l-416 -1434h-131l-401 1292l-404 -1292h-131z" />
    <glyph glyph-name="wdieresis" unicode="&#x1e85;" horiz-adv-x="1576" 
d="M604 1182q-32 0 -54 21t-22 52q0 32 22 54t54 22q31 0 52.5 -22t21.5 -54q0 -31 -21.5 -52t-52.5 -21zM973 1182q-32 0 -54 21t-22 52q0 32 22 54t54 22q31 0 52.5 -22t21.5 -54q0 -31 -21.5 -52t-52.5 -21zM1401 1024h108l-323 -1024h-113l-285 872l-284 -872h-113
l-323 1024h108l273 -891l286 891h107l286 -891z" />
    <glyph glyph-name="Ygrave" unicode="&#x1ef2;" horiz-adv-x="1193" 
d="M690 1577h-98l-189 260h123zM1174 1434l-523 -844v-590h-108v590l-523 844h123l455 -740l453 740h123z" />
    <glyph glyph-name="ygrave" unicode="&#x1ef3;" horiz-adv-x="1044" 
d="M627 1167h-99l-188 260h123zM907 1024h111l-443 -1118q-60 -152 -168 -239t-237 -77v97q99 -9 177.5 56t127.5 183l23 56l-471 1042h110l414 -911z" />
    <glyph glyph-name="endash" unicode="&#x2013;" horiz-adv-x="1378" 
d="M178 584v98h1024v-98h-1024z" />
    <glyph glyph-name="emdash" unicode="&#x2014;" horiz-adv-x="1583" 
d="M178 584v98h1229v-98h-1229z" />
    <glyph glyph-name="quoteleft" unicode="&#x2018;" horiz-adv-x="456" 
d="M125 1008l111 426h94l-78 -426h-127z" />
    <glyph glyph-name="quoteright" unicode="&#x2019;" horiz-adv-x="456" 
d="M332 1434l-111 -426h-94l78 426h127z" />
    <glyph glyph-name="quotesinglbase" unicode="&#x201a;" horiz-adv-x="456" 
d="M332 139l-111 -426h-94l78 426h127z" />
    <glyph glyph-name="quotedblleft" unicode="&#x201c;" horiz-adv-x="716" 
d="M125 1008l111 426h94l-78 -426h-127zM385 1008l111 426h94l-78 -426h-127z" />
    <glyph glyph-name="quotedblright" unicode="&#x201d;" horiz-adv-x="716" 
d="M332 1434l-111 -426h-94l78 426h127zM592 1434l-111 -426h-94l78 426h127z" />
    <glyph glyph-name="quotedblbase" unicode="&#x201e;" horiz-adv-x="716" 
d="M332 139l-111 -426h-94l78 426h127zM592 139l-111 -426h-94l78 426h127z" />
    <glyph glyph-name="dagger" unicode="&#x2020;" horiz-adv-x="968" 
d="M840 1079v-98h-303v-981h-105v981h-303v98h303v355h105v-355h303z" />
    <glyph glyph-name="daggerdbl" unicode="&#x2021;" horiz-adv-x="968" 
d="M840 981h-303v-528h303v-99h-303v-354h-105v354h-303v99h303v528h-303v98h303v355h105v-355h303v-98z" />
    <glyph glyph-name="bullet" unicode="&#x2022;" horiz-adv-x="573" 
d="M289 539q-75 0 -127.5 52.5t-52.5 127.5q0 73 52.5 124.5t127.5 51.5q73 0 124.5 -51.5t51.5 -124.5q0 -75 -51.5 -127.5t-124.5 -52.5z" />
    <glyph glyph-name="ellipsis" unicode="&#x2026;" horiz-adv-x="1214" 
d="M219 -20q-39 0 -65.5 26.5t-26.5 65.5t26.5 65.5t65.5 26.5q38 0 65 -27t27 -65t-27 -65t-65 -27zM608 -20q-39 0 -65.5 26.5t-26.5 65.5t26.5 65.5t65.5 26.5q38 0 65 -27t27 -65t-27 -65t-65 -27zM997 -20q-39 0 -65.5 26.5t-26.5 65.5t26.5 65.5t65.5 26.5
q38 0 65.5 -27t27.5 -65t-27.5 -65t-65.5 -27z" />
    <glyph glyph-name="perthousand" unicode="&#x2030;" horiz-adv-x="2203" 
d="M442 846q-134 0 -223.5 88.5t-89.5 216.5t89.5 216.5t223.5 88.5t224 -88.5t90 -216.5q0 -129 -89 -217t-225 -88zM442 940q93 0 153 60.5t60 150.5t-60 150.5t-153 60.5q-92 0 -151.5 -60.5t-59.5 -150.5t59.5 -150.5t151.5 -60.5zM207 184l973 1094l69 -39l-975 -1094z
M1022 -23q-134 0 -223.5 88.5t-89.5 217.5q0 128 89.5 216.5t223.5 88.5t223.5 -88.5t89.5 -216.5q0 -129 -89.5 -217.5t-223.5 -88.5zM1759 -23q-134 0 -223.5 88.5t-89.5 217.5q0 128 89.5 216.5t223.5 88.5t224 -88.5t90 -216.5t-90 -217t-224 -89zM1022 72
q93 0 153 60.5t60 150.5t-60 150.5t-153 60.5q-92 0 -151.5 -60.5t-59.5 -150.5t59.5 -150.5t151.5 -60.5zM1759 72q93 0 153 60.5t60 150.5t-60 150.5t-153 60.5q-92 0 -151.5 -60.5t-59.5 -150.5t59.5 -150.5t151.5 -60.5z" />
    <glyph glyph-name="guilsinglleft" unicode="&#x2039;" horiz-adv-x="673" 
d="M510 987l-219 -354l219 -354h-127l-219 354l219 354h127z" />
    <glyph glyph-name="guilsinglright" unicode="&#x203a;" horiz-adv-x="673" 
d="M291 987l219 -354l-219 -354h-127l219 354l-219 354h127z" />
    <glyph glyph-name="fraction" unicode="&#x2044;" horiz-adv-x="464" 
d="M-137 0h-94l831 1434h96z" />
    <glyph glyph-name="Euro" unicode="&#x20ac;" horiz-adv-x="1232" 
d="M752 82q115 0 200.5 58t128.5 165l90 -51q-53 -132 -161.5 -204.5t-257.5 -72.5q-221 0 -362 153.5t-175 418.5h-168v92h160q-2 25 -2 76q0 59 2 88h-160v90h170q36 260 176.5 410.5t358.5 150.5q149 0 257.5 -72t161.5 -202l-90 -52q-43 106 -128.5 164t-200.5 58
q-168 0 -280 -120t-146 -337h548v-90h-559q-2 -29 -2 -88q0 -51 2 -76h559v-92h-550q32 -222 144.5 -344.5t283.5 -122.5z" />
    <glyph glyph-name="uni20BD" unicode="&#x20bd;" horiz-adv-x="1181" 
d="M702 588h-380v-213h544v-90h-544v-285h-111v285h-184v90h184v213h-184v102h184v744h491q175 0 299.5 -124.5t124.5 -299.5q0 -173 -124.5 -297.5t-299.5 -124.5zM322 1331v-641h380q130 0 223 94t93 226q0 133 -92.5 227t-223.5 94h-380z" />
    <glyph glyph-name="uni2116" unicode="&#x2116;" horiz-adv-x="2086" 
d="M1692 856q-131 0 -219.5 87t-88.5 212q0 126 88.5 213.5t219.5 87.5t219 -87.5t88 -213.5t-87 -212.5t-220 -86.5zM1120 1434h109v-1434h-96l-846 1233v-1233h-109v1434h94l848 -1233v1233zM1692 950q90 0 147 59t57 146q0 88 -57.5 147.5t-146.5 59.5t-147 -59.5
t-58 -147.5q0 -87 58 -146t147 -59zM1409 594v100h567v-100h-567z" />
    <glyph glyph-name="trademark" unicode="&#x2122;" horiz-adv-x="978" 
d="M412 1434v-64h-121v-346h-68v346h-121v64h310zM809 1434h68v-410h-68v293l-133 -213h-8l-133 213v-293h-68v410h68l137 -220z" />
    <glyph glyph-name="estimated" unicode="&#x212e;" horiz-adv-x="1705" 
d="M854 1454q166 0 309 -58t240.5 -157.5t153 -234.5t55.5 -287q0 -31 -31 -31h-1147q-31 0 -31 -31v-393q0 -21 15 -39q173 -182 477 -182q296 0 473 199q15 18 37 18h76q20 0 25.5 -12t-7.5 -27q-106 -113 -260 -176t-344 -63q-181 0 -332.5 58t-253 157.5t-157.5 234
t-56 287.5q0 152 55.5 287t153 234.5t240.5 157.5t309 58zM1305 1171q0 21 -15 39q-174 183 -436 183t-436 -183q-15 -18 -15 -39v-393q0 -30 31 -30h840q31 0 31 30v393z" />
    <glyph glyph-name="oneeighth" unicode="&#x215b;" horiz-adv-x="1669" 
d="M356 614h-98v709l-205 -68l-26 86l252 93h77v-820zM1104 1434h96l-833 -1434h-95zM1464 430q66 -30 105 -87t39 -130q0 -108 -80 -173t-209 -65t-210 65t-81 173q0 74 39.5 130.5t106.5 86.5q-119 63 -119 184q0 106 76 168t188 62q111 0 186.5 -62t75.5 -168
q0 -120 -117 -184zM1319 752q-76 0 -121 -37t-45 -101q0 -63 46 -101t120 -38q73 0 118.5 38t45.5 101q0 64 -45 101t-119 37zM1319 70q89 0 139.5 42t50.5 113t-53 113.5t-137 42.5q-88 0 -140.5 -42t-52.5 -114q0 -71 52 -113t141 -42z" />
    <glyph glyph-name="threeeighths" unicode="&#x215c;" horiz-adv-x="1880" 
d="M631 850q0 -114 -79 -187t-212 -73q-103 0 -175 43.5t-108 122.5l82 47q53 -119 201 -119q93 0 142.5 46t49.5 120q0 73 -50.5 120.5t-141.5 47.5h-8l-47 72l198 249h-401v95h516v-95l-197 -243q108 -15 169 -81.5t61 -164.5zM1315 1434h96l-833 -1434h-95zM1675 430
q66 -30 105 -87t39 -130q0 -108 -80 -173t-209 -65t-210 65t-81 173q0 74 39 130.5t106 86.5q-55 29 -86.5 76t-31.5 108q0 106 76 168t188 62q111 0 186.5 -62t75.5 -168q0 -120 -117 -184zM1530 752q-76 0 -121 -37t-45 -101q0 -63 46 -101t120 -38q73 0 118.5 38
t45.5 101q0 64 -45 101t-119 37zM1530 70q89 0 139.5 42t50.5 113t-53 113.5t-137 42.5q-88 0 -140.5 -42t-52.5 -114q0 -71 52 -113t141 -42z" />
    <glyph glyph-name="fiveeighths" unicode="&#x215d;" horiz-adv-x="1859" 
d="M616 850q0 -117 -77 -188.5t-209 -71.5q-101 0 -172 43t-107 121l84 47q52 -117 195 -117q87 0 137.5 45t50.5 121q0 80 -50 126t-138 46h-242l31 412h465v-93h-381l-15 -225h144q128 0 206 -73t78 -193zM1294 1434h97l-834 -1434h-94zM1655 430q66 -30 104.5 -87
t38.5 -130q0 -108 -80 -173t-209 -65t-209.5 65t-80.5 173q0 74 39 130.5t106 86.5q-119 63 -119 184q0 106 76 168t188 62q111 0 187 -62t76 -168q0 -120 -117 -184zM1509 752q-76 0 -121 -37t-45 -101q0 -63 46 -101t120 -38q73 0 118.5 38t45.5 101q0 64 -45 101t-119 37
zM1509 70q89 0 140 42t51 113t-53.5 113.5t-137.5 42.5q-88 0 -140 -42t-52 -114q0 -71 51.5 -113t140.5 -42z" />
    <glyph glyph-name="seveneighths" unicode="&#x215e;" horiz-adv-x="1798" 
d="M580 1434v-80l-318 -740h-104l313 725h-436v95h545zM1233 1434h96l-833 -1434h-95zM1593 430q66 -30 105 -87t39 -130q0 -108 -80 -173t-209 -65t-210 65t-81 173q0 74 39.5 130.5t106.5 86.5q-119 63 -119 184q0 106 76 168t188 62q111 0 186.5 -62t75.5 -168
q0 -120 -117 -184zM1448 752q-76 0 -121 -37t-45 -101q0 -63 46 -101t120 -38q73 0 118.5 38t45.5 101q0 64 -45 101t-119 37zM1448 70q89 0 139.5 42t50.5 113t-53 113.5t-137 42.5q-88 0 -140.5 -42t-52.5 -114q0 -71 52 -113t141 -42z" />
    <glyph glyph-name="arrowleft" unicode="&#x2190;" horiz-adv-x="1693" 
d="M1563 766v-98h-1244l566 -566h-142l-614 615l614 614h142l-566 -565h1244z" />
    <glyph glyph-name="arrowup" unicode="&#x2191;" horiz-adv-x="1488" 
d="M1358 819v-141l-561 561v-1239h-105v1241l-563 -563v141l614 615z" />
    <glyph glyph-name="arrowright" unicode="&#x2192;" horiz-adv-x="1693" 
d="M948 1331l615 -614l-615 -615h-141l565 566h-1243v98h1243l-565 565h141z" />
    <glyph glyph-name="arrowdown" unicode="&#x2193;" horiz-adv-x="1488" 
d="M797 195l561 561v-142l-615 -614l-614 614v142l563 -563v1241h105v-1239z" />
    <glyph glyph-name="arrowboth" unicode="&#x2194;" horiz-adv-x="2115" 
d="M1483 1223l504 -506l-504 -506h-142l455 457h-1477l455 -457h-141l-504 506l504 506h141l-455 -457h1477l-455 457h142z" />
    <glyph glyph-name="arrowupdn" unicode="&#x2195;" horiz-adv-x="1284" 
d="M1147 999l-453 451v-1466l453 450v-141l-506 -504l-504 504v141l453 -452v1470l-453 -453v142l504 504l506 -504v-142z" />
    <glyph glyph-name="uni2196" unicode="&#x2196;" horiz-adv-x="1308" 
d="M1180 227l-74 -75l-877 876v-792l-100 98v868h868l101 -98h-797z" />
    <glyph glyph-name="uni2197" unicode="&#x2197;" horiz-adv-x="1308" 
d="M311 1202h869v-868l-99 -98v794l-876 -878l-76 75l879 877h-795z" />
    <glyph glyph-name="uni2198" unicode="&#x2198;" horiz-adv-x="1308" 
d="M1081 1149l99 -98v-869h-869l-98 99h795l-879 876l76 76l876 -879v795z" />
    <glyph glyph-name="uni2199" unicode="&#x2199;" horiz-adv-x="1308" 
d="M1180 1157l-879 -876h797l-101 -99h-868v869l100 98v-793l877 877z" />
    <glyph glyph-name="partialdiff" unicode="&#x2202;" horiz-adv-x="1181" 
d="M477 1456q119 0 224.5 -52.5t183.5 -146.5t123 -234t45 -306q0 -176 -40 -317t-111 -233t-166.5 -141t-207.5 -49q-193 0 -306 123t-113 310q0 211 124 341t340 130q210 0 375 -115q-5 122 -39.5 228.5t-93 187t-146 127.5t-192.5 47q-143 0 -260 -70v100q111 70 260 70z
M528 76q184 0 296 155t122 428q-162 121 -373 121q-165 0 -262.5 -97t-97.5 -273q0 -146 83 -240t232 -94z" />
    <glyph glyph-name="emptyset" unicode="&#x2205;" horiz-adv-x="1673" 
d="M1343 1260q111 -103 173.5 -244t62.5 -299q0 -151 -58.5 -288t-157.5 -236t-236.5 -157.5t-288.5 -58.5q-242 0 -439 144l-135 -162h-112l180 217q-111 103 -173.5 243.5t-62.5 297.5q0 202 99.5 372t270 268.5t372.5 98.5q243 0 438 -143l133 162h113zM190 717
q0 -137 53 -258.5t148 -212.5l826 997q-167 123 -379 123q-132 0 -252 -51t-206.5 -138t-138 -207t-51.5 -253zM838 68q176 0 324.5 86.5t234.5 236t86 326.5q0 137 -52.5 258.5t-146.5 212.5l-827 -998q166 -122 381 -122z" />
    <glyph glyph-name="product" unicode="&#x220f;" horiz-adv-x="1310" 
d="M178 -410v1844h955v-1844h-103v1743h-749v-1743h-103z" />
    <glyph glyph-name="summation" unicode="&#x2211;" horiz-adv-x="1107" 
d="M117 -410v101l518 841l-490 799v103h863v-101h-746l492 -801l-518 -841h802v-101h-921z" />
    <glyph glyph-name="minus" unicode="&#x2212;" horiz-adv-x="1105" 
d="M129 668v98h848v-98h-848z" />
    <glyph glyph-name="radical" unicode="&#x221a;" horiz-adv-x="1308" 
d="M604 0l-303 514h-172v100h231l287 -491l504 1515h111l-547 -1638h-111z" />
    <glyph glyph-name="infinity" unicode="&#x221e;" horiz-adv-x="1650" 
d="M1208 1038q137 0 228.5 -91t91.5 -230t-91.5 -230.5t-228.5 -91.5q-63 0 -120.5 20.5t-106 59.5t-82.5 75t-74 87q-38 -50 -72 -86.5t-82.5 -75.5t-106.5 -59.5t-122 -20.5q-137 0 -228 91.5t-91 230.5t91 230t228 91q64 0 122 -20.5t106 -59t82.5 -75t72.5 -86.5
q39 51 73.5 87t83 74.5t106 59t120.5 20.5zM444 489q50 0 96.5 18.5t87 54t71.5 71t67 84.5q-35 49 -66.5 84.5t-72 70.5t-87 53.5t-96.5 18.5q-97 0 -158 -63.5t-61 -163.5t61 -164t158 -64zM1208 489q97 0 158 64t61 164t-61 163.5t-158 63.5q-49 0 -95 -18.5t-87 -54
t-71.5 -70.5t-67.5 -84q37 -50 67.5 -84.5t71.5 -70.5t87 -54.5t95 -18.5z" />
    <glyph glyph-name="integral" unicode="&#x222b;" horiz-adv-x="892" 
d="M0 -416v103q107 -44 177 -1t91 158l230 1338q29 171 132.5 236.5t262.5 19.5v-101q-126 42 -199 0.5t-94 -157.5l-227 -1338q-29 -169 -130 -236t-243 -22z" />
    <glyph glyph-name="approxequal" unicode="&#x2248;" horiz-adv-x="1202" 
d="M578 838q-283 184 -355 -82l-94 45q14 45 35.5 82.5t52.5 68.5t72.5 46.5t91 16t112 -22t132.5 -68.5q284 -185 352 82l94 -45q-16 -55 -42.5 -98.5t-69.5 -74.5t-96 -39.5t-127 13t-158 76.5zM223 428l-94 45q14 45 35.5 82.5t52.5 68.5t72.5 46.5t91 16t112 -22
t132.5 -68.5q284 -185 352 82l94 -45q-16 -55 -42.5 -98.5t-69.5 -74.5t-96 -39.5t-127 13t-158 76.5q-283 184 -355 -82z" />
    <glyph glyph-name="notequal" unicode="&#x2260;" horiz-adv-x="1099" 
d="M969 872h-305l-140 -311h445v-98h-490l-143 -316h-82l143 316h-268v98h313l140 311h-453v99h498l143 315h82l-143 -315h260v-99z" />
    <glyph glyph-name="lessequal" unicode="&#x2264;" horiz-adv-x="1079" 
d="M950 1214v-114l-692 -260l692 -260v-115l-819 323v103zM131 219v98h819v-98h-819z" />
    <glyph glyph-name="greaterequal" unicode="&#x2265;" horiz-adv-x="1079" 
d="M129 1214l819 -323v-103l-819 -323v115l692 260l-692 260v114zM129 219v98h819v-98h-819z" />
    <glyph glyph-name="lozenge" unicode="&#x25ca;" horiz-adv-x="1101" 
d="M498 0l-381 717l381 717h106l381 -717l-381 -717h-106zM551 113l323 604l-323 604l-324 -604z" />
    <glyph glyph-name="i.loclTRK" horiz-adv-x="417" 
d="M209 1174q-41 0 -68.5 28t-27.5 68t27.5 68t68.5 28q40 0 67 -28t27 -68t-27 -68t-67 -28zM158 0v1024h102v-1024h-102z" />
    <glyph glyph-name="f_f_j" horiz-adv-x="1597" 
d="M1440 1024v-1141q0 -164 -88 -247t-252 -68v98q121 -12 179 41t58 176v1041h-448v-924h-105v924h-448v-924h-105v924h-176v100h176v55q0 192 106 292t304 85v-98q-155 12 -230 -58t-75 -221v-55h448v76q0 377 410 377q84 0 199 -23v-94q-102 18 -199 18
q-160 0 -232.5 -65t-72.5 -213v-76h551z" />
    <glyph glyph-name="f_j" horiz-adv-x="1044" 
d="M889 1024v-1141q0 -164 -88.5 -247t-253.5 -68v98q121 -12 179 41t58 176v1041h-448v-924h-105v924h-176v100h176v55q0 188 104 282.5t306 94.5q92 0 199 -22v-95q-108 19 -199 19q-158 0 -231.5 -65.5t-73.5 -213.5v-55h553z" />
    <glyph glyph-name="uni0414.loclBGR" horiz-adv-x="1439" 
d="M1255 102h131v-376h-110v274h-1112v-274h-109v376h131l478 1332h114zM301 102h840l-420 1198z" />
    <glyph glyph-name="uni041B.loclBGR" horiz-adv-x="1239" 
d="M561 1434h115l534 -1434h-116l-476 1292l-473 -1292h-118z" />
    <glyph glyph-name="uni0424.loclBGR" horiz-adv-x="1742" 
d="M1647 717q0 -159 -53 -293.5t-148 -229t-228.5 -150t-291.5 -64.5v-185h-109v185q-157 7 -290.5 63t-228.5 150.5t-148.5 229.5t-53.5 294t53.5 294t148.5 229.5t228.5 150.5t290.5 63v184h109v-184q158 -9 291.5 -64.5t228.5 -150t148 -229t53 -293.5zM205 717
q0 -277 166 -450.5t446 -188.5v1278q-280 -15 -446 -188.5t-166 -450.5zM926 78q281 17 446.5 190t165.5 449t-165.5 449t-446.5 190v-1278z" />
    <glyph glyph-name="uni0414.ss01" horiz-adv-x="1413" 
d="M1184 102h151v-102h-1298v102h115q147 165 147 514v818h885v-1332zM408 614q0 -334 -127 -512h794v1229h-667v-717z" />
    <glyph glyph-name="uni0426.ss01" horiz-adv-x="1413" 
d="M1188 102h149v-102h-1159v1434h109v-1332h792v1332h109v-1332z" />
    <glyph glyph-name="uni0429.ss01" horiz-adv-x="2007" 
d="M1782 102h149v-102h-1753v1434h109v-1332h639v1332h108v-1332h639v1332h109v-1332z" />
    <glyph glyph-name="uni0414.loclBGR.ss01" horiz-adv-x="1439" 
d="M1255 102h131v-102h-1331v102h131l478 1332h114zM301 102h840l-420 1198z" />
    <glyph glyph-name="uni0432.loclBGR" horiz-adv-x="1173" 
d="M797 823q138 -37 213 -144.5t75 -268.5q0 -204 -122.5 -318.5t-341.5 -114.5q-218 0 -340.5 130.5t-122.5 363.5v487q0 232 115.5 365t320.5 133q166 0 264 -94t98 -238q0 -82 -41 -160.5t-118 -140.5zM594 1358q-156 0 -245 -107.5t-89 -292.5v-180l236 47q86 17 172 17
q90 59 137 133t47 149q0 98 -69 166t-189 68zM621 76q170 0 265 88.5t95 245.5q0 186 -129 273t-356 42l-236 -47v-207q0 -186 96 -290.5t265 -104.5z" />
    <glyph glyph-name="uni0433.loclBGR" horiz-adv-x="937" 
d="M768 266l88 -51q-41 -105 -142 -171.5t-249 -66.5q-163 0 -265 80.5t-102 208.5q0 76 33.5 130.5t87.5 84t119.5 50t130.5 37t119 38t87.5 60t33.5 94.5q0 88 -67.5 138t-162.5 50q-96 0 -170 -43.5t-106 -122.5l-86 49q43 98 137 157t225 59q145 0 239.5 -82.5
t94.5 -204.5q0 -76 -33.5 -129.5t-87.5 -82.5t-119 -50t-130 -38t-119 -38t-87.5 -60t-33.5 -96q0 -92 74.5 -141t187.5 -49q114 0 193.5 52t109.5 138z" />
    <glyph glyph-name="uni0434.loclBGR" horiz-adv-x="1327" 
d="M1067 1024h102v-975q0 -149 -69 -260t-183.5 -166t-257.5 -55q-176 0 -301 65.5t-182 180.5l90 51q97 -199 393 -199q191 0 299.5 103.5t108.5 279.5v189q-64 -121 -179 -191t-261 -70q-145 0 -266.5 70t-193 193t-71.5 272t71.5 272t193 193t266.5 70q146 0 261 -70
t179 -191v238zM633 76q183 0 308.5 126.5t125.5 309.5t-125.5 309.5t-308.5 126.5t-308.5 -126.5t-125.5 -309.5t125.5 -309.5t308.5 -126.5z" />
    <glyph glyph-name="uni0436.loclBGR" horiz-adv-x="1357" 
d="M1311 0h-127l-453 502v-502h-104v502l-453 -502h-127l485 532l-464 492h127l432 -463v873h104v-873l432 463h127l-463 -492z" />
    <glyph glyph-name="uni0438.loclBGR" 
d="M895 1024h102v-1024h-102v195q-112 -218 -367 -218q-182 0 -289.5 111.5t-107.5 298.5v637h105v-637q0 -143 79 -227t222 -84q159 0 258.5 104t99.5 303v541z" />
    <glyph glyph-name="uni0439.loclBGR" 
d="M819 1292v-90h-518v90h518zM895 1024h102v-1024h-102v195q-112 -218 -367 -218q-182 0 -289.5 111.5t-107.5 298.5v637h105v-637q0 -143 79 -227t222 -84q159 0 258.5 104t99.5 303v541z" />
    <glyph glyph-name="uni043A.loclBGR" horiz-adv-x="989" 
d="M942 0h-139l-543 504v-504h-102v1434h102v-875l518 465h144l-551 -492z" />
    <glyph glyph-name="uni043B.loclBGR" horiz-adv-x="1046" 
d="M1018 0h-109l-387 918l-385 -918h-110l434 1024h125z" />
    <glyph glyph-name="uni043F.loclBGR" 
d="M627 1047q182 0 289.5 -111.5t107.5 -298.5v-637h-104v637q0 143 -79.5 227t-222.5 84q-159 0 -258.5 -104t-99.5 -303v-541h-102v1024h102v-195q112 218 367 218z" />
    <glyph glyph-name="uni0442.loclBGR" horiz-adv-x="1755" 
d="M1251 1047q167 0 270 -105t103 -293v-649h-102v649q0 143 -75 221t-198 78q-137 0 -222 -94.5t-85 -282.5v-571h-102v649q0 144 -70.5 221.5t-191.5 77.5q-136 0 -227 -95.5t-91 -281.5v-571h-102v1024h102v-176q55 102 141 150.5t189 48.5q113 0 196 -54t123 -155
q54 104 144.5 156.5t197.5 52.5z" />
    <glyph glyph-name="uni0446.loclBGR" horiz-adv-x="1216" 
d="M1081 100h68v-374h-105v276q-69 8 -110 57t-41 125v6q-113 -213 -365 -213q-182 0 -289.5 111.5t-107.5 298.5v637h102v-637q0 -143 80.5 -227t223.5 -84q157 0 256.5 104t99.5 303v541h104v-840q0 -39 22.5 -61.5t61.5 -22.5z" />
    <glyph glyph-name="uni0448.loclBGR" horiz-adv-x="1755" 
d="M1495 1024h102v-1024h-102v176q-55 -102 -141 -150.5t-189 -48.5q-113 0 -196 54t-123 155q-54 -104 -144.5 -156.5t-197.5 -52.5q-167 0 -270 105t-103 293v649h102v-649q0 -143 75 -221t198 -78q137 0 222 94.5t85 282.5v571h102v-649q0 -144 71 -221.5t192 -77.5
q136 0 226.5 95.5t90.5 281.5v571z" />
    <glyph glyph-name="uni0449.loclBGR" horiz-adv-x="1818" 
d="M1683 100h66v-374h-102v276q-68 8 -109.5 54.5t-42.5 119.5q-55 -102 -141 -150.5t-189 -48.5q-113 0 -196 54t-123 155q-54 -104 -144.5 -156.5t-197.5 -52.5q-167 0 -270 105t-103 293v649h102v-649q0 -143 75 -221t198 -78q137 0 222 94.5t85 282.5v571h102v-649
q0 -144 71 -221.5t192 -77.5q136 0 226.5 95.5t90.5 281.5v571h102v-840q0 -39 23.5 -61.5t62.5 -22.5z" />
    <glyph glyph-name="uni044C.loclBGR" horiz-adv-x="983" 
d="M522 680q183 0 288 -91t105 -251q0 -151 -110 -256t-283 -105q-184 0 -287.5 101t-103.5 260v686h102v-344h289zM522 76q127 0 208 78t81 184q0 112 -77.5 177t-211.5 65h-289v-242q0 -111 77.5 -186.5t211.5 -75.5z" />
    <glyph glyph-name="uni044A.loclBGR" horiz-adv-x="1157" 
d="M692 680q183 0 288 -91t105 -251q0 -151 -110 -256t-283 -105q-184 0 -287.5 101t-103.5 260v586h-301v100h403v-344h289zM692 76q127 0 208 78t81 184q0 112 -77.5 177t-211.5 65h-289v-242q0 -111 77.5 -186.5t211.5 -75.5z" />
    <glyph glyph-name="uni044E.loclBGR" horiz-adv-x="1644" 
d="M1020 1047q147 0 270 -70t194.5 -193t71.5 -272t-71.5 -272t-194.5 -193t-270 -70q-212 0 -362 138t-169 348h-229v-463h-102v1434h102v-873h229q19 210 169 348t362 138zM1020 76q183 0 307.5 126.5t124.5 309.5t-124.5 309.5t-307.5 126.5t-308.5 -126.5t-125.5 -309.5
t125.5 -309.5t308.5 -126.5z" />
    <glyph glyph-name="zero.sinf" horiz-adv-x="839" 
d="M420 -352q-164 0 -258 119t-94 315t94 315t258 119t258 -119t94 -315t-94 -315t-258 -119zM420 -258q119 0 186.5 89t67.5 251t-67.5 251t-186.5 89t-186.5 -89t-67.5 -251t67.5 -251t186.5 -89z" />
    <glyph glyph-name="one.sinf" horiz-adv-x="487" 
d="M279 492h77v-820h-98v709l-205 -68l-26 86z" />
    <glyph glyph-name="two.sinf" horiz-adv-x="702" 
d="M70 -328v80l358 334q43 39 66.5 88t23.5 96q0 65 -45.5 108.5t-124.5 43.5q-143 0 -194 -135l-82 45q33 87 104 135.5t172 48.5q121 0 194.5 -71t73.5 -175q0 -136 -120 -247l-281 -256h418v-95h-563z" />
    <glyph glyph-name="three.sinf" horiz-adv-x="706" 
d="M401 154q108 -15 169 -81.5t61 -164.5q0 -114 -79 -187t-212 -73q-103 0 -175 43.5t-108 122.5l82 47q53 -119 201 -119q93 0 142.5 46t49.5 120q0 73 -50.5 120.5t-141.5 47.5h-8l-47 71l198 250h-401v95h516v-95z" />
    <glyph glyph-name="four.sinf" horiz-adv-x="729" 
d="M680 -72v-92h-111v-164h-98v164h-436v92l307 564h107l-308 -564h330v213h98v-213h111z" />
    <glyph glyph-name="five.sinf" horiz-adv-x="665" 
d="M338 174q128 0 206.5 -73t78.5 -193q0 -117 -77.5 -188.5t-209.5 -71.5q-101 0 -172 43t-107 121l84 47q52 -117 195 -117q87 0 137.5 45t50.5 121q0 80 -50 126t-138 46h-242l31 412h465v-93h-381l-14 -225h143z" />
    <glyph glyph-name="six.sinf" horiz-adv-x="686" 
d="M342 205q126 0 211.5 -79.5t85.5 -197.5q0 -121 -85 -200.5t-212 -79.5q-125 0 -210 79.5t-85 200.5q0 78 39 142l272 422h117l-196 -293q30 6 63 6zM342 -258q88 0 143.5 51.5t55.5 134.5q0 82 -55.5 132.5t-143.5 50.5q-87 0 -142 -51t-55 -132q0 -83 55 -134.5
t142 -51.5z" />
    <glyph glyph-name="seven.sinf" horiz-adv-x="632" 
d="M35 492h545v-80l-318 -740h-104l313 725h-436v95z" />
    <glyph glyph-name="eight.sinf" horiz-adv-x="700" 
d="M496 102q66 -30 104.5 -87t38.5 -130q0 -108 -80 -172.5t-209 -64.5t-210 64.5t-81 172.5q0 74 39.5 130.5t106.5 86.5q-55 29 -87 76.5t-32 108.5q0 106 76 167.5t188 61.5q111 0 186.5 -61.5t75.5 -167.5q0 -61 -31.5 -108.5t-84.5 -76.5zM350 424q-76 0 -121 -36.5
t-45 -100.5q0 -63 46 -101.5t120 -38.5q72 0 118 38.5t46 101.5q0 64 -45 100.5t-119 36.5zM350 -258q89 0 140 42.5t51 113.5t-53 113t-138 42q-88 0 -140 -41.5t-52 -113.5q0 -71 51.5 -113.5t140.5 -42.5z" />
    <glyph glyph-name="nine.sinf" horiz-adv-x="686" 
d="M639 236q0 -78 -39 -142l-272 -422h-117l197 293q-30 -6 -64 -6q-126 0 -211.5 79.5t-85.5 197.5q0 121 85 200.5t212 79.5q125 0 210 -79.5t85 -200.5zM145 236q0 -82 55.5 -132.5t143.5 -50.5q87 0 142 51t55 132q0 83 -55 134.5t-142 51.5q-88 0 -143.5 -51.5
t-55.5 -134.5z" />
    <glyph glyph-name="zero.tf" horiz-adv-x="1167" 
d="M584 -23q-169 0 -291 93t-184 259t-62 388t62 387.5t184 258.5t291 93t291 -93t183.5 -258.5t61.5 -387.5t-61.5 -388t-183.5 -259t-291 -93zM584 82q200 0 313 167.5t113 467.5t-113 467.5t-313 167.5t-313 -167.5t-113 -467.5t113 -467.5t313 -167.5z" />
    <glyph glyph-name="one.tf" horiz-adv-x="1167" 
d="M676 104h434v-104h-1024v104h481v1211l-331 -105l-29 95l377 129h92v-1330z" />
    <glyph glyph-name="two.tf" horiz-adv-x="1167" 
d="M102 0v98l547 477q141 121 217 225.5t76 213.5q0 155 -97 246.5t-263 91.5q-127 0 -224 -65.5t-145 -180.5l-90 53q60 138 183.5 217.5t275.5 79.5q204 0 336.5 -119.5t132.5 -322.5q0 -136 -85 -259t-241 -255l-469 -396h829v-104h-983z" />
    <glyph glyph-name="three.tf" horiz-adv-x="1167" 
d="M637 840q200 -19 321 -130t121 -296q0 -135 -67 -235t-183 -151t-264 -51q-176 0 -310 80t-185 219l92 54q36 -114 143.5 -181t259.5 -67q188 0 297 88.5t109 243.5t-109 243t-297 88h-30l-48 72l396 514h-772v103h901v-103z" />
    <glyph glyph-name="four.tf" horiz-adv-x="1167" 
d="M1112 403v-102h-184v-301h-109v301h-772v102l545 1031h119l-545 -1031h653v422h109v-422h184z" />
    <glyph glyph-name="five.tf" horiz-adv-x="1167" 
d="M584 850q141 0 252.5 -50.5t178 -151t66.5 -234.5t-66.5 -234.5t-178 -151.5t-252.5 -51q-174 0 -308.5 81.5t-183.5 220.5l90 53q37 -115 144 -182.5t258 -67.5q176 0 282.5 89t106.5 243t-106 242.5t-283 88.5h-420l47 689h817v-103h-717l-32 -481h305z" />
    <glyph glyph-name="six.tf" horiz-adv-x="1167" 
d="M569 922q234 0 375 -130.5t141 -342.5q0 -211 -141.5 -341.5t-374.5 -130.5q-232 0 -373 131t-141 341q0 171 99 294l497 691h129l-385 -535q87 23 174 23zM569 82q192 0 300 101.5t108 265.5q0 165 -108 266.5t-300 101.5q-191 0 -298 -101.5t-107 -266.5
q0 -164 107 -265.5t298 -101.5z" />
    <glyph glyph-name="seven.tf" horiz-adv-x="1167" 
d="M82 1434h989v-103l-604 -1331h-113l604 1331h-876v103z" />
    <glyph glyph-name="eight.tf" horiz-adv-x="1167" 
d="M827 741q124 -48 193.5 -141.5t69.5 -216.5q0 -191 -137.5 -298.5t-368.5 -107.5t-368.5 107.5t-137.5 298.5q0 124 69 217t193 141q-99 47 -156 132.5t-57 195.5q0 182 127.5 284.5t329.5 102.5q201 0 328.5 -102.5t127.5 -284.5q0 -110 -57 -195.5t-156 -132.5z
M236 1069q0 -128 94 -204.5t254 -76.5t254 76.5t94 204.5q0 134 -93 208.5t-255 74.5t-255 -74.5t-93 -208.5zM584 82q191 0 293 80.5t102 220.5q0 139 -102.5 219t-292.5 80t-293 -80t-103 -219q0 -140 102.5 -220.5t293.5 -80.5z" />
    <glyph glyph-name="nine.tf" horiz-adv-x="1167" 
d="M1112 985q0 -174 -98 -295l-498 -690h-129l385 535q-87 -23 -174 -23q-234 0 -375 130.5t-141 342.5q0 210 141.5 340.5t374.5 130.5q232 0 373 -130.5t141 -340.5zM190 985q0 -165 108 -267t300 -102q191 0 298.5 102t107.5 267q0 164 -107.5 265.5t-298.5 101.5
q-192 0 -300 -101.5t-108 -265.5z" />
    <glyph glyph-name="zero.dnom" horiz-adv-x="839" 
d="M420 -25q-164 0 -258 119.5t-94 315.5t94 315t258 119t258 -119t94 -315t-94 -315.5t-258 -119.5zM420 70q119 0 186.5 89t67.5 251t-67.5 251t-186.5 89t-186.5 -89t-67.5 -251t67.5 -251t186.5 -89z" />
    <glyph glyph-name="one.dnom" horiz-adv-x="503" 
d="M279 819h77v-819h-98v709l-205 -68l-26 86z" />
    <glyph glyph-name="two.dnom" horiz-adv-x="700" 
d="M70 0v80l358 334q43 39 66.5 88t23.5 96q0 65 -45.5 108.5t-124.5 43.5q-143 0 -194 -136l-82 45q33 87 104 136t172 49q121 0 194.5 -71t73.5 -175q0 -137 -120 -248l-281 -256h418v-94h-563z" />
    <glyph glyph-name="three.dnom" horiz-adv-x="714" 
d="M401 481q108 -15 169 -81t61 -164q0 -115 -79 -188t-212 -73q-103 0 -175 43.5t-108 122.5l82 47q53 -118 201 -118q93 0 142.5 46t49.5 120q0 73 -50.5 120t-141.5 47h-8l-47 72l198 250h-401v94h516v-94z" />
    <glyph glyph-name="four.dnom" horiz-adv-x="729" 
d="M680 256v-92h-111v-164h-98v164h-436v92l307 563h107l-308 -563h330v213h98v-213h111z" />
    <glyph glyph-name="five.dnom" horiz-adv-x="694" 
d="M332 502q128 0 206 -73t78 -193q0 -117 -77 -189t-209 -72q-101 0 -172 43t-107 121l84 47q52 -116 195 -116q87 0 137.5 45t50.5 121q0 80 -50 126t-138 46h-242l31 411h465v-92h-381l-15 -225h144z" />
    <glyph glyph-name="six.dnom" horiz-adv-x="686" 
d="M342 532q126 0 211.5 -79t85.5 -197q0 -121 -85 -201t-212 -80q-125 0 -210 80t-85 201q0 77 39 141l272 422h117l-196 -293q30 6 63 6zM342 70q88 0 143.5 51.5t55.5 134.5q0 81 -55.5 131.5t-143.5 50.5q-87 0 -142 -50.5t-55 -131.5q0 -83 55 -134.5t142 -51.5z" />
    <glyph glyph-name="seven.dnom" horiz-adv-x="632" 
d="M35 819h545v-80l-318 -739h-104l313 725h-436v94z" />
    <glyph glyph-name="eight.dnom" horiz-adv-x="700" 
d="M496 430q66 -30 104.5 -87t38.5 -130q0 -108 -80 -173t-209 -65t-210 65t-81 173q0 74 39.5 130.5t106.5 86.5q-119 63 -119 184q0 106 76 168t188 62q111 0 186.5 -62t75.5 -168q0 -61 -31.5 -108t-84.5 -76zM350 752q-76 0 -121 -37t-45 -101q0 -63 46 -101t120 -38
q73 0 118.5 38t45.5 101q0 64 -45 101t-119 37zM350 70q89 0 140 42t51 113t-53.5 113.5t-137.5 42.5q-88 0 -140 -42t-52 -114q0 -71 51.5 -113t140.5 -42z" />
    <glyph glyph-name="nine.dnom" horiz-adv-x="686" 
d="M639 563q0 -77 -39 -141l-272 -422h-117l197 293q-30 -6 -64 -6q-126 0 -211.5 79t-85.5 197q0 121 85 201t212 80q125 0 210 -80t85 -201zM145 563q0 -81 55.5 -131.5t143.5 -50.5q87 0 142 50.5t55 131.5q0 83 -55 135t-142 52q-88 0 -143.5 -52t-55.5 -135z" />
    <glyph glyph-name="zero.numr" horiz-adv-x="839" 
d="M420 590q-164 0 -258 119t-94 315t94 315t258 119t258 -119t94 -315t-94 -315t-258 -119zM420 684q119 0 186.5 89t67.5 251t-67.5 251t-186.5 89t-186.5 -89t-67.5 -251t67.5 -251t186.5 -89z" />
    <glyph glyph-name="one.numr" horiz-adv-x="503" 
d="M279 1434h77v-820h-98v709l-205 -68l-26 86z" />
    <glyph glyph-name="two.numr" horiz-adv-x="700" 
d="M70 614v80l358 334q43 39 66.5 88t23.5 96q0 65 -45.5 108.5t-124.5 43.5q-143 0 -194 -135l-82 45q33 87 104 135.5t172 48.5q121 0 194.5 -71t73.5 -175q0 -136 -120 -247l-281 -256h418v-95h-563z" />
    <glyph glyph-name="three.numr" horiz-adv-x="714" 
d="M401 1096q108 -15 169 -81.5t61 -164.5q0 -114 -79 -187t-212 -73q-103 0 -175 43.5t-108 122.5l82 47q53 -119 201 -119q93 0 142.5 46t49.5 120q0 73 -50.5 120.5t-141.5 47.5h-8l-47 72l198 249h-401v95h516v-95z" />
    <glyph glyph-name="four.numr" horiz-adv-x="729" 
d="M680 870v-92h-111v-164h-98v164h-436v92l307 564h107l-308 -564h330v213h98v-213h111z" />
    <glyph glyph-name="five.numr" horiz-adv-x="694" 
d="M332 1116q128 0 206 -73t78 -193q0 -117 -77 -188.5t-209 -71.5q-101 0 -172 43t-107 121l84 47q52 -117 195 -117q87 0 137.5 45t50.5 121q0 80 -50 126t-138 46h-242l31 412h465v-93h-381l-15 -225h144z" />
    <glyph glyph-name="six.numr" horiz-adv-x="686" 
d="M342 1147q126 0 211.5 -79.5t85.5 -197.5q0 -121 -85 -200.5t-212 -79.5q-125 0 -210 79.5t-85 200.5q0 78 39 142l272 422h117l-196 -293q30 6 63 6zM342 684q88 0 143.5 51.5t55.5 134.5q0 82 -55.5 132.5t-143.5 50.5q-87 0 -142 -51t-55 -132q0 -83 55 -134.5
t142 -51.5z" />
    <glyph glyph-name="seven.numr" horiz-adv-x="632" 
d="M35 1434h545v-80l-318 -740h-104l313 725h-436v95z" />
    <glyph glyph-name="eight.numr" horiz-adv-x="700" 
d="M496 1044q66 -30 104.5 -87t38.5 -130q0 -108 -80 -172.5t-209 -64.5t-210 64.5t-81 172.5q0 74 39.5 130.5t106.5 86.5q-55 29 -87 76.5t-32 108.5q0 106 76 167.5t188 61.5q111 0 186.5 -61.5t75.5 -167.5q0 -61 -31.5 -108.5t-84.5 -76.5zM350 1366q-76 0 -121 -36.5
t-45 -100.5q0 -63 46 -101t120 -38q73 0 118.5 38t45.5 101q0 64 -45 100.5t-119 36.5zM350 684q89 0 140 42.5t51 113.5t-53 113t-138 42q-88 0 -140 -41.5t-52 -113.5q0 -71 51.5 -113.5t140.5 -42.5z" />
    <glyph glyph-name="nine.numr" horiz-adv-x="686" 
d="M639 1178q0 -78 -39 -142l-272 -422h-117l197 293q-30 -6 -64 -6q-126 0 -211.5 79.5t-85.5 197.5q0 121 85 200.5t212 79.5q125 0 210 -79.5t85 -200.5zM145 1178q0 -82 55.5 -132.5t143.5 -50.5q87 0 142 51t55 132q0 83 -55 134.5t-142 51.5q-88 0 -143.5 -51.5
t-55.5 -134.5z" />
    <glyph glyph-name="zero.sups" horiz-adv-x="839" 
d="M420 918q-164 0 -258 119t-94 315t94 315t258 119t258 -119t94 -315t-94 -315t-258 -119zM420 1012q119 0 186.5 89t67.5 251t-67.5 251t-186.5 89t-186.5 -89t-67.5 -251t67.5 -251t186.5 -89z" />
    <glyph glyph-name="one.sups" horiz-adv-x="503" 
d="M279 1761h77v-819h-98v709l-205 -68l-26 86z" />
    <glyph glyph-name="two.sups" horiz-adv-x="700" 
d="M70 942v80l358 334q43 39 66.5 88t23.5 96q0 65 -45.5 108.5t-124.5 43.5q-143 0 -194 -136l-82 46q33 87 104 135.5t172 48.5q121 0 194.5 -71t73.5 -175q0 -137 -120 -248l-281 -256h418v-94h-563z" />
    <glyph glyph-name="three.sups" horiz-adv-x="714" 
d="M401 1423q108 -15 169 -81t61 -164q0 -114 -79 -187t-212 -73q-103 0 -175 43.5t-108 121.5l82 47q53 -118 201 -118q93 0 142.5 46t49.5 120q0 73 -50.5 120.5t-141.5 47.5h-8l-47 71l198 250h-401v94h516v-94z" />
    <glyph glyph-name="four.sups" horiz-adv-x="729" 
d="M680 1198v-92h-111v-164h-98v164h-436v92l307 563h107l-308 -563h330v213h98v-213h111z" />
    <glyph glyph-name="five.sups" horiz-adv-x="694" 
d="M332 1444q128 0 206 -73t78 -193q0 -117 -77 -188.5t-209 -71.5q-101 0 -172 42.5t-107 120.5l84 47q52 -116 195 -116q87 0 137.5 45t50.5 121q0 80 -50 126t-138 46h-242l31 411h465v-92h-381l-15 -225h144z" />
    <glyph glyph-name="six.sups" horiz-adv-x="686" 
d="M342 1475q126 0 211.5 -79.5t85.5 -197.5q0 -121 -85 -200.5t-212 -79.5q-125 0 -210 79.5t-85 200.5q0 77 39 141l272 422h117l-196 -293q35 7 63 7zM342 1012q88 0 143.5 51.5t55.5 134.5q0 81 -55.5 131.5t-143.5 50.5q-87 0 -142 -50.5t-55 -131.5q0 -83 55 -134.5
t142 -51.5z" />
    <glyph glyph-name="seven.sups" horiz-adv-x="632" 
d="M35 1761h545v-80l-318 -739h-104l313 725h-436v94z" />
    <glyph glyph-name="eight.sups" horiz-adv-x="700" 
d="M496 1372q66 -30 104.5 -87t38.5 -130q0 -108 -80 -172.5t-209 -64.5t-210 64.5t-81 172.5q0 74 39.5 130.5t106.5 86.5q-119 63 -119 184q0 106 76 168t188 62q111 0 186.5 -62t75.5 -168q0 -61 -31.5 -108t-84.5 -76zM350 1694q-76 0 -121 -37t-45 -101q0 -63 46 -101
t120 -38q73 0 118.5 38t45.5 101q0 64 -45 101t-119 37zM350 1012q89 0 140 42t51 113t-53.5 113.5t-137.5 42.5q-88 0 -140 -42t-52 -114q0 -71 51.5 -113t140.5 -42z" />
    <glyph glyph-name="nine.sups" horiz-adv-x="686" 
d="M639 1505q0 -77 -39 -141l-272 -422h-117l197 293q-30 -6 -64 -6q-126 0 -211.5 79t-85.5 197q0 121 85 201t212 80q125 0 210 -80t85 -201zM145 1505q0 -81 55.5 -131.5t143.5 -50.5q87 0 142 50.5t55 131.5q0 83 -55 135t-142 52q-88 0 -143.5 -52t-55.5 -135z" />
    <glyph glyph-name="cent.tf" horiz-adv-x="1167" 
d="M1008 494l86 -52q-62 -119 -183.5 -189.5t-271.5 -70.5q-79 0 -152 21l-65 -203h-82l74 227q-143 62 -228.5 193.5t-85.5 296.5q0 228 154 381t385 153q51 0 109 -10l63 193h82l-70 -213q89 -31 157.5 -91t104.5 -141l-84 -49q-29 64 -83 111.5t-125 74.5l-273 -829
q59 -16 119 -16q122 0 219.5 58t149.5 155zM205 717q0 -129 65.5 -234.5t175.5 -158.5l271 823q-37 6 -78 6q-185 0 -309.5 -126t-124.5 -310z" />
    <glyph glyph-name="dollar.tf" horiz-adv-x="1167" 
d="M1077 362q0 -163 -115.5 -266.5t-304.5 -115.5v-185h-96v185q-176 9 -297 89t-174 222l94 53q68 -242 377 -260v608q-76 25 -126 44.5t-107 53t-89.5 71t-54.5 94.5t-22 128q0 158 112 259t287 112v184h96v-184q140 -12 239 -85t148 -206l-92 -51q-69 214 -295 238v-580
q78 -24 132 -45.5t112.5 -56t94 -74.5t58.5 -99.5t23 -132.5zM270 1083q0 -59 19.5 -103.5t61 -77.5t89.5 -55t121 -46v549q-134 -9 -212.5 -82.5t-78.5 -184.5zM657 84q148 10 230 86t82 192q0 63 -21.5 111t-66 82.5t-96 58.5t-128.5 48v-578z" />
    <glyph glyph-name="Euro.tf" horiz-adv-x="1167" 
d="M1014 334l88 -49q-47 -148 -154.5 -228t-253.5 -80q-211 0 -342 153t-162 419h-145v92h137q-2 25 -2 76q0 59 2 88h-137v90h145q34 262 164.5 411.5t339.5 149.5q143 0 249 -76t153 -217l-90 -51q-37 116 -120.5 178t-191.5 62q-158 0 -261 -119.5t-132 -337.5h520v-90
h-530q-2 -29 -2 -88q0 -51 2 -76h530v-92h-522q28 -223 131 -345t264 -122q111 0 196 65t124 187z" />
    <glyph glyph-name="florin.tf" horiz-adv-x="1167" 
d="M1100 1337q-121 43 -197.5 0t-105.5 -157l-101 -412h316v-100h-338l-201 -826q-41 -170 -145.5 -236t-259.5 -22v103q121 -43 197.5 0t103.5 157l200 824h-311v100h336l100 414q41 170 145.5 236t260.5 22v-103z" />
    <glyph glyph-name="uni20BD.tf" horiz-adv-x="1167" 
d="M682 588h-369v-213h533v-90h-533v-285h-108v285h-185v90h185v213h-185v102h185v744h477q175 0 299.5 -124.5t124.5 -299.5q0 -173 -124.5 -297.5t-299.5 -124.5zM313 1331v-641h369q130 0 222.5 94t92.5 226q0 133 -92 227t-223 94h-369z" />
    <glyph glyph-name="sterling.tf" horiz-adv-x="1167" 
d="M381 104h772v-104h-1085v104h204v496h-163v96h163v348q0 99 34 179t92 130t130.5 76.5t153.5 26.5q143 0 242 -71.5t147 -202.5l-90 -52q-73 222 -299 222q-131 0 -216 -80t-85 -228v-348h493v-96h-493v-496z" />
    <glyph glyph-name="yen.tf" horiz-adv-x="1167" 
d="M1141 1434l-479 -729h358v-93h-381v-157h381v-90h-381v-365h-111v365h-376v90h376v157h-376v93h356l-479 729h118l437 -664l436 664h121z" />
    <glyph glyph-name="brevecy" horiz-adv-x="600" 
d="M41 1202v90h518v-90h-518z" />
    </font>
</defs>
</svg>
