<?xml version="1.0" standalone="no"?>
<!DOCTYPE svg PUBLIC "-//W3C//DTD SVG 1.1//EN" "http://www.w3.org/Graphics/SVG/1.1/DTD/svg11.dtd" >
<svg xmlns="http://www.w3.org/2000/svg" xmlns:xlink="http://www.w3.org/1999/xlink" version="1.1">
<metadata>
Created by FontForge 20170731 at Thu Jul 16 05:35:48 2015
 By Aleksey,,,
(c) 1990-2006 Apple Computer Inc. (c) 1981 Linotype AG (c) 1990-91 Type Solutions Inc.
</metadata>
<defs>
<font id="Helvetica-BoldOblique" horiz-adv-x="1251" >
  <font-face 
    font-family="Helvetica"
    font-weight="700"
    font-style="oblique"
    font-stretch="normal"
    units-per-em="2048"
    panose-1="0 0 0 0 0 0 0 0 0 0"
    ascent="1638"
    descent="-410"
    x-height="1088"
    cap-height="1470"
    bbox="-2050 -985 3255 2407"
    underline-thickness="101"
    underline-position="-405"
    slope="-12"
    unicode-range="U+0008-FFA7"
  />
<missing-glyph horiz-adv-x="1479" 
d="M154 0v1474h1187v-1474h-1187zM1157 184v1106h-819v-1106h819z" />
    <glyph glyph-name="fi" unicode="fi" 
d="M1142 1483h279l-56 -260h-279zM1057 1085h284l-230 -1085h-284zM966 1483l-50 -232q-19 1 -38 1.5t-46 0.5q-67 0 -90 -37t-38 -116l-4 -20h187l-43 -201h-187l-186 -879h-284l186 879h-159l43 201h156l15 70q37 174 132 259q86 80 298 80q26 0 52.5 -2t55.5 -4z" />
    <glyph glyph-name="fl" unicode="fl" 
d="M1140 1474h284l-313 -1474h-284zM966 1483l-50 -232q-19 1 -38 1.5t-46 0.5q-67 0 -90 -37t-38 -116l-4 -20h187l-43 -201h-187l-186 -879h-284l186 879h-159l43 201h156l15 70q37 174 132 259q86 80 298 80q26 0 52.5 -2t55.5 -4z" />
    <glyph glyph-name=".notdef" horiz-adv-x="1479" 
d="M154 0v1474h1187v-1474h-1187zM1157 184v1106h-819v-1106h819z" />
    <glyph glyph-name=".null" horiz-adv-x="0" 
 />
    <glyph glyph-name=".null" horiz-adv-x="0" 
 />
    <glyph glyph-name=".null" horiz-adv-x="0" 
 />
    <glyph glyph-name="nonmarkingreturn" unicode="&#x9;" horiz-adv-x="569" 
 />
    <glyph glyph-name="nonmarkingreturn" unicode="&#xd;" horiz-adv-x="569" 
 />
    <glyph glyph-name="nonmarkingreturn" unicode="&#xa;" horiz-adv-x="569" 
 />
    <glyph glyph-name="space" unicode=" " horiz-adv-x="569" 
 />
    <glyph glyph-name="exclam" unicode="!" horiz-adv-x="682" 
d="M537 1469h313l-80 -374l-227 -688h-149l63 688zM293 289h298l-61 -289h-298z" />
    <glyph glyph-name="quotedbl" unicode="&#x22;" horiz-adv-x="971" 
d="M988 1474l-177 -609h-180l84 609h273zM609 1474l-178 -609h-180l85 609h273z" />
    <glyph glyph-name="numbersign" unicode="#" horiz-adv-x="1139" 
d="M731 568l143 292h-166l-140 -292h163zM165 568h203l141 292h-204l81 168h204l195 403h199l-195 -403h166l192 403h199l-192 -403h201l-81 -168h-201l-143 -292h204l-80 -168h-204l-192 -400h-199l192 400h-164l-194 -400h-199l194 400h-203z" />
    <glyph glyph-name="dollar" unicode="$" horiz-adv-x="1139" 
d="M655 187q81 10 123 36q73 46 97 159q18 86 -30 136q-29 29 -107 60zM782 1232q-87 -2 -138.5 -46.5t-67.5 -121.5q-18 -84 34 -133q30 -27 98 -50zM567 -237h-97l42 199q-192 22 -275 86q-147 115 -85 392h270q-13 -126 3 -169q25 -67 135 -87l90 427l-76 24
q-179 56 -236 156t-27 241q20 93 66.5 169t113.5 131q86 71 178 98q57 17 161 25l28 133h95l-29 -135q161 -13 239 -80q147 -107 102 -347h-263q11 89 -3 130q-23 71 -121 78l-81 -381q220 -82 289 -145q113 -105 72 -296q-53 -252 -263 -366q-128 -70 -285 -82z" />
    <glyph glyph-name="percent" unicode="%" horiz-adv-x="1821" 
d="M805 1071q14 66 -22.5 112.5t-102.5 46.5t-122.5 -46.5t-70.5 -112.5t22.5 -112.5t102.5 -46.5t122.5 46.5t70.5 112.5zM567 699q-154 0 -240 109t-53 263t165 263t286 109t240 -109t53 -263t-164.5 -263t-286.5 -109zM1497 502q-66 0 -122.5 -46.5t-70.5 -112.5
t23 -112.5t103 -46.5t122 46.5t70 112.5t-22.5 112.5t-102.5 46.5zM1384 -29q-154 0 -239.5 109t-53.5 263q33 155 165 263.5t286 108.5t240 -109t53 -263q-32 -154 -164.5 -263t-286.5 -109zM1540 1450h152l-1125 -1488h-155z" />
    <glyph glyph-name="ampersand" unicode="&#x26;" horiz-adv-x="1479" 
d="M564 805l35 19q-49 72 -68 147t-2 156q34 161 161.5 251.5t299.5 90.5q157 0 239.5 -92.5t52.5 -236.5q-28 -130 -106.5 -211t-212.5 -150l154 -258q47 52 79.5 113t48.5 129h253q-35 -134 -122 -271q-48 -77 -140 -170l200 -322h-346l-76 125q-89 -69 -160 -102
q-126 -59 -275 -59q-224 0 -322 132t-64 293q28 133 114.5 228t256.5 188zM803 1053q12 -29 56 -103q69 42 102 71q61 54 74 117q10 46 -12.5 82t-83.5 36q-38 0 -75 -21q-57 -31 -71 -98q-8 -40 10 -84zM650 203q70 0 139 32.5t117 72.5l-199 334q-122 -71 -168 -125
t-60 -119q-15 -73 31.5 -134t139.5 -61z" />
    <glyph glyph-name="quotesingle" unicode="'" horiz-adv-x="487" 
d="M685 1474l-180 -609h-173l80 609h273z" />
    <glyph glyph-name="parenleft" unicode="(" horiz-adv-x="682" 
d="M422 1102q119 184 316 396h215l-85 -112q-175 -231 -278 -484q-67 -166 -109 -362q-65 -306 -31 -563q20 -152 101 -390h-211l-50 97q-50 88 -91 262q-73 311 -9 612q58 274 232 544z" />
    <glyph glyph-name="parenright" unicode=")" horiz-adv-x="682" 
d="M706 1102q59 -270 1 -544q-64 -301 -269 -612q-115 -174 -203 -262l-91 -97h-210q181 238 266 390q143 257 208 563q42 196 45 362q5 253 -72 484l-37 112h215q107 -212 147 -396z" />
    <glyph glyph-name="asterisk" unicode="*" horiz-adv-x="797" 
d="M372 1310l194 -68l52 241h173l-52 -241l224 68l15 -149l-227 -66l97 -199l-147 -91l-99 188l-183 -188l-109 91l182 199l-199 66z" />
    <glyph glyph-name="plus" unicode="+" horiz-adv-x="1196" 
d="M160 412l56 261h410l87 410h263l-87 -410h410l-56 -261h-410l-87 -412h-263l87 412h-410z" />
    <glyph glyph-name="comma" unicode="," horiz-adv-x="569" 
d="M67 -237q91 24 143.5 80t80.5 157h-173l63 298h308l-55 -258q-14 -68 -48 -142t-94 -128q-66 -58 -143.5 -87.5t-104.5 -29.5z" />
    <glyph glyph-name="hyphen" unicode="-" horiz-adv-x="682" 
d="M197 706h574l-58 -270h-574z" />
    <glyph glyph-name="period" unicode="." horiz-adv-x="569" 
d="M191 298h303l-63 -298h-303z" />
    <glyph glyph-name="slash" unicode="/" horiz-adv-x="569" 
d="M781 1519h237l-895 -1519h-235z" />
    <glyph glyph-name="zero" unicode="0" horiz-adv-x="1139" 
d="M605 196q127 0 194.5 132.5t121.5 382.5q55 262 42.5 388t-139.5 126t-195 -126t-123 -388q-54 -250 -41 -382.5t140 -132.5zM1215 711q-77 -359 -229.5 -553t-429.5 -194t-347.5 194t6.5 553q76 359 229 554t430 195t347 -195t-6 -554z" />
    <glyph glyph-name="one" unicode="1" horiz-adv-x="1139" 
d="M354 1000l41 194q137 6 193 18q90 19 156 76q46 39 78 104q20 39 24 58h237l-308 -1450h-292l212 1000h-341z" />
    <glyph glyph-name="two" unicode="2" horiz-adv-x="1139" 
d="M191 285q92 145 353 307q227 141 298 202q109 95 133 208q20 92 -18 153t-133 61q-130 0 -198 -97q-39 -56 -69 -178h-277q46 185 130 299q160 217 451 217q230 0 339 -127.5t64 -337.5q-34 -161 -156 -286q-81 -83 -247 -185l-131 -81q-123 -76 -170 -110t-83 -79h633
l-53 -251h-993q37 156 127 285z" />
    <glyph glyph-name="three" unicode="3" horiz-adv-x="1139" 
d="M428 445q-18 -87 -3 -144q30 -105 167 -105q84 0 159 57.5t98 165.5q30 143 -76 191q-60 27 -202 27l43 204q140 2 200 27q104 42 131 170q18 83 -19.5 135t-125.5 52q-101 0 -162 -64t-82 -171h-266q27 108 81 205q53 85 143 157q67 51 149.5 78t194.5 27
q208 0 312.5 -107.5t66.5 -288.5q-27 -128 -122 -216q-60 -55 -116 -75q39 0 98 -67q87 -101 50 -276q-39 -184 -196 -323.5t-407 -139.5q-308 0 -385 201q-41 107 -11 280h280z" />
    <glyph glyph-name="four" unicode="4" horiz-adv-x="1139" 
d="M1137 312h-164l-66 -312h-279l66 312h-574l53 249l720 880h320l-193 -906h164zM741 535l133 626l-496 -626h363z" />
    <glyph glyph-name="five" unicode="5" horiz-adv-x="1139" 
d="M420 388q-3 -93 34.5 -143.5t129.5 -50.5q106 0 177 74.5t95 187.5q24 111 -11.5 187.5t-145.5 76.5q-52 0 -93 -13q-72 -24 -120 -89l-254 12l273 801h799l-52 -242h-593l-119 -317q75 43 115 57q67 23 156 23q180 0 288 -121t59 -352q-42 -201 -205 -359t-420 -158
q-207 0 -316 111t-81 315h284z" />
    <glyph glyph-name="six" unicode="6" horiz-adv-x="1139" 
d="M614 194q95 0 164.5 71.5t93.5 185.5q27 127 -20.5 194.5t-137.5 67.5q-73 0 -138 -44q-98 -65 -129 -210q-25 -117 22.5 -191t144.5 -74zM981 1085q8 35 -11 77q-31 68 -124 68q-139 0 -231 -156q-50 -86 -98 -254q66 63 142.5 92t166.5 29q193 0 288.5 -131t51.5 -335
q-43 -203 -197 -358t-409 -155q-274 0 -355 229q-63 179 -3 462q36 166 72 270q64 185 162 308q84 105 198.5 169t254.5 64q202 0 300 -103.5t76 -275.5h-284z" />
    <glyph glyph-name="seven" unicode="7" horiz-adv-x="1139" 
d="M1336 1208q-77 -63 -225.5 -224.5t-261.5 -333.5q-90 -135 -180.5 -330t-116.5 -320h-296q95 390 428 811q212 261 340 364h-723l59 256h1024z" />
    <glyph glyph-name="eight" unicode="8" horiz-adv-x="1139" 
d="M600 196q98 0 166 59t91 166q24 111 -20.5 168.5t-140.5 57.5t-164.5 -57.5t-92.5 -168.5q-23 -107 20 -166t141 -59zM436 772q-91 70 -105 151.5t1 152.5q34 158 176.5 269.5t359.5 111.5t312.5 -111.5t61.5 -269.5q-15 -71 -64 -152.5t-166 -141.5q94 -60 127 -159
t7 -221q-39 -183 -202 -311.5t-406 -128.5t-340.5 128.5t-58.5 311.5q26 122 102.5 221t194.5 149zM742 865q87 0 145.5 50t74.5 129q19 86 -18.5 134.5t-124.5 48.5q-86 0 -144.5 -48.5t-77.5 -134.5q-16 -79 21.5 -129t123.5 -50z" />
    <glyph glyph-name="nine" unicode="9" horiz-adv-x="1139" 
d="M855 1462q331 0 392 -293q35 -166 -23 -437q-56 -263 -160 -439q-199 -335 -541 -335q-163 0 -272.5 96.5t-89.5 281.5h284q-4 -64 31.5 -104t108.5 -40q141 0 231 156q50 86 93 251q-50 -49 -99 -75q-90 -48 -207 -48q-173 0 -282 119.5t-61 344.5q50 233 215 377.5
t380 144.5zM832 742q110 62 143 215q26 123 -16 195t-142 72q-73 0 -134 -41q-96 -64 -128 -217q-28 -129 11 -193.5t148 -64.5q59 0 118 34z" />
    <glyph glyph-name="colon" unicode=":" horiz-adv-x="682" 
d="M454 1047h303l-63 -298h-303zM295 298h303l-63 -298h-303z" />
    <glyph glyph-name="semicolon" unicode=";" horiz-adv-x="682" 
d="M454 1047h303l-63 -298h-303zM181 -237q107 29 163 103q35 46 61 134h-173l63 298h308l-55 -258q-15 -69 -48.5 -142.5t-93.5 -127.5q-64 -57 -142 -87t-106 -30z" />
    <glyph glyph-name="less" unicode="&#x3c;" horiz-adv-x="1196" 
d="M165 670l1273 448l-59 -279l-904 -297l777 -298l-59 -278l-1083 448z" />
    <glyph glyph-name="equal" unicode="=" horiz-adv-x="1196" 
d="M1348 907l-56 -263h-1083l56 263h1083zM1249 440l-56 -263h-1083l56 263h1083z" />
    <glyph glyph-name="greater" unicode="&#x3e;" horiz-adv-x="1196" 
d="M1288 414l-1273 -448l59 278l906 298l-779 297l59 279l1082 -450z" />
    <glyph glyph-name="question" unicode="?" 
d="M549 289h298l-61 -289h-298zM622 1413q134 76 306 76q226 0 352.5 -108t81.5 -320q-28 -130 -112 -219q-49 -54 -175 -138l-83 -55q-67 -45 -99 -105q-20 -38 -38 -118h-270q42 169 81.5 233.5t165.5 148.5l85 57q42 27 71 59q52 55 66 121q16 76 -15.5 138.5
t-149.5 62.5q-116 0 -180.5 -77t-82.5 -160h-289q73 285 285 404z" />
    <glyph glyph-name="at" unicode="@" horiz-adv-x="1997" 
d="M1288 1033q-104 0 -206.5 -129.5t-128.5 -250.5q-15 -73 9 -118t85 -45q107 0 210 162.5t123 255.5q11 53 -13.5 89t-78.5 36zM740 673q38 181 194.5 339t335.5 158q105 0 151 -58q34 -45 37 -103l63 126h189l-220 -434q-27 -53 -39 -78.5t-16 -44.5q-6 -30 8.5 -56.5
t58.5 -26.5q86 0 196.5 112.5t149.5 298.5q59 275 -152 395q-132 76 -317 76q-340 0 -590 -208q-226 -188 -282 -451q-62 -292 120 -463q161 -151 439 -151q190 0 369 70q98 37 209 105l27 17l50 -112q-166 -110 -343.5 -167.5t-355.5 -57.5q-415 0 -588 258
q-144 214 -82 507q70 328 355 556q299 241 686 241q315 0 487 -165q181 -174 120 -462q-49 -227 -221.5 -389.5t-349.5 -162.5q-92 0 -130.5 52t-26.5 107q1 7 3.5 15.5t5.5 18.5q-53 -72 -109 -115q-102 -77 -221 -77q-121 0 -183 87t-28 243z" />
    <glyph glyph-name="A" unicode="A" horiz-adv-x="1479" 
d="M677 557h374l-61 580zM891 1474h348l209 -1474h-334l-31 303h-543l-166 -303h-322z" />
    <glyph glyph-name="B" unicode="B" horiz-adv-x="1479" 
d="M713 1218l-69 -325h362q97 0 165.5 36.5t88.5 129.5q21 103 -51 136q-65 23 -172 23h-324zM592 649l-83 -393h362q97 0 156 26q109 48 138 184q24 115 -62 158q-48 24 -144 25h-367zM1540 1317q48 -94 21 -225q-29 -135 -115 -217q-47 -46 -129 -84q104 -41 142.5 -130
t11.5 -216q-28 -131 -116 -235q-57 -69 -130 -116q-82 -54 -182.5 -74t-213.5 -20h-668l313 1474h716q270 -4 350 -157z" />
    <glyph glyph-name="C" unicode="C" horiz-adv-x="1479" 
d="M579 1320q219 182 497 182q372 0 492 -244q66 -137 43 -275h-308q-7 106 -43 160q-63 96 -228 96q-168 0 -294 -135.5t-178 -383.5q-53 -248 23 -371.5t234 -123.5q162 0 270 106q59 57 114 171h305q-91 -241 -287.5 -392t-453.5 -151q-318 0 -457 204q-138 205 -62 562
q82 386 333 595z" />
    <glyph glyph-name="D" unicode="D" horiz-adv-x="1479" 
d="M713 1218l-204 -962h284q218 0 350 215q72 118 106 281q48 225 3 345.5t-255 120.5h-284zM1325 1442q144 -51 211 -187q54 -110 54.5 -238t-23.5 -244q-63 -294 -224 -498q-218 -275 -552 -275h-635l313 1474h635q136 -2 221 -32z" />
    <glyph glyph-name="E" unicode="E" horiz-adv-x="1366" 
d="M1503 1213h-780l-66 -313h716l-55 -256h-716l-80 -379h816l-56 -265h-1117l313 1474h1081z" />
    <glyph glyph-name="F" unicode="F" 
d="M468 1472h1045l-55 -259h-739l-72 -339h647l-54 -256h-647l-131 -618h-306z" />
    <glyph glyph-name="G" unicode="G" horiz-adv-x="1593" 
d="M1362 1014q-3 151 -126 211q-69 33 -162 33q-178 0 -321 -134.5t-201 -404.5q-57 -272 42.5 -385t257.5 -113q155 0 273.5 89.5t171.5 234.5h-341l53 246h614l-168 -791h-204l8 184q-112 -105 -192 -148q-138 -75 -316 -75q-293 0 -437 203q-151 204 -76 558
q76 358 319 574t567 216q281 0 421 -142.5t120 -355.5h-303z" />
    <glyph glyph-name="H" unicode="H" horiz-adv-x="1479" 
d="M154 0l313 1474h305l-120 -562h576l120 562h306l-313 -1474h-306l139 658h-576l-139 -658h-305z" />
    <glyph glyph-name="I" unicode="I" horiz-adv-x="569" 
d="M438 0h-306l313 1474h306z" />
    <glyph glyph-name="J" unicode="J" horiz-adv-x="1139" 
d="M454 559l-7 -34q-32 -171 -13.5 -240.5t128.5 -69.5q109 0 160 76q31 45 54 152l219 1031h308l-218 -1026q-40 -188 -129 -298q-149 -186 -436 -186t-353 150.5t-11 410.5l7 34h291z" />
    <glyph glyph-name="K" unicode="K" horiz-adv-x="1479" 
d="M474 1474h303l-129 -607l698 607h398l-733 -607l451 -867h-396l-319 644l-179 -151l-104 -493h-303z" />
    <glyph glyph-name="L" unicode="L" 
d="M469 1474h308l-257 -1209h730l-56 -265h-1038z" />
    <glyph glyph-name="M" unicode="M" horiz-adv-x="1706" 
d="M1446 1474h443l-313 -1474h-287l211 997q10 43 27.5 120.5t25.5 119.5l-541 -1237h-299l-15 1237q-8 -42 -23.5 -119.5t-25.5 -120.5l-211 -997h-287l313 1474h448l21 -1159z" />
    <glyph glyph-name="N" unicode="N" horiz-adv-x="1479" 
d="M464 1474h323l368 -1029l219 1029h287l-313 -1474h-308l-380 1047l-222 -1047h-287z" />
    <glyph glyph-name="O" unicode="O" horiz-adv-x="1593" 
d="M1363 739q52 248 -26.5 383.5t-261.5 135.5t-320.5 -135t-190.5 -384t27 -384t263 -135t319.5 135t189.5 384zM1318 131q-203 -172 -519 -172t-447 172q-179 211 -94 608q86 405 353 608q203 172 519 172t447 -172q180 -203 94 -608q-85 -397 -353 -608z" />
    <glyph glyph-name="P" unicode="P" horiz-adv-x="1366" 
d="M1014 1218h-287l-92 -434h287q109 0 181 53t96 168q25 115 -25.5 164t-159.5 49zM894 530h-313l-112 -530h-306l313 1474h642q222 0 329.5 -114t57.5 -353q-56 -261 -211 -369t-400 -108z" />
    <glyph glyph-name="Q" unicode="Q" horiz-adv-x="1593" 
d="M956 233q29 7 74 25l-118 142l194 166l119 -142q50 72 75 126q40 81 63 189q52 248 -20.5 383.5t-267.5 135.5q-183 0 -319.5 -130t-191.5 -389q-65 -303 63 -434q83 -85 224 -85q53 0 105 13zM1557 431q-66 -127 -160 -211l136 -159l-196 -168l-143 168
q-91 -49 -154 -69q-106 -33 -244 -33q-288 0 -440 172q-184 207 -98 608q85 404 363 611q227 169 511 169q286 0 442 -179q180 -207 101 -579q-42 -197 -118 -330z" />
    <glyph glyph-name="R" unicode="R" horiz-adv-x="1479" 
d="M722 1218l-84 -396h349q104 0 161 24q101 42 128 166q28 134 -51 180q-45 26 -145 26h-358zM1549 1333q36 -56 49.5 -124t-4.5 -155q-23 -105 -97.5 -206.5t-205.5 -143.5q93 -41 119.5 -116.5t-6.5 -230.5l-21 -99q-21 -101 -21 -137q0 -57 38 -84l-7 -37h-339
q-4 49 -4 79q1 62 14 127l27 137q28 141 -11.5 188t-175.5 47h-318l-122 -578h-301l313 1474h723q154 -3 230 -38t120 -103z" />
    <glyph glyph-name="S" unicode="S" horiz-adv-x="1366" 
d="M475 455q-7 -101 23 -151q56 -91 238 -91q109 0 182 24q139 46 165 171q16 73 -40 113q-55 39 -186 69l-149 35q-219 52 -294 113q-127 102 -81 319q42 198 214 329t451 131q233 0 371 -123.5t96 -358.5h-296q21 133 -75 189q-64 37 -171 37q-119 0 -200.5 -48
t-99.5 -134q-17 -79 45 -118q39 -26 179 -61l241 -61q158 -40 229 -107q110 -104 68 -301q-43 -202 -226 -335.5t-465 -133.5q-288 0 -425 131.5t-88 361.5h294z" />
    <glyph glyph-name="T" unicode="T" 
d="M1540 1474l-56 -261h-441l-257 -1213h-310l257 1213h-443l56 261h1194z" />
    <glyph glyph-name="U" unicode="U" horiz-adv-x="1479" 
d="M469 1474h313l-193 -906q-32 -152 -11 -222q30 -124 218 -124q187 0 269 124q51 70 83 222l193 906h313l-193 -906q-50 -235 -151 -366q-187 -240 -570 -240t-469 240q-45 131 5 366z" />
    <glyph glyph-name="V" unicode="V" horiz-adv-x="1366" 
d="M1332 1474h320l-816 -1474h-291l-185 1474h329l82 -1119z" />
    <glyph glyph-name="W" unicode="W" horiz-adv-x="1933" 
d="M670 1474l15 -844l-8 -235l92 230l347 849h325l-5 -844l-5 -235l93 226l379 853h313l-728 -1474h-294l5 862l8 285l-112 -285l-361 -862h-286l-105 1474h327z" />
    <glyph glyph-name="X" unicode="X" horiz-adv-x="1366" 
d="M391 0h-358l633 751l-297 723h368l161 -479l372 479h356l-602 -711l317 -763h-374l-174 502z" />
    <glyph glyph-name="Y" unicode="Y" horiz-adv-x="1366" 
d="M1310 1474h349l-689 -920l-117 -554h-308l117 554l-314 920h363l169 -642z" />
    <glyph glyph-name="Z" unicode="Z" 
d="M107 260l963 953h-742l56 261h1126l-53 -247l-976 -967h773l-55 -260h-1147z" />
    <glyph glyph-name="bracketleft" unicode="[" horiz-adv-x="682" 
d="M444 1488h502l-44 -208h-232l-312 -1465h232l-44 -209h-502z" />
    <glyph glyph-name="backslash" unicode="\" horiz-adv-x="569" 
d="M445 1519l251 -1519h-237l-249 1519h235z" />
    <glyph glyph-name="bracketright" unicode="]" horiz-adv-x="682" 
d="M7 -185h232l312 1469h-232l44 204h502l-400 -1882h-501z" />
    <glyph glyph-name="asciicircum" unicode="^" horiz-adv-x="1196" 
d="M1045 1474l179 -884h-251l-107 566l-350 -566h-252l556 884h225z" />
    <glyph glyph-name="underscore" unicode="_" horiz-adv-x="1139" 
d="M-54 -256l22 101h1138l-22 -101h-1138z" />
    <glyph glyph-name="grave" unicode="`" horiz-adv-x="682" 
d="M721 1237h-206l-239 299h317z" />
    <glyph glyph-name="a" unicode="a" horiz-adv-x="1139" 
d="M846 530q-30 -17 -60 -27.5t-80 -19.5l-66 -12q-94 -16 -138 -39q-74 -39 -91 -121q-16 -73 17.5 -105.5t91.5 -32.5q92 0 181 54t123 197zM701 663q82 10 119 25q66 26 78 81q14 67 -27 92.5t-131 25.5q-101 0 -154 -50q-37 -37 -61 -100h-275q40 143 130 235
q144 144 419 144q179 0 303 -71t82 -268l-107 -500q-11 -52 -24 -126q-9 -56 0.5 -76t34.5 -33l-8 -42h-310q-6 33 -5 62t6 66q-73 -64 -159 -109q-104 -53 -220 -53q-148 0 -226.5 84.5t-45.5 239.5q43 201 217 291q95 49 265 70z" />
    <glyph glyph-name="b" unicode="b" 
d="M1298 559q-54 -254 -209.5 -421t-370.5 -167q-135 0 -205 54q-42 32 -82 112l-29 -137h-279l312 1472h284l-111 -524q70 76 144 116q87 50 206 50q215 0 303.5 -155t36.5 -400zM993 529q25 116 11 192q-27 144 -180 144q-155 0 -243 -141q-46 -75 -71 -194
q-30 -140 12.5 -232t169.5 -92q110 0 190 89t111 234z" />
    <glyph glyph-name="c" unicode="c" horiz-adv-x="1139" 
d="M932 699q5 61 -18 110q-34 66 -135 66q-144 0 -227 -143q-44 -76 -71 -202q-25 -120 -13 -193q22 -136 163 -136q100 0 153.5 54t80.5 140h291q-37 -130 -146 -246q-174 -187 -437 -187t-353.5 156t-37.5 405q59 281 229.5 437t411.5 156q205 0 316 -92t85 -325h-292z
" />
    <glyph glyph-name="d" unicode="d" 
d="M1038 952l110 520h289l-312 -1472h-277l32 151q-82 -97 -169.5 -141t-203.5 -44q-191 0 -288.5 154.5t-46.5 396.5q60 279 222.5 439t377.5 160q99 0 166.5 -43.5t99.5 -120.5zM956 529q42 200 -40 286q-51 52 -133 52q-125 0 -203.5 -94.5t-108.5 -234.5
q-32 -151 8 -241.5t161 -90.5t203.5 90t112.5 233z" />
    <glyph glyph-name="e" unicode="e" horiz-adv-x="1139" 
d="M480 654h443q17 113 -32.5 171.5t-140.5 58.5q-99 0 -166.5 -62t-103.5 -168zM1180 907q44 -97 35 -225q-4 -75 -36 -216h-746q-29 -164 54 -230q50 -41 133 -41q88 0 154 50q35 27 69 75h291q-32 -97 -143 -197q-174 -159 -426 -159q-208 0 -338.5 134t-66.5 436
q60 283 235.5 434t404.5 151q136 0 234.5 -51t145.5 -161z" />
    <glyph glyph-name="f" unicode="f" horiz-adv-x="682" 
d="M959 1483l-50 -232q-23 3 -79 4.5t-83.5 -25t-33.5 -58.5q-7 -32 -20 -92h187l-43 -201h-187l-186 -879h-284l186 879h-159l43 201h156l15 70q37 175 110 241q83 98 320 98q27 0 48.5 -1.5t59.5 -4.5z" />
    <glyph glyph-name="g" unicode="g" 
d="M955 550q33 155 -15 236t-158 81q-150 0 -237 -141q-46 -75 -70 -185q-20 -95 -3 -169q28 -138 178 -138q100 0 185 75.5t120 240.5zM904 1091q95 -43 135 -158l33 157h277l-220 -1034q-44 -211 -138 -318q-161 -184 -507 -184q-209 0 -323.5 82t-94.5 245h310
q2 -50 24 -72q38 -39 147 -39q154 0 228 103q48 66 81 222l15 70q-56 -70 -111 -105q-99 -65 -235 -65q-210 0 -304 147.5t-40 399.5q51 243 207.5 408.5t378.5 165.5q82 0 137 -25z" />
    <glyph glyph-name="h" unicode="h" 
d="M1260 976q32 -61 28.5 -125.5t-34.5 -210.5l-136 -640h-291l140 663q19 88 1 142q-23 76 -132 76q-113 0 -187.5 -75.5t-104.5 -215.5l-125 -590h-284l312 1469h284l-111 -521q82 95 171.5 132.5t179.5 37.5q101 0 176 -35t113 -107z" />
    <glyph glyph-name="i" unicode="i" horiz-adv-x="569" 
d="M685 1220h-289l56 263h289zM368 1090h289l-231 -1090h-289z" />
    <glyph glyph-name="j" unicode="j" horiz-adv-x="569" 
d="M690 1220h-285l56 263h285zM-35 -209q24 -2 33 -2.5t17 -0.5q42 0 68 20.5t39 79.5l254 1197h285l-255 -1202q-35 -165 -117 -244t-272 -79q-13 0 -38 1t-62 2z" />
    <glyph glyph-name="k" unicode="k" horiz-adv-x="1139" 
d="M442 1469h280l-169 -794l442 410h353l-470 -417l255 -668h-344l-162 466l-145 -123l-72 -343h-280z" />
    <glyph glyph-name="l" unicode="l" horiz-adv-x="569" 
d="M424 0h-285l313 1474h285z" />
    <glyph glyph-name="m" unicode="m" horiz-adv-x="1821" 
d="M1830 988q33 -57 32 -140q-2 -55 -24 -161l-148 -687h-292l147 694q13 62 2 102q-22 76 -124 76q-118 0 -184 -98q-34 -52 -50 -125l-137 -649h-287l137 649q21 97 10 141q-19 79 -124 79q-122 0 -181 -79q-32 -45 -51 -134l-139 -656h-289l231 1088h277l-34 -159
q71 85 126 121q96 64 228 64q125 0 191 -55q51 -51 66 -131q76 96 169 141q97 45 205 45q72 0 136 -28t107 -98z" />
    <glyph glyph-name="n" unicode="n" 
d="M1277 734l-156 -734h-292l140 663q19 86 5 132q-24 84 -142 84q-145 0 -225 -123q-42 -65 -63 -166l-125 -590h-284l231 1088h275l-34 -159q73 84 130 121q102 66 237 66q169 0 257.5 -88.5t45.5 -293.5z" />
    <glyph glyph-name="o" unicode="o" 
d="M996 543q35 164 -13.5 252.5t-173.5 88.5t-211 -88.5t-121 -252.5t13.5 -253t173.5 -89t211 89t121 253zM614 -38q-281 0 -382.5 170.5t-50.5 410.5q50 236 225 409t456 173t382 -173t51 -409q-51 -240 -225.5 -410.5t-455.5 -170.5z" />
    <glyph glyph-name="p" unicode="p" 
d="M823 865q-155 0 -244 -147q-46 -78 -72 -198q-40 -190 44 -267q51 -45 133 -45q119 0 201 92t114 245q27 126 -10 223t-166 97zM1296 559q-61 -288 -222.5 -439t-365.5 -151q-130 0 -202 65q-40 36 -70 105l-121 -568h-282l323 1519h273l-34 -161q61 71 122 112
q110 73 241 73q191 0 293.5 -141t44.5 -414z" />
    <glyph glyph-name="q" unicode="q" 
d="M875 336q58 83 85 210q21 100 4 179q-31 142 -184 142q-108 0 -191 -83t-119 -252q-24 -113 -10 -185q27 -137 179 -137q147 0 236 126zM966 1051q41 -38 73 -125l35 162h275l-323 -1520h-282l120 567q-46 -66 -134.5 -117.5t-222.5 -51.5q-189 0 -290 151t-47 403
q58 272 226 435t364 163q136 0 206 -67z" />
    <glyph glyph-name="r" unicode="r" horiz-adv-x="797" 
d="M999 1114l-62 -292q-26 3 -47 4t-34 1q-172 0 -255 -112q-46 -63 -74 -194l-110 -521h-287l231 1090h272l-40 -190q89 109 146 149q95 67 223 67q8 0 13.5 -0.5t23.5 -1.5z" />
    <glyph glyph-name="s" unicode="s" horiz-adv-x="1139" 
d="M428 348q-7 -76 17 -108q40 -57 183 -57q84 0 139 25t66 75q10 48 -25 73t-279 86q-175 46 -236 115q-62 68 -34 196q32 151 173.5 259.5t356.5 108.5q204 0 315 -81.5t88 -281.5h-285q5 55 -13 87q-35 58 -148 58q-93 0 -138.5 -29t-53.5 -68q-11 -49 27 -71
q37 -23 280 -79q161 -40 229 -121q67 -82 41 -205q-35 -162 -177 -264.5t-394 -102.5q-257 0 -356.5 108.5t-64.5 276.5h289z" />
    <glyph glyph-name="t" unicode="t" horiz-adv-x="682" 
d="M207 877l43 203h152l65 304h282l-65 -304h177l-43 -203h-177l-123 -576q-14 -67 -0.5 -83.5t100.5 -16.5q13 0 27.5 0.5t29.5 1.5l-46 -213l-136 -5q-203 -7 -261 70q-37 49 -16 151l143 671h-152z" />
    <glyph glyph-name="u" unicode="u" 
d="M648 1090l-139 -657q-20 -93 -8 -140q21 -83 135 -83q146 0 225 118q42 64 64 169l126 593h289l-231 -1090h-277l32 154q-5 -5 -26 -30t-47 -44q-80 -60 -147.5 -82t-151.5 -22q-242 0 -289 174q-26 96 14 283l139 657h292z" />
    <glyph glyph-name="v" unicode="v" horiz-adv-x="1139" 
d="M1036 1090h306l-624 -1090h-301l-160 1090h320l56 -804z" />
    <glyph glyph-name="w" unicode="w" horiz-adv-x="1593" 
d="M878 1090h289l-1 -785l337 785h297l-547 -1090h-293l-3 794l-341 -794h-296l-75 1090h306l4 -782z" />
    <glyph glyph-name="x" unicode="x" horiz-adv-x="1139" 
d="M26 0l489 552l-242 536h349l115 -316l245 316h339l-471 -531l254 -557h-355l-119 327l-258 -327h-346z" />
    <glyph glyph-name="y" unicode="y" horiz-adv-x="1139" 
d="M132 -209l36 -2q41 -2 80 3t69 23q29 17 62 71t31 66l-158 1138h317l67 -804l396 804h303l-602 -1072q-174 -310 -252.5 -384.5t-267.5 -74.5q-38 0 -61 0.5t-68 3.5z" />
    <glyph glyph-name="z" unicode="z" horiz-adv-x="1024" 
d="M253 858l49 232h884l-50 -237l-685 -619h572l-49 -234h-941l47 222l694 636h-521z" />
    <glyph glyph-name="braceleft" unicode="{" horiz-adv-x="797" 
d="M255 225q27 126 -35 193q-37 41 -118 65l26 121q104 33 152 73q86 69 116 211l57 268q11 51 40 107q51 97 135 154q77 52 169 69q57 11 158 12l-34 -159q-87 -18 -123 -48q-56 -46 -80 -161l-50 -232q-23 -112 -67 -178q-75 -111 -239 -180q124 -55 155 -128t5 -202
l-54 -253q-23 -111 20 -160q24 -29 95 -51l-34 -159l-71 2q-142 4 -232 85.5t-57 237.5z" />
    <glyph glyph-name="bar" unicode="|" horiz-adv-x="573" 
d="M685 1488l-316 -1488h-263l316 1488h263z" />
    <glyph glyph-name="braceright" unicode="}" horiz-adv-x="797" 
d="M-42 -413l34 159q78 22 115 52q61 50 86 159l54 253q30 142 99.5 210.5t200.5 119.5q-117 64 -149 145.5t-5 212.5l50 232q23 111 -4 151t-110 58l34 159q100 -1 151 -12q86 -17 142 -69t65.5 -128t-2.5 -133l-57 -268q-30 -143 21 -210q31 -40 127 -74l-26 -121
q-90 -24 -142 -62q-93 -68 -121 -196l-66 -313q-33 -152 -155.5 -235.5t-271.5 -87.5z" />
    <glyph glyph-name="asciitilde" unicode="~" horiz-adv-x="1196" 
d="M268 651q61 58 118 81.5t112 23.5q24 0 62 -6q60 -10 109 -30l213 -90q38 -16 75 -22.5t58 -6.5q66 0 116 51.5t84 124.5h170q-67 -186 -178.5 -319t-253.5 -133q-28 0 -58 5q-58 9 -133 43l-192 79q-27 11 -67 20t-60 9q-57 0 -110.5 -43.5t-91.5 -132.5h-173
q43 119 92.5 205t107.5 141z" />
    <glyph glyph-name="nonbreakingspace" unicode="&#xa0;" horiz-adv-x="569" 
 />
    <glyph glyph-name="exclamdown" unicode="&#xa1;" horiz-adv-x="682" 
d="M456 -384h-313l79 374l226 687h150l-63 -687zM699 796h-298l61 289h298z" />
    <glyph glyph-name="cent" unicode="&#xa2;" horiz-adv-x="1139" 
d="M763 874q-100 0 -177 -102t-106 -239q-25 -117 -14.5 -183.5t31.5 -91.5l301 614q-17 2 -35 2zM804 1116q46 0 64 -2t47 -8l88 181h106l-102 -202q100 -37 153 -104q82 -102 64 -282h-292q2 60 -15 99q-9 26 -31 43l-310 -635q16 -3 27.5 -5t25.5 -2q68 0 134 47t102 149
h291q-56 -187 -199 -311.5t-405 -124.5q-30 0 -48.5 2t-47.5 5l-104 -211h-112l126 242q-116 48 -173 184.5t-12 346.5q57 269 231 428.5t392 159.5z" />
    <glyph glyph-name="sterling" unicode="&#xa3;" horiz-adv-x="1139" 
d="M103 175q80 39 175.5 125.5t112.5 169.5q10 44 6 100q-3 32 -12 86h-178l24 112h114q-27 90 -34.5 158.5t9.5 147.5q33 154 186 276t389 122q196 0 317 -108.5t75 -366.5h-271q11 99 -12 160q-35 85 -161 85q-93 0 -159 -57.5t-82 -132.5q-9 -45 -0.5 -94.5t44.5 -189.5
h287l-24 -112h-244q-4 -39 -7 -65t-9 -52q-20 -96 -96 -178q-48 -51 -183 -155q86 29 126 38q65 16 123 16q36 0 69 -6t70 -17l38 -13q25 -9 43 -11.5t31 -2.5q46 0 114 26q39 15 99 46l35 -223q-57 -33 -153.5 -64t-179.5 -31q-44 0 -89.5 11t-98.5 29l-53 19
q-34 12 -57 18q-38 8 -80 8q-45 0 -101 -18q-37 -13 -137 -55z" />
    <glyph glyph-name="currency" unicode="&#xa4;" horiz-adv-x="1139" 
d="M487 717q-21 -98 32.5 -166t151.5 -68t180.5 68t103.5 166t-32.5 166t-151.5 68t-180.5 -68t-103.5 -166zM396 952l-110 140l169 140l111 -140q130 71 250 71t220 -71l169 140l111 -140l-170 -140q46 -115 20.5 -235t-120.5 -235l110 -140l-170 -140l-110 140
q-130 -71 -250 -71t-220 71l-170 -140l-110 140l170 140q-47 115 -21.5 235t121.5 235z" />
    <glyph glyph-name="yen" unicode="&#xa5;" horiz-adv-x="1139" 
d="M1465 1431l-328 -471h143l-29 -136h-209l-154 -218h282l-28 -135h-320l-100 -471h-291l100 471h-318l28 135h280l-62 218h-213l29 136h147l-140 471h339l133 -623l386 623h325z" />
    <glyph glyph-name="brokenbar" unicode="&#xa6;" horiz-adv-x="573" 
d="M297 903l125 585h263l-125 -585h-263zM369 0h-263l124 587h263z" />
    <glyph glyph-name="section" unicode="&#xa7;" horiz-adv-x="1139" 
d="M388 949q-22 72 -4 160q32 149 161.5 257t333.5 108q244 0 312 -160q37 -86 18 -215h-258q6 60 -10 95q-28 62 -122 62q-63 0 -109 -30.5t-59 -89.5q-14 -68 48.5 -102t231.5 -120q293 -154 250 -357q-27 -127 -119 -210q-51 -46 -138 -87q46 -48 63 -90q30 -73 9 -172
q-41 -191 -194 -291.5t-317 -100.5q-178 0 -283.5 89t-79.5 295h270q-1 -74 18 -107q31 -56 129 -56q60 0 110.5 37t63.5 96q11 53 -25 93q-37 40 -224 146q-164 90 -219 148q-87 93 -59 226q27 125 116 207q53 49 138 89q-27 22 -52 80zM887 573q-21 21 -62 45l-267 152
q-57 -22 -88 -65q-20 -28 -26 -60q-11 -49 24 -87q20 -23 76 -56l253 -149q36 14 64 41q45 39 56 93q10 45 -30 86z" />
    <glyph glyph-name="dieresis" unicode="&#xa8;" horiz-adv-x="682" 
d="M674 1493h261l-51 -237h-261zM274 1493h261l-51 -237h-261z" />
    <glyph glyph-name="copyright" unicode="&#xa9;" horiz-adv-x="1509" 
d="M577 1164q-214 -180 -267 -427q-54 -256 87 -435q140 -179 392 -179q251 0 467 180q216 181 270 434q52 246 -86 427q-140 184 -391 184q-254 0 -472 -184zM1323 208q-259 -208 -560 -208q-311 0 -479 213t-102 524q69 323 344 537q259 200 550 200q305 0 475 -216
t105 -521q-67 -314 -333 -529zM844 300q-168 0 -265 120t-55 315q38 182 171 310t317 128q117 0 193 -48q123 -78 116 -273l-188 3q2 90 -46 121q-40 29 -95 29q-83 0 -150.5 -68.5t-96.5 -206.5q-29 -137 16 -199t127 -62q75 0 122.5 41t71.5 103h183
q-67 -174 -187.5 -243.5t-233.5 -69.5z" />
    <glyph glyph-name="ordfeminine" unicode="&#xaa;" horiz-adv-x="758" 
d="M729 1170q-20 -12 -36 -17.5t-49 -10.5l-48 -7q-75 -11 -108.5 -36t-41.5 -63q-9 -40 13.5 -60.5t64.5 -20.5q35 0 79 16q28 12 46 26q22 14 37 34t30 75zM683 1256q29 3 50 16.5t26 37.5q10 47 -33 64q-25 10 -72 10q-53 0 -84 -22.5t-51 -67.5h-180q31 91 84 142
q87 83 254 83q123 0 183 -24q111 -45 79 -195l-69 -322q-8 -39 -5.5 -65.5t25.5 -35.5l-8 -36h-200q-3 17 -4 34.5t4 41.5q-61 -45 -100 -64q-69 -33 -143 -33q-137 0 -174 85q-23 49 -8 116q22 108 117 166q62 38 178 52z" />
    <glyph glyph-name="guillemotleft" unicode="&#xab;" horiz-adv-x="1139" 
d="M319 682l405 294l-51 -238l-241 -175l167 -174l-50 -238l-280 293zM762 682l405 294l-51 -238l-241 -175l167 -174l-50 -238l-280 293z" />
    <glyph glyph-name="logicalnot" unicode="&#xac;" horiz-adv-x="1196" 
d="M1348 907l-155 -730h-263l99 467h-820l56 263h1083z" />
    <glyph glyph-name="softhyphen" unicode="&#xad;" horiz-adv-x="682" 
d="M197 706h574l-58 -270h-574z" />
    <glyph glyph-name="registered" unicode="&#xae;" horiz-adv-x="1509" 
d="M577 1164q-214 -180 -267 -427q-54 -256 87 -435q140 -179 392 -179q251 0 467 180q216 181 270 434q52 246 -86 427q-140 184 -391 184q-254 0 -472 -184zM1323 208q-259 -208 -560 -208q-311 0 -479 213t-102 524q69 323 344 537q259 200 550 200q305 0 475 -216
t105 -521q-67 -314 -333 -529zM1038 983q-40 17 -120 17h-52l-50 -237h83q75 0 123 30t63 97q14 67 -47 93zM509 327l174 817q76 0 227 -0.5t168 -1.5q96 -7 152 -42q97 -60 68 -195q-22 -103 -89.5 -149t-152.5 -55q73 -16 106 -47q59 -58 33 -183l-16 -73q-2 -12 -3.5 -24
t0.5 -24l2 -23h-204q-2 39 11 113t8 100q-7 43 -47 60q-22 10 -70 13l-47 3h-45l-61 -289h-214z" />
    <glyph glyph-name="macron" unicode="&#xaf;" horiz-adv-x="682" 
d="M241 1453h711l-32 -152h-711z" />
    <glyph glyph-name="degree" unicode="&#xb0;" horiz-adv-x="819" 
d="M727 1460q132 0 207 -95.5t47 -227.5t-143.5 -227.5t-247.5 -95.5t-207.5 95.5t-47.5 227.5t144 227.5t248 95.5zM497 1137q-14 -67 23 -114t104 -47t124 47t71 114t-23 114t-104 47t-124 -47t-71 -114z" />
    <glyph glyph-name="plusminus" unicode="&#xb1;" horiz-adv-x="1124" 
d="M1208 246l-52 -246h-1083l52 246h1083zM193 566l52 244h410l58 273h263l-58 -273h410l-52 -244h-410l-55 -256h-263l55 256h-410z" />
    <glyph glyph-name="twosuperior" unicode="&#xb2;" horiz-adv-x="682" 
d="M632 1315q-86 0 -126 -53q-25 -32 -44 -110h-181q37 156 135 232t244 76q135 0 211.5 -74t49.5 -204q-18 -83 -78.5 -150.5t-181.5 -136.5l-83 -45q-50 -28 -80 -48q-64 -40 -82 -65h410l-33 -157h-644q43 205 304 359q162 96 215 143.5t65 105.5q13 62 -15 94.5
t-86 32.5z" />
    <glyph glyph-name="threesuperior" unicode="&#xb3;" horiz-adv-x="682" 
d="M382 853q-10 -64 2 -94q21 -55 108 -55q37 0 75 18q71 34 89 117q17 82 -41 109q-35 17 -143 21l26 121q90 2 129 17q69 27 85 104q11 54 -18 82.5t-81 28.5q-60 0 -100.5 -39.5t-54.5 -102.5h-171q24 135 141 220q88 60 223 60q138 0 205.5 -65.5t44.5 -171.5
q-13 -65 -53 -107.5t-98 -68.5q53 -8 86.5 -55t13.5 -145q-29 -134 -137 -207.5t-237 -73.5q-153 0 -231 67.5t-46 219.5h183z" />
    <glyph glyph-name="acute" unicode="&#xb4;" horiz-adv-x="682" 
d="M954 1536l-368 -299h-206l256 299h318z" />
    <glyph glyph-name="mu" unicode="&#xb5;" horiz-adv-x="1180" 
d="M752 1090l-285 -728q-2 -7 -4.5 -15t-4.5 -16q-15 -68 28 -94.5t92 -26.5q72 0 143 41.5t118 98.5q32 39 63 105t89 211l169 424h284l-425 -1088h-263l67 182q-61 -72 -167.5 -144t-213.5 -72q-42 0 -72.5 12t-44.5 27l-189 -482h-289l616 1565h289z" />
    <glyph glyph-name="paragraph" unicode="&#xb6;" horiz-adv-x="1139" 
d="M871 -370h-202l355 1673h-196l-355 -1673h-202l184 865q-188 0 -272 129t-38 347q45 214 199 358.5t393 144.5h651l-37 -171h-125z" />
    <glyph glyph-name="periodcentered" unicode="&#xb7;" horiz-adv-x="569" 
d="M398 552q-69 0 -108.5 48.5t-24.5 117.5q15 68 74 117t127 49q69 0 109 -48.5t25 -117.5t-74 -117.5t-128 -48.5z" />
    <glyph glyph-name="cedilla" unicode="&#xb8;" horiz-adv-x="682" 
d="M444 -272q-20 -92 -106.5 -145.5t-204.5 -53.5q-51 0 -118 21q-30 10 -85 32l56 86q52 -17 72 -22q46 -12 76 -12q60 0 91.5 25.5t36.5 53.5q9 42 -16 59t-58 17q-19 0 -40 -4.5t-48 -12.5l-103 117l230 111h109l-116 -131q34 7 48.5 9.5t30.5 2.5q81 0 120.5 -39.5
t24.5 -113.5z" />
    <glyph glyph-name="onesuperior" unicode="&#xb9;" horiz-adv-x="682" 
d="M330 1180l25 116q111 5 144 14t58 26q34 21 57.5 50.5t31.5 63.5h164l-185 -870h-199l127 600h-223z" />
    <glyph glyph-name="ordmasculine" unicode="&#xba;" horiz-adv-x="748" 
d="M581 965q85 0 137 56t72 149t-8.5 149t-113.5 56t-139.5 -56t-74.5 -149t11 -149t116 -56zM986 1170q-33 -158 -149.5 -254t-286.5 -96t-245.5 96t-42 254t150 254t286.5 96t245.5 -96t41.5 -254z" />
    <glyph glyph-name="guillemotright" unicode="&#xbb;" horiz-adv-x="1139" 
d="M879 444l-404 -293l50 238l241 174l-167 175l51 238l279 -294zM436 444l-404 -293l50 238l241 174l-167 175l51 238l279 -294z" />
    <glyph glyph-name="onequarter" unicode="&#xbc;" horiz-adv-x="1708" 
d="M1669 187h-97l-39 -187h-189l39 187h-375l32 149l460 526h216l-115 -542h97zM1412 320l79 372l-317 -372h238zM1551 1445h161l-1191 -1483h-161zM340 1180l25 116q114 6 170 26q101 36 121 128h164l-185 -870h-200l127 600h-222z" />
    <glyph glyph-name="onehalf" unicode="&#xbd;" horiz-adv-x="1708" 
d="M1461 1445h161l-1191 -1483h-161zM297 1180l25 116q112 5 149 16t63 29q37 24 56 57t23 52h164l-185 -870h-199l127 600h-223zM1458 734q-86 0 -127 -56q-24 -31 -42 -107h-180q30 144 137 231q100 77 241 77q145 0 216 -78.5t45 -198.5q-18 -88 -83.5 -157t-173.5 -128
l-86 -47q-27 -15 -43.5 -25t-43.5 -27q-21 -14 -42 -30.5t-32 -31.5h410l-33 -156h-645q47 209 306 360q177 107 221 148.5t57 98.5q11 56 -14 91.5t-88 35.5z" />
    <glyph glyph-name="threequarters" unicode="&#xbe;" horiz-adv-x="1708" 
d="M441 853q-10 -58 3 -90q20 -59 107 -59q40 0 78 19q69 34 87 118q17 80 -43 108q-35 16 -141 20l26 121q91 2 130 18q68 27 85 107q8 40 -16 73.5t-85 33.5q-76 0 -117 -54q-23 -31 -38 -88h-170q26 146 152 228q86 52 211 52q140 0 206.5 -66t44.5 -167
q-14 -66 -51 -108.5t-101 -71.5q31 2 76 -51.5t24 -152.5q-27 -125 -133.5 -201t-240.5 -76q-207 0 -264 111q-30 61 -12 176h182zM1717 187h-97l-39 -187h-190l39 187h-375l32 149l461 526h216l-115 -542h97zM1459 320l79 372l-316 -372h237zM1617 1445h162l-1186 -1483
h-162z" />
    <glyph glyph-name="questiondown" unicode="&#xbf;" 
d="M927 796h-299l61 289h299zM549 -404q-229 0 -354.5 109t-81.5 318q28 130 111 220q51 55 176 138l83 55q68 45 99 105q21 38 38 117h270q-41 -166 -81.5 -231.5t-165.5 -149.5l-85 -57q-72 -49 -106 -104q-21 -34 -31 -79q-19 -91 23 -145t134 -54q136 0 215 110
q42 59 56 127h289q-71 -280 -242 -379.5t-347 -99.5z" />
    <glyph glyph-name="Agrave" unicode="&#xc0;" horiz-adv-x="1479" 
d="M677 557h374l-61 580zM891 1474h348l209 -1474h-334l-31 303h-543l-166 -303h-322zM1256 1592h-206l-239 299h317z" />
    <glyph glyph-name="Aacute" unicode="&#xc1;" horiz-adv-x="1479" 
d="M677 557h374l-61 580zM891 1474h348l209 -1474h-334l-31 303h-543l-166 -303h-322zM1492 1891l-368 -299h-206l256 299h318z" />
    <glyph glyph-name="Acircumflex" unicode="&#xc2;" horiz-adv-x="1479" 
d="M677 557h374l-61 580zM891 1474h348l209 -1474h-334l-31 303h-543l-166 -303h-322zM1449 1592h-232l-94 168l-167 -168h-232l299 299h256z" />
    <glyph glyph-name="Atilde" unicode="&#xc3;" horiz-adv-x="1479" 
d="M677 557h374l-61 580zM891 1474h348l209 -1474h-334l-31 303h-543l-166 -303h-322zM1108 1838l86 -35q39 -14 51.5 -18t28.5 -4q48 0 72.5 25.5t41.5 60.5h133q-40 -105 -109 -176t-172 -71q-31 0 -84 15q-32 8 -60 18l-75 27q-16 6 -31.5 8.5t-31.5 2.5q-38 0 -66 -22
q-29 -23 -48 -63h-130q44 103 91 156q84 95 210 95q27 0 51.5 -6t41.5 -13z" />
    <glyph glyph-name="Adieresis" unicode="&#xc4;" horiz-adv-x="1479" 
d="M677 557h374l-61 580zM891 1474h348l209 -1474h-334l-31 303h-543l-166 -303h-322zM1211 1848h261l-51 -237h-261zM811 1848h261l-51 -237h-261z" />
    <glyph glyph-name="Aring" unicode="&#xc5;" horiz-adv-x="1479" 
d="M677 557h374l-61 580zM891 1474h348l209 -1474h-334l-31 303h-543l-166 -303h-322zM1107 1630q49 0 91 34.5t52 83.5q11 49 -16 84t-76 35t-91.5 -35t-53.5 -84q-10 -49 17.5 -83.5t76.5 -34.5zM1179 1966q90 0 140 -64t31 -154t-96.5 -154t-167.5 -64t-140.5 64
t-31.5 154t97 154t168 64z" />
    <glyph glyph-name="AE" unicode="&#xc6;" horiz-adv-x="2048" 
d="M1144 1218h-133l-368 -664h360zM866 1469h1394l-55 -256h-759l-67 -317h683l-54 -252h-683l-81 -384h773l-55 -260h-1076l66 312h-441l-173 -312h-320z" />
    <glyph glyph-name="Ccedilla" unicode="&#xc7;" horiz-adv-x="1479" 
d="M579 1320q219 182 497 182q372 0 492 -244q66 -137 43 -275h-308q-7 106 -43 160q-63 96 -228 96q-168 0 -294 -135.5t-178 -383.5q-53 -248 23 -371.5t234 -123.5q162 0 270 106q59 57 114 171h305q-91 -241 -287.5 -392t-425.5 -151l-80 -90q34 7 48.5 9.5t30.5 2.5
q81 0 120.5 -39.5t24.5 -113.5q-20 -92 -106.5 -145.5t-204.5 -53.5q-51 0 -118 21q-31 10 -86 32l56 86q53 -17 73 -22q46 -12 76 -12q60 0 91.5 25.5t36.5 53.5q9 42 -16 59t-58 17q-19 0 -40 -4.5t-48 -12.5l-34 40l125 147q-237 0 -376 204q-138 205 -62 562
q82 386 333 595z" />
    <glyph glyph-name="Egrave" unicode="&#xc8;" horiz-adv-x="1366" 
d="M1503 1213h-780l-66 -313h716l-55 -256h-716l-80 -379h816l-56 -265h-1117l313 1474h1081zM1219 1592h-206l-239 299h317z" />
    <glyph glyph-name="Eacute" unicode="&#xc9;" horiz-adv-x="1366" 
d="M1503 1213h-780l-66 -313h716l-55 -256h-716l-80 -379h816l-56 -265h-1117l313 1474h1081zM1455 1891l-368 -299h-206l256 299h318z" />
    <glyph glyph-name="Ecircumflex" unicode="&#xca;" horiz-adv-x="1366" 
d="M1503 1213h-780l-66 -313h716l-55 -256h-716l-80 -379h816l-56 -265h-1117l313 1474h1081zM1412 1592h-232l-94 168l-167 -168h-232l299 299h256z" />
    <glyph glyph-name="Edieresis" unicode="&#xcb;" horiz-adv-x="1366" 
d="M1503 1213h-780l-66 -313h716l-55 -256h-716l-80 -379h816l-56 -265h-1117l313 1474h1081zM1174 1848h261l-51 -237h-261zM774 1848h261l-51 -237h-261z" />
    <glyph glyph-name="Igrave" unicode="&#xcc;" horiz-adv-x="569" 
d="M438 0h-306l313 1474h306zM802 1621h-206l-239 299h317z" />
    <glyph glyph-name="Iacute" unicode="&#xcd;" horiz-adv-x="569" 
d="M438 0h-306l313 1474h306zM1035 1920l-368 -299h-206l256 299h318z" />
    <glyph glyph-name="Icircumflex" unicode="&#xce;" horiz-adv-x="569" 
d="M438 0h-306l313 1474h306zM994 1621h-232l-94 168l-167 -168h-232l299 299h256z" />
    <glyph glyph-name="Idieresis" unicode="&#xcf;" horiz-adv-x="569" 
d="M438 0h-306l313 1474h306zM755 1877h261l-51 -237h-261zM355 1877h261l-51 -237h-261z" />
    <glyph glyph-name="Eth" unicode="&#xd0;" horiz-adv-x="1479" 
d="M722 256q125 0 182 16q95 25 171 109q71 77 114 182.5t60 187.5q65 304 -63 409q-72 58 -246 58h-227l-64 -304h310l-55 -256h-310l-85 -402h213zM1370 312q-225 -312 -600 -312h-614l139 658h-138l55 256h138l118 558h616q171 0 280.5 -51.5t172.5 -173.5
q47 -93 53.5 -212t-23.5 -263q-57 -266 -197 -460z" />
    <glyph glyph-name="Ntilde" unicode="&#xd1;" horiz-adv-x="1479" 
d="M464 1474h323l368 -1029l219 1029h287l-313 -1474h-308l-380 1047l-222 -1047h-287zM1120 1841l86 -35q39 -14 51.5 -18t28.5 -4q48 0 72.5 25.5t41.5 60.5h133q-40 -105 -109 -176t-172 -71q-31 0 -84 15q-32 8 -60 18l-75 27q-16 6 -31.5 8.5t-31.5 2.5q-38 0 -66 -22
q-29 -23 -48 -63h-130q44 103 91 156q84 95 210 95q27 0 51.5 -6t41.5 -13z" />
    <glyph glyph-name="Ograve" unicode="&#xd2;" horiz-adv-x="1593" 
d="M1363 739q52 248 -26.5 383.5t-261.5 135.5t-320.5 -135t-190.5 -384t27 -384t263 -135t319.5 135t189.5 384zM1318 131q-203 -172 -519 -172t-447 172q-179 211 -94 608q86 405 353 608q203 172 519 172t447 -172q180 -203 94 -608q-85 -397 -353 -608zM1324 1637h-206
l-239 299h317z" />
    <glyph glyph-name="Oacute" unicode="&#xd3;" horiz-adv-x="1593" 
d="M1363 739q52 248 -26.5 383.5t-261.5 135.5t-320.5 -135t-190.5 -384t27 -384t263 -135t319.5 135t189.5 384zM1318 131q-203 -172 -519 -172t-447 172q-179 211 -94 608q86 405 353 608q203 172 519 172t447 -172q180 -203 94 -608q-85 -397 -353 -608zM1560 1936
l-368 -299h-206l256 299h318z" />
    <glyph glyph-name="Ocircumflex" unicode="&#xd4;" horiz-adv-x="1593" 
d="M1363 739q52 248 -26.5 383.5t-261.5 135.5t-320.5 -135t-190.5 -384t27 -384t263 -135t319.5 135t189.5 384zM1318 131q-203 -172 -519 -172t-447 172q-179 211 -94 608q86 405 353 608q203 172 519 172t447 -172q180 -203 94 -608q-85 -397 -353 -608zM1517 1637h-232
l-94 168l-167 -168h-232l299 299h256z" />
    <glyph glyph-name="Otilde" unicode="&#xd5;" horiz-adv-x="1593" 
d="M1363 739q52 248 -26.5 383.5t-261.5 135.5t-320.5 -135t-190.5 -384t27 -384t263 -135t319.5 135t189.5 384zM1318 131q-203 -172 -519 -172t-447 172q-179 211 -94 608q86 405 353 608q203 172 519 172t447 -172q180 -203 94 -608q-85 -397 -353 -608zM1176 1883
l86 -35q39 -14 51.5 -18t28.5 -4q48 0 72.5 25.5t41.5 60.5h133q-40 -105 -109 -176t-172 -71q-31 0 -84 15q-32 8 -60 18l-75 27q-16 6 -31.5 8.5t-31.5 2.5q-38 0 -66 -22q-29 -23 -48 -63h-130q44 103 91 156q84 95 210 95q27 0 51.5 -6t41.5 -13z" />
    <glyph glyph-name="Odieresis" unicode="&#xd6;" horiz-adv-x="1593" 
d="M1363 739q52 248 -26.5 383.5t-261.5 135.5t-320.5 -135t-190.5 -384t27 -384t263 -135t319.5 135t189.5 384zM1318 131q-203 -172 -519 -172t-447 172q-179 211 -94 608q86 405 353 608q203 172 519 172t447 -172q180 -203 94 -608q-85 -397 -353 -608zM1279 1893h261
l-51 -237h-261zM879 1893h261l-51 -237h-261z" />
    <glyph glyph-name="multiply" unicode="&#xd7;" horiz-adv-x="1196" 
d="M1187 1071l145 -185l-419 -344l273 -343l-224 -188l-274 346l-416 -346l-145 188l417 343l-271 344l224 185l270 -344z" />
    <glyph glyph-name="Oslash" unicode="&#xd8;" horiz-adv-x="1593" 
d="M1242 1218q-63 40 -170 40q-214 0 -337 -141.5t-173 -377.5q-21 -98 -21 -180q0 -48 11 -119l781 697q-29 47 -91 81zM851 220q214 0 342 161t170 358q14 66 19 128q7 95 -7 164l-775 -690q45 -66 110 -93.5t141 -27.5zM1570 1348l202 178l68 -81l-208 -187
q41 -69 61 -192q18 -128 -24 -327q-74 -346 -318 -565q-239 -215 -555 -215q-122 0 -235.5 37.5t-202.5 131.5l-215 -185l-68 80l223 190q-42 78 -60 197q-22 142 18 329q73 346 344 594q227 186 527 186q131 0 247.5 -44t195.5 -127z" />
    <glyph glyph-name="Ugrave" unicode="&#xd9;" horiz-adv-x="1479" 
d="M469 1474h313l-193 -906q-32 -152 -11 -222q30 -124 218 -124q187 0 269 124q51 70 83 222l193 906h313l-193 -906q-50 -235 -151 -366q-187 -240 -570 -240t-469 240q-45 131 5 366zM1255 1592h-206l-239 299h317z" />
    <glyph glyph-name="Uacute" unicode="&#xda;" horiz-adv-x="1479" 
d="M469 1474h313l-193 -906q-32 -152 -11 -222q30 -124 218 -124q187 0 269 124q51 70 83 222l193 906h313l-193 -906q-50 -235 -151 -366q-187 -240 -570 -240t-469 240q-45 131 5 366zM1491 1891l-368 -299h-206l256 299h318z" />
    <glyph glyph-name="Ucircumflex" unicode="&#xdb;" horiz-adv-x="1479" 
d="M469 1474h313l-193 -906q-32 -152 -11 -222q30 -124 218 -124q187 0 269 124q51 70 83 222l193 906h313l-193 -906q-50 -235 -151 -366q-187 -240 -570 -240t-469 240q-45 131 5 366zM1448 1592h-232l-94 168l-167 -168h-232l299 299h256z" />
    <glyph glyph-name="Udieresis" unicode="&#xdc;" horiz-adv-x="1479" 
d="M469 1474h313l-193 -906q-32 -152 -11 -222q30 -124 218 -124q187 0 269 124q51 70 83 222l193 906h313l-193 -906q-50 -235 -151 -366q-187 -240 -570 -240t-469 240q-45 131 5 366zM1210 1848h261l-51 -237h-261zM810 1848h261l-51 -237h-261z" />
    <glyph glyph-name="Yacute" unicode="&#xdd;" horiz-adv-x="1366" 
d="M1310 1474h349l-689 -920l-117 -554h-308l117 554l-314 920h363l169 -642zM1433 1891l-368 -299h-206l256 299h318z" />
    <glyph glyph-name="Thorn" unicode="&#xde;" horiz-adv-x="1366" 
d="M440 1472h299l-47 -221h302q256 0 362.5 -114t65.5 -307q-62 -292 -311 -399q-133 -57 -334 -57h-271l-79 -374h-299zM1067 988q-49 24 -173 24h-252l-86 -401h236q124 0 189 26q116 47 145 183q27 126 -59 168z" />
    <glyph glyph-name="germandbls" unicode="&#xdf;" 
d="M356 1035q40 188 121 286q146 177 456 177q216 0 326 -104t72 -282q-14 -67 -44 -118q-56 -95 -166 -153q114 -53 149 -147.5t7 -223.5q-39 -184 -185.5 -340.5t-426.5 -156.5q-14 0 -43 2.5t-62 9.5l49 228q21 -2 36 -2.5t27 -0.5q158 0 241 92q52 60 74 160
q31 148 -60 204q-54 33 -198 45l42 199q107 1 156 23q80 38 104 152q21 96 -26.5 139.5t-127.5 43.5q-126 0 -183 -85q-35 -50 -63 -181l-212 -1002h-282z" />
    <glyph glyph-name="agrave" unicode="&#xe0;" horiz-adv-x="1139" 
d="M846 530q-30 -17 -60 -27.5t-80 -19.5l-66 -12q-94 -16 -138 -39q-74 -39 -91 -121q-16 -73 17.5 -105.5t91.5 -32.5q92 0 181 54t123 197zM701 663q82 10 119 25q66 26 78 81q14 67 -27 92.5t-131 25.5q-101 0 -154 -50q-37 -37 -61 -100h-275q40 143 130 235
q144 144 419 144q179 0 303 -71t82 -268l-107 -500q-11 -52 -24 -126q-9 -56 0.5 -76t34.5 -33l-8 -42h-310q-6 33 -5 62t6 66q-73 -64 -159 -109q-104 -53 -220 -53q-148 0 -226.5 84.5t-45.5 239.5q43 201 217 291q95 49 265 70zM1007 1237h-206l-239 299h317z" />
    <glyph glyph-name="aacute" unicode="&#xe1;" horiz-adv-x="1139" 
d="M846 530q-30 -17 -60 -27.5t-80 -19.5l-66 -12q-94 -16 -138 -39q-74 -39 -91 -121q-16 -73 17.5 -105.5t91.5 -32.5q92 0 181 54t123 197zM701 663q82 10 119 25q66 26 78 81q14 67 -27 92.5t-131 25.5q-101 0 -154 -50q-37 -37 -61 -100h-275q40 143 130 235
q144 144 419 144q179 0 303 -71t82 -268l-107 -500q-11 -52 -24 -126q-9 -56 0.5 -76t34.5 -33l-8 -42h-310q-6 33 -5 62t6 66q-73 -64 -159 -109q-104 -53 -220 -53q-148 0 -226.5 84.5t-45.5 239.5q43 201 217 291q95 49 265 70zM1243 1536l-368 -299h-206l256 299h318z
" />
    <glyph glyph-name="acircumflex" unicode="&#xe2;" horiz-adv-x="1139" 
d="M846 530q-30 -17 -60 -27.5t-80 -19.5l-66 -12q-94 -16 -138 -39q-74 -39 -91 -121q-16 -73 17.5 -105.5t91.5 -32.5q92 0 181 54t123 197zM701 663q82 10 119 25q66 26 78 81q14 67 -27 92.5t-131 25.5q-101 0 -154 -50q-37 -37 -61 -100h-275q40 143 130 235
q144 144 419 144q179 0 303 -71t82 -268l-107 -500q-11 -52 -24 -126q-9 -56 0.5 -76t34.5 -33l-8 -42h-310q-6 33 -5 62t6 66q-73 -64 -159 -109q-104 -53 -220 -53q-148 0 -226.5 84.5t-45.5 239.5q43 201 217 291q95 49 265 70zM1200 1237h-232l-94 168l-167 -168h-232
l299 299h256z" />
    <glyph glyph-name="atilde" unicode="&#xe3;" horiz-adv-x="1139" 
d="M846 530q-30 -17 -60 -27.5t-80 -19.5l-66 -12q-94 -16 -138 -39q-74 -39 -91 -121q-16 -73 17.5 -105.5t91.5 -32.5q92 0 181 54t123 197zM701 663q82 10 119 25q66 26 78 81q14 67 -27 92.5t-131 25.5q-101 0 -154 -50q-37 -37 -61 -100h-275q40 143 130 235
q144 144 419 144q179 0 303 -71t82 -268l-107 -500q-11 -52 -24 -126q-9 -56 0.5 -76t34.5 -33l-8 -42h-310q-6 33 -5 62t6 66q-73 -64 -159 -109q-104 -53 -220 -53q-148 0 -226.5 84.5t-45.5 239.5q43 201 217 291q95 49 265 70zM859 1483l86 -35q39 -14 51.5 -18t28.5 -4
q48 0 72.5 25.5t41.5 60.5h133q-40 -105 -109 -176t-172 -71q-31 0 -84 15q-32 8 -60 18l-75 27q-16 6 -31.5 8.5t-31.5 2.5q-38 0 -66 -22q-29 -23 -48 -63h-130q44 103 91 156q84 95 210 95q27 0 51.5 -6t41.5 -13z" />
    <glyph glyph-name="adieresis" unicode="&#xe4;" horiz-adv-x="1139" 
d="M846 530q-30 -17 -60 -27.5t-80 -19.5l-66 -12q-94 -16 -138 -39q-74 -39 -91 -121q-16 -73 17.5 -105.5t91.5 -32.5q92 0 181 54t123 197zM701 663q82 10 119 25q66 26 78 81q14 67 -27 92.5t-131 25.5q-101 0 -154 -50q-37 -37 -61 -100h-275q40 143 130 235
q144 144 419 144q179 0 303 -71t82 -268l-107 -500q-11 -52 -24 -126q-9 -56 0.5 -76t34.5 -33l-8 -42h-310q-6 33 -5 62t6 66q-73 -64 -159 -109q-104 -53 -220 -53q-148 0 -226.5 84.5t-45.5 239.5q43 201 217 291q95 49 265 70zM962 1493h261l-51 -237h-261zM562 1493
h261l-51 -237h-261z" />
    <glyph glyph-name="aring" unicode="&#xe5;" horiz-adv-x="1139" 
d="M846 530q-30 -17 -60 -27.5t-80 -19.5l-66 -12q-94 -16 -138 -39q-74 -39 -91 -121q-16 -73 17.5 -105.5t91.5 -32.5q92 0 181 54t123 197zM701 663q82 10 119 25q66 26 78 81q14 67 -27 92.5t-131 25.5q-101 0 -154 -50q-37 -37 -61 -100h-275q40 143 130 235
q144 144 419 144q179 0 303 -71t82 -268l-107 -500q-11 -52 -24 -126q-9 -56 0.5 -76t34.5 -33l-8 -42h-310q-6 33 -5 62t6 66q-73 -64 -159 -109q-104 -53 -220 -53q-148 0 -226.5 84.5t-45.5 239.5q43 201 217 291q95 49 265 70zM857 1325q49 0 91 34.5t52 83.5
q11 49 -16 84t-76 35t-91.5 -35t-53.5 -84q-10 -49 17.5 -83.5t76.5 -34.5zM929 1661q90 0 140 -64t31 -154t-96.5 -154t-167.5 -64t-140.5 64t-31.5 154t97 154t168 64z" />
    <glyph glyph-name="ae" unicode="&#xe6;" horiz-adv-x="1821" 
d="M1594 658q16 105 -24 167.5t-147 62.5q-108 0 -176 -56.5t-99 -173.5h446zM854 521q-24 -15 -42.5 -21.5t-79.5 -18.5l-114 -22q-98 -19 -135 -41q-61 -36 -79 -119q-10 -47 16.5 -88t110.5 -41q87 0 151 32q117 58 149 210zM739 661q70 10 105 27q53 26 64 78
q17 79 -57 108q-40 15 -112 15q-110 0 -166 -62q-30 -33 -45 -93h-278q58 225 254 318q130 62 311 62q129 0 219 -44q50 -24 99 -73q72 52 158 84.5t190 32.5q332 0 391 -273q31 -145 -21 -367h-746q-24 -113 -10 -173q27 -110 169 -110q80 0 145 27.5t110 108.5h289
q-33 -100 -142 -200q-177 -163 -440 -163q-135 0 -220.5 51t-121.5 131q-95 -95 -207.5 -139t-246.5 -44q-202 0 -271.5 98t-40.5 234q40 185 195 270q85 46 245 70z" />
    <glyph glyph-name="ccedilla" unicode="&#xe7;" horiz-adv-x="1139" 
d="M932 699q5 61 -18 110q-34 66 -135 66q-144 0 -227 -143q-44 -76 -71 -202q-25 -120 -13 -193q22 -136 163 -136q100 0 153.5 54t80.5 140h291q-37 -130 -146 -246q-174 -187 -406 -187l-82 -93q34 7 48.5 9.5t30.5 2.5q81 0 120.5 -39.5t24.5 -113.5
q-20 -92 -106.5 -145.5t-204.5 -53.5q-51 0 -118 21q-31 10 -86 32l56 86q53 -17 73 -22q46 -12 76 -12q60 0 91.5 25.5t36.5 53.5q9 42 -16 59t-58 17q-19 0 -40 -4.5t-48 -12.5l-34 40l130 150q-188 0 -278.5 156t-37.5 405q59 281 229.5 437t411.5 156q205 0 316 -92
t85 -325h-292z" />
    <glyph glyph-name="egrave" unicode="&#xe8;" horiz-adv-x="1139" 
d="M480 654h443q17 113 -32.5 171.5t-140.5 58.5q-99 0 -166.5 -62t-103.5 -168zM1180 907q44 -97 35 -225q-4 -75 -36 -216h-746q-29 -164 54 -230q50 -41 133 -41q88 0 154 50q35 27 69 75h291q-32 -97 -143 -197q-174 -159 -426 -159q-208 0 -338.5 134t-66.5 436
q60 283 235.5 434t404.5 151q136 0 234.5 -51t145.5 -161zM1014 1237h-206l-239 299h317z" />
    <glyph glyph-name="eacute" unicode="&#xe9;" horiz-adv-x="1139" 
d="M480 654h443q17 113 -32.5 171.5t-140.5 58.5q-99 0 -166.5 -62t-103.5 -168zM1180 907q44 -97 35 -225q-4 -75 -36 -216h-746q-29 -164 54 -230q50 -41 133 -41q88 0 154 50q35 27 69 75h291q-32 -97 -143 -197q-174 -159 -426 -159q-208 0 -338.5 134t-66.5 436
q60 283 235.5 434t404.5 151q136 0 234.5 -51t145.5 -161zM1250 1536l-368 -299h-206l256 299h318z" />
    <glyph glyph-name="ecircumflex" unicode="&#xea;" horiz-adv-x="1139" 
d="M480 654h443q17 113 -32.5 171.5t-140.5 58.5q-99 0 -166.5 -62t-103.5 -168zM1180 907q44 -97 35 -225q-4 -75 -36 -216h-746q-29 -164 54 -230q50 -41 133 -41q88 0 154 50q35 27 69 75h291q-32 -97 -143 -197q-174 -159 -426 -159q-208 0 -338.5 134t-66.5 436
q60 283 235.5 434t404.5 151q136 0 234.5 -51t145.5 -161zM1207 1237h-232l-94 168l-167 -168h-232l299 299h256z" />
    <glyph glyph-name="edieresis" unicode="&#xeb;" horiz-adv-x="1139" 
d="M480 654h443q17 113 -32.5 171.5t-140.5 58.5q-99 0 -166.5 -62t-103.5 -168zM1180 907q44 -97 35 -225q-4 -75 -36 -216h-746q-29 -164 54 -230q50 -41 133 -41q88 0 154 50q35 27 69 75h291q-32 -97 -143 -197q-174 -159 -426 -159q-208 0 -338.5 134t-66.5 436
q60 283 235.5 434t404.5 151q136 0 234.5 -51t145.5 -161zM969 1493h261l-51 -237h-261zM569 1493h261l-51 -237h-261z" />
    <glyph glyph-name="igrave" unicode="&#xec;" horiz-adv-x="569" 
d="M368 1090h289l-231 -1090h-289zM721 1237h-206l-239 299h317z" />
    <glyph glyph-name="iacute" unicode="&#xed;" horiz-adv-x="569" 
d="M368 1090h289l-231 -1090h-289zM954 1536l-368 -299h-206l256 299h318z" />
    <glyph glyph-name="icircumflex" unicode="&#xee;" horiz-adv-x="569" 
d="M368 1090h289l-231 -1090h-289zM913 1237h-232l-94 168l-167 -168h-232l299 299h256z" />
    <glyph glyph-name="idieresis" unicode="&#xef;" horiz-adv-x="569" 
d="M368 1090h289l-231 -1090h-289zM674 1493h261l-51 -237h-261zM274 1493h261l-51 -237h-261z" />
    <glyph glyph-name="eth" unicode="&#xf0;" 
d="M916 988q-60 84 -84 113.5t-68 76.5l-242 -100l-80 103l247 99q-47 39 -59.5 53t-45.5 46l257 104q28 -22 48 -39.5t58 -52.5l199 79l80 -103l-193 -73q87 -118 120 -169q51 -79 77 -148q53 -141 58.5 -250.5t-19.5 -225.5q-48 -225 -217 -377.5t-415 -152.5
q-255 0 -363 149t-59 379q47 222 210 365t354 143q38 0 63.5 -3t73.5 -16zM811 802q-111 0 -195 -76.5t-117 -232.5q-32 -152 22 -226t157 -74q117 0 198 83t113 233q24 115 -13 204t-165 89z" />
    <glyph glyph-name="ntilde" unicode="&#xf1;" 
d="M1277 734l-156 -734h-292l140 663q19 86 5 132q-24 84 -142 84q-145 0 -225 -123q-42 -65 -63 -166l-125 -590h-284l231 1088h275l-34 -159q73 84 130 121q102 66 237 66q169 0 257.5 -88.5t45.5 -293.5zM915 1483l86 -35q39 -14 51.5 -18t28.5 -4q48 0 72.5 25.5
t41.5 60.5h133q-40 -105 -109 -176t-172 -71q-31 0 -84 15q-32 8 -60 18l-75 27q-16 6 -31.5 8.5t-31.5 2.5q-38 0 -66 -22q-29 -23 -48 -63h-130q44 103 91 156q84 95 210 95q27 0 51.5 -6t41.5 -13z" />
    <glyph glyph-name="ograve" unicode="&#xf2;" 
d="M996 543q35 164 -13.5 252.5t-173.5 88.5t-211 -88.5t-121 -252.5t13.5 -253t173.5 -89t211 89t121 253zM614 -38q-281 0 -382.5 170.5t-50.5 410.5q50 236 225 409t456 173t382 -173t51 -409q-51 -240 -225.5 -410.5t-455.5 -170.5zM1054 1237h-206l-239 299h317z" />
    <glyph glyph-name="oacute" unicode="&#xf3;" 
d="M996 543q35 164 -13.5 252.5t-173.5 88.5t-211 -88.5t-121 -252.5t13.5 -253t173.5 -89t211 89t121 253zM614 -38q-281 0 -382.5 170.5t-50.5 410.5q50 236 225 409t456 173t382 -173t51 -409q-51 -240 -225.5 -410.5t-455.5 -170.5zM1290 1536l-368 -299h-206l256 299
h318z" />
    <glyph glyph-name="ocircumflex" unicode="&#xf4;" 
d="M996 543q35 164 -13.5 252.5t-173.5 88.5t-211 -88.5t-121 -252.5t13.5 -253t173.5 -89t211 89t121 253zM614 -38q-281 0 -382.5 170.5t-50.5 410.5q50 236 225 409t456 173t382 -173t51 -409q-51 -240 -225.5 -410.5t-455.5 -170.5zM1247 1237h-232l-94 168l-167 -168
h-232l299 299h256z" />
    <glyph glyph-name="otilde" unicode="&#xf5;" 
d="M996 543q35 164 -13.5 252.5t-173.5 88.5t-211 -88.5t-121 -252.5t13.5 -253t173.5 -89t211 89t121 253zM614 -38q-281 0 -382.5 170.5t-50.5 410.5q50 236 225 409t456 173t382 -173t51 -409q-51 -240 -225.5 -410.5t-455.5 -170.5zM906 1483l86 -35q39 -14 51.5 -18
t28.5 -4q48 0 72.5 25.5t41.5 60.5h133q-40 -105 -109 -176t-172 -71q-31 0 -84 15q-32 8 -60 18l-75 27q-16 6 -31.5 8.5t-31.5 2.5q-38 0 -66 -22q-29 -23 -48 -63h-130q44 103 91 156q84 95 210 95q27 0 51.5 -6t41.5 -13z" />
    <glyph glyph-name="odieresis" unicode="&#xf6;" 
d="M996 543q35 164 -13.5 252.5t-173.5 88.5t-211 -88.5t-121 -252.5t13.5 -253t173.5 -89t211 89t121 253zM614 -38q-281 0 -382.5 170.5t-50.5 410.5q50 236 225 409t456 173t382 -173t51 -409q-51 -240 -225.5 -410.5t-455.5 -170.5zM1009 1493h261l-51 -237h-261z
M609 1493h261l-51 -237h-261z" />
    <glyph glyph-name="divide" unicode="&#xf7;" horiz-adv-x="1124" 
d="M462 0l63 298h306l-63 -298h-306zM1299 673l-56 -261h-1083l56 261h1083zM998 1083l-63 -297h-306l63 297h306z" />
    <glyph glyph-name="oslash" unicode="&#xf8;" 
d="M887 872q-41 12 -82 12q-119 0 -206.5 -89.5t-120.5 -245.5q-10 -49 -13.5 -98t6.5 -84l508 441q-26 44 -92 64zM562 223q41 -24 111 -24q123 0 207 96t115 244q11 50 13 81.5t2 97.5l-506 -439q33 -41 58 -56zM602 -41q-132 0 -226 44q-53 25 -108 77l-166 -142l-60 62
l172 144q-49 93 -50.5 200.5t17.5 197.5q53 250 234.5 416.5t425.5 166.5q142 0 223.5 -30.5t142.5 -92.5l169 145l57 -67l-175 -149q48 -87 53.5 -185.5t-14.5 -193.5q-56 -264 -242.5 -428.5t-452.5 -164.5z" />
    <glyph glyph-name="ugrave" unicode="&#xf9;" 
d="M648 1090l-139 -657q-20 -93 -8 -140q21 -83 135 -83q146 0 225 118q42 64 64 169l126 593h289l-231 -1090h-277l32 154q-5 -5 -26 -30t-47 -44q-80 -60 -147.5 -82t-151.5 -22q-242 0 -289 174q-26 96 14 283l139 657h292zM1048 1237h-206l-239 299h317z" />
    <glyph glyph-name="uacute" unicode="&#xfa;" 
d="M648 1090l-139 -657q-20 -93 -8 -140q21 -83 135 -83q146 0 225 118q42 64 64 169l126 593h289l-231 -1090h-277l32 154q-5 -5 -26 -30t-47 -44q-80 -60 -147.5 -82t-151.5 -22q-242 0 -289 174q-26 96 14 283l139 657h292zM1284 1536l-368 -299h-206l256 299h318z" />
    <glyph glyph-name="ucircumflex" unicode="&#xfb;" 
d="M648 1090l-139 -657q-20 -93 -8 -140q21 -83 135 -83q146 0 225 118q42 64 64 169l126 593h289l-231 -1090h-277l32 154q-5 -5 -26 -30t-47 -44q-80 -60 -147.5 -82t-151.5 -22q-242 0 -289 174q-26 96 14 283l139 657h292zM1241 1237h-232l-94 168l-167 -168h-232
l299 299h256z" />
    <glyph glyph-name="udieresis" unicode="&#xfc;" 
d="M648 1090l-139 -657q-20 -93 -8 -140q21 -83 135 -83q146 0 225 118q42 64 64 169l126 593h289l-231 -1090h-277l32 154q-5 -5 -26 -30t-47 -44q-80 -60 -147.5 -82t-151.5 -22q-242 0 -289 174q-26 96 14 283l139 657h292zM1003 1493h261l-51 -237h-261zM603 1493h261
l-51 -237h-261z" />
    <glyph glyph-name="yacute" unicode="&#xfd;" horiz-adv-x="1139" 
d="M132 -209l36 -2q41 -2 80 3t69 23q29 17 62 71t31 66l-158 1138h317l67 -804l396 804h303l-602 -1072q-174 -310 -252.5 -384.5t-267.5 -74.5q-38 0 -61 0.5t-68 3.5zM1230 1536l-368 -299h-206l256 299h318z" />
    <glyph glyph-name="thorn" unicode="&#xfe;" 
d="M935 359q46 78 71 194q31 146 -16 230t-163 84q-97 0 -184 -77t-123 -247q-33 -156 9 -245t163 -89q154 0 243 150zM724 1472l-112 -529q70 89 156.5 132.5t188.5 43.5q210 0 305 -141.5t35 -425.5q-52 -245 -205.5 -413t-374.5 -168q-87 0 -141 23q-93 39 -134 150
l-121 -571h-284l403 1899h284z" />
    <glyph glyph-name="ydieresis" unicode="&#xff;" horiz-adv-x="1139" 
d="M132 -209l36 -2q41 -2 80 3t69 23q29 17 62 71t31 66l-158 1138h317l67 -804l396 804h303l-602 -1072q-174 -310 -252.5 -384.5t-267.5 -74.5q-38 0 -61 0.5t-68 3.5zM949 1493h261l-51 -237h-261zM549 1493h261l-51 -237h-261z" />
    <glyph glyph-name="Amacron" unicode="&#x100;" horiz-adv-x="1479" 
d="M677 557h374l-61 580zM891 1474h348l209 -1474h-334l-31 303h-543l-166 -303h-322zM777 1733h711l-32 -152h-711z" />
    <glyph glyph-name="amacron" unicode="&#x101;" horiz-adv-x="1139" 
d="M846 530q-30 -17 -60 -27.5t-80 -19.5l-66 -12q-94 -16 -138 -39q-74 -39 -91 -121q-16 -73 17.5 -105.5t91.5 -32.5q92 0 181 54t123 197zM701 663q82 10 119 25q66 26 78 81q14 67 -27 92.5t-131 25.5q-101 0 -154 -50q-37 -37 -61 -100h-275q40 143 130 235
q144 144 419 144q179 0 303 -71t82 -268l-107 -500q-11 -52 -24 -126q-9 -56 0.5 -76t34.5 -33l-8 -42h-310q-6 33 -5 62t6 66q-73 -64 -159 -109q-104 -53 -220 -53q-148 0 -226.5 84.5t-45.5 239.5q43 201 217 291q95 49 265 70zM565 1389h711l-32 -152h-711z" />
    <glyph glyph-name="Abreve" unicode="&#x102;" horiz-adv-x="1479" 
d="M677 557h374l-61 580zM891 1474h348l209 -1474h-334l-31 303h-543l-166 -303h-322zM1093 1580q-154 0 -228 72.5t-54 225.5h135q-6 -92 69 -125q42 -19 110 -19t118 19q89 33 123 125h135q-46 -153 -150 -225.5t-258 -72.5z" />
    <glyph glyph-name="abreve" unicode="&#x103;" horiz-adv-x="1139" 
d="M846 530q-30 -17 -60 -27.5t-80 -19.5l-66 -12q-94 -16 -138 -39q-74 -39 -91 -121q-16 -73 17.5 -105.5t91.5 -32.5q92 0 181 54t123 197zM701 663q82 10 119 25q66 26 78 81q14 67 -27 92.5t-131 25.5q-101 0 -154 -50q-37 -37 -61 -100h-275q40 143 130 235
q144 144 419 144q179 0 303 -71t82 -268l-107 -500q-11 -52 -24 -126q-9 -56 0.5 -76t34.5 -33l-8 -42h-310q-6 33 -5 62t6 66q-73 -64 -159 -109q-104 -53 -220 -53q-148 0 -226.5 84.5t-45.5 239.5q43 201 217 291q95 49 265 70zM859 1221q-154 0 -228 72.5t-54 225.5h135
q-6 -92 69 -125q42 -19 110 -19t118 19q89 33 123 125h135q-46 -153 -150 -225.5t-258 -72.5z" />
    <glyph glyph-name="Aogonek" unicode="&#x104;" horiz-adv-x="1479" 
d="M677 557h374l-61 580zM891 1474h348l209 -1474h-334l-31 303h-543l-166 -303h-322zM1434 0l-78 -48q-79 -50 -120 -86t-50 -80q-10 -46 17.5 -72.5t76.5 -26.5q22 0 47.5 6t58.5 17l-31 -144q-48 -17 -80 -24q-57 -13 -125 -13q-105 0 -159 58.5t-38 139.5q20 91 120 168
q59 45 181 105h180z" />
    <glyph glyph-name="aogonek" unicode="&#x105;" horiz-adv-x="1139" 
d="M846 530q-30 -17 -60 -27.5t-80 -19.5l-66 -12q-94 -16 -138 -39q-74 -39 -91 -121q-16 -73 17.5 -105.5t91.5 -32.5q92 0 181 54t123 197zM701 663q82 10 119 25q66 26 78 81q14 67 -27 92.5t-131 25.5q-101 0 -154 -50q-37 -37 -61 -100h-275q40 143 130 235
q144 144 419 144q179 0 303 -71t82 -268l-107 -500q-11 -52 -24 -126q-9 -56 0.5 -76t34.5 -33l-8 -42h-310q-6 33 -5 62t6 66q-73 -64 -159 -109q-104 -53 -220 -53q-148 0 -226.5 84.5t-45.5 239.5q43 201 217 291q95 49 265 70zM1067 7l-78 -48q-79 -50 -120 -86t-50 -80
q-10 -46 17.5 -72.5t76.5 -26.5q22 0 47.5 6t58.5 17l-31 -144q-48 -17 -80 -24q-57 -13 -125 -13q-105 0 -159 58.5t-38 139.5q20 91 120 168q59 45 181 105h180z" />
    <glyph glyph-name="Cacute" unicode="&#x106;" horiz-adv-x="1479" 
d="M579 1320q219 182 497 182q372 0 492 -244q66 -137 43 -275h-308q-7 106 -43 160q-63 96 -228 96q-168 0 -294 -135.5t-178 -383.5q-53 -248 23 -371.5t234 -123.5q162 0 270 106q59 57 114 171h305q-91 -241 -287.5 -392t-453.5 -151q-318 0 -457 204q-138 205 -62 562
q82 386 333 595zM1468 1900l-368 -299h-206l256 299h318z" />
    <glyph glyph-name="cacute" unicode="&#x107;" horiz-adv-x="1139" 
d="M932 699q5 61 -18 110q-34 66 -135 66q-144 0 -227 -143q-44 -76 -71 -202q-25 -120 -13 -193q22 -136 163 -136q100 0 153.5 54t80.5 140h291q-37 -130 -146 -246q-174 -187 -437 -187t-353.5 156t-37.5 405q59 281 229.5 437t411.5 156q205 0 316 -92t85 -325h-292z
M1237 1497l-368 -299h-206l256 299h318z" />
    <glyph glyph-name="Ccircumflex" unicode="&#x108;" horiz-adv-x="1479" 
d="M579 1320q219 182 497 182q372 0 492 -244q66 -137 43 -275h-308q-7 106 -43 160q-63 96 -228 96q-168 0 -294 -135.5t-178 -383.5q-53 -248 23 -371.5t234 -123.5q162 0 270 106q59 57 114 171h305q-91 -241 -287.5 -392t-453.5 -151q-318 0 -457 204q-138 205 -62 562
q82 386 333 595zM1479 1563h-232l-94 168l-167 -168h-232l299 299h256z" />
    <glyph glyph-name="ccircumflex" unicode="&#x109;" horiz-adv-x="1139" 
d="M932 699q5 61 -18 110q-34 66 -135 66q-144 0 -227 -143q-44 -76 -71 -202q-25 -120 -13 -193q22 -136 163 -136q100 0 153.5 54t80.5 140h291q-37 -130 -146 -246q-174 -187 -437 -187t-353.5 156t-37.5 405q59 281 229.5 437t411.5 156q205 0 316 -92t85 -325h-292z
M1231 1224h-232l-94 168l-167 -168h-232l299 299h256z" />
    <glyph glyph-name="Cdotaccent" unicode="&#x10a;" horiz-adv-x="1479" 
d="M579 1320q219 182 497 182q372 0 492 -244q66 -137 43 -275h-308q-7 106 -43 160q-63 96 -228 96q-168 0 -294 -135.5t-178 -383.5q-53 -248 23 -371.5t234 -123.5q162 0 270 106q59 57 114 171h305q-91 -241 -287.5 -392t-453.5 -151q-318 0 -457 204q-138 205 -62 562
q82 386 333 595zM1031 1865h260l-51 -237h-260z" />
    <glyph glyph-name="cdotaccent" unicode="&#x10b;" horiz-adv-x="1139" 
d="M932 699q5 61 -18 110q-34 66 -135 66q-144 0 -227 -143q-44 -76 -71 -202q-25 -120 -13 -193q22 -136 163 -136q100 0 153.5 54t80.5 140h291q-37 -130 -146 -246q-174 -187 -437 -187t-353.5 156t-37.5 405q59 281 229.5 437t411.5 156q205 0 316 -92t85 -325h-292z
M760 1468h260l-51 -237h-260z" />
    <glyph glyph-name="Ccaron" unicode="&#x10c;" horiz-adv-x="1479" 
d="M579 1320q219 182 497 182q372 0 492 -244q66 -137 43 -275h-308q-7 106 -43 160q-63 96 -228 96q-168 0 -294 -135.5t-178 -383.5q-53 -248 23 -371.5t234 -123.5q162 0 270 106q59 57 114 171h305q-91 -241 -287.5 -392t-453.5 -151q-318 0 -457 204q-138 205 -62 562
q82 386 333 595zM961 1583l-171 299h232l95 -169l166 169h232l-298 -299h-256z" />
    <glyph glyph-name="ccaron" unicode="&#x10d;" horiz-adv-x="1139" 
d="M932 699q5 61 -18 110q-34 66 -135 66q-144 0 -227 -143q-44 -76 -71 -202q-25 -120 -13 -193q22 -136 163 -136q100 0 153.5 54t80.5 140h291q-37 -130 -146 -246q-174 -187 -437 -187t-353.5 156t-37.5 405q59 281 229.5 437t411.5 156q205 0 316 -92t85 -325h-292z
M714 1216l-171 299h232l95 -169l166 169h232l-298 -299h-256z" />
    <glyph glyph-name="Dcaron" unicode="&#x10e;" horiz-adv-x="1479" 
d="M713 1218l-204 -962h284q218 0 350 215q72 118 106 281q48 225 3 345.5t-255 120.5h-284zM1325 1442q144 -51 211 -187q54 -110 54.5 -238t-23.5 -244q-63 -294 -224 -498q-218 -275 -552 -275h-635l313 1474h635q136 -2 221 -32zM846 1570l-171 299h232l95 -169l166 169
h232l-298 -299h-256z" />
    <glyph glyph-name="dcaron" unicode="&#x10f;" horiz-adv-x="1536" 
d="M1504 1310q91 24 143.5 80t80.5 157h-173l63 298h308l-55 -258q-14 -68 -48 -142t-94 -128q-66 -58 -143.5 -87.5t-104.5 -29.5zM1038 952l110 520h289l-312 -1472h-277l32 151q-82 -97 -169.5 -141t-203.5 -44q-191 0 -288.5 154.5t-46.5 396.5q60 279 222.5 439
t377.5 160q99 0 166.5 -43.5t99.5 -120.5zM956 529q42 200 -40 286q-51 52 -133 52q-125 0 -203.5 -94.5t-108.5 -234.5q-32 -151 8 -241.5t161 -90.5t203.5 90t112.5 233z" />
    <glyph glyph-name="Dcroat" unicode="&#x110;" horiz-adv-x="1479" 
d="M722 256q125 0 182 16q95 25 171 109q71 77 114 182.5t60 187.5q65 304 -63 409q-72 58 -246 58h-227l-64 -304h310l-55 -256h-310l-85 -402h213zM1370 312q-225 -312 -600 -312h-614l139 658h-138l55 256h138l118 558h616q171 0 280.5 -51.5t172.5 -173.5
q47 -93 53.5 -212t-23.5 -263q-57 -266 -197 -460z" />
    <glyph glyph-name="dcroat" unicode="&#x111;" 
d="M1038 952l54 253h-295l32 152h295l24 115h289l-24 -115h127l-32 -152h-127l-256 -1205h-277l32 151q-82 -97 -169.5 -141t-203.5 -44q-191 0 -288.5 154.5t-46.5 396.5q60 279 222.5 439t377.5 160q99 0 166.5 -43.5t99.5 -120.5zM956 529q42 200 -40 286q-51 52 -133 52
q-125 0 -203.5 -94.5t-108.5 -234.5q-32 -151 8 -241.5t161 -90.5t203.5 90t112.5 233z" />
    <glyph glyph-name="Emacron" unicode="&#x112;" horiz-adv-x="1366" 
d="M1503 1213h-780l-66 -313h716l-55 -256h-716l-80 -379h816l-56 -265h-1117l313 1474h1081zM743 1752h711l-32 -152h-711z" />
    <glyph glyph-name="emacron" unicode="&#x113;" horiz-adv-x="1139" 
d="M480 654h443q17 113 -32.5 171.5t-140.5 58.5q-99 0 -166.5 -62t-103.5 -168zM1180 907q44 -97 35 -225q-4 -75 -36 -216h-746q-29 -164 54 -230q50 -41 133 -41q88 0 154 50q35 27 69 75h291q-32 -97 -143 -197q-174 -159 -426 -159q-208 0 -338.5 134t-66.5 436
q60 283 235.5 434t404.5 151q136 0 234.5 -51t145.5 -161zM502 1384h711l-32 -152h-711z" />
    <glyph glyph-name="Ebreve" unicode="&#x114;" horiz-adv-x="1366" 
d="M1503 1213h-780l-66 -313h716l-55 -256h-716l-80 -379h816l-56 -265h-1117l313 1474h1081zM1042 1590q-154 0 -228 72.5t-54 225.5h135q-6 -92 69 -125q42 -19 110 -19t118 19q89 33 123 125h135q-46 -153 -150 -225.5t-258 -72.5z" />
    <glyph glyph-name="ebreve" unicode="&#x115;" horiz-adv-x="1139" 
d="M480 654h443q17 113 -32.5 171.5t-140.5 58.5q-99 0 -166.5 -62t-103.5 -168zM1180 907q44 -97 35 -225q-4 -75 -36 -216h-746q-29 -164 54 -230q50 -41 133 -41q88 0 154 50q35 27 69 75h291q-32 -97 -143 -197q-174 -159 -426 -159q-208 0 -338.5 134t-66.5 436
q60 283 235.5 434t404.5 151q136 0 234.5 -51t145.5 -161zM805 1195q-154 0 -228 72.5t-54 225.5h135q-6 -92 69 -125q42 -19 110 -19t118 19q89 33 123 125h135q-46 -153 -150 -225.5t-258 -72.5z" />
    <glyph glyph-name="Edotaccent" unicode="&#x116;" horiz-adv-x="1366" 
d="M1503 1213h-780l-66 -313h716l-55 -256h-716l-80 -379h816l-56 -265h-1117l313 1474h1081zM976 1864h260l-51 -237h-260z" />
    <glyph glyph-name="edotaccent" unicode="&#x117;" horiz-adv-x="1139" 
d="M480 654h443q17 113 -32.5 171.5t-140.5 58.5q-99 0 -166.5 -62t-103.5 -168zM1180 907q44 -97 35 -225q-4 -75 -36 -216h-746q-29 -164 54 -230q50 -41 133 -41q88 0 154 50q35 27 69 75h291q-32 -97 -143 -197q-174 -159 -426 -159q-208 0 -338.5 134t-66.5 436
q60 283 235.5 434t404.5 151q136 0 234.5 -51t145.5 -161zM745 1493h260l-51 -237h-260z" />
    <glyph glyph-name="Eogonek" unicode="&#x118;" horiz-adv-x="1366" 
d="M1503 1213h-780l-66 -313h716l-55 -256h-716l-80 -379h816l-56 -265h-1117l313 1474h1081zM927 0l-78 -48q-79 -50 -120 -86t-50 -80q-10 -46 17.5 -72.5t76.5 -26.5q22 0 47.5 6t58.5 17l-31 -144q-48 -17 -80 -24q-57 -13 -125 -13q-105 0 -159 58.5t-38 139.5
q20 91 120 168q59 45 181 105h180z" />
    <glyph glyph-name="eogonek" unicode="&#x119;" horiz-adv-x="1139" 
d="M480 654h443q17 113 -32.5 171.5t-140.5 58.5q-99 0 -166.5 -62t-103.5 -168zM1180 907q44 -97 35 -225q-4 -75 -36 -216h-746q-29 -164 54 -230q50 -41 133 -41q88 0 154 50q35 27 69 75h291q-32 -97 -143 -197q-174 -159 -426 -159q-208 0 -338.5 134t-66.5 436
q60 283 235.5 434t404.5 151q136 0 234.5 -51t145.5 -161zM724 -8l-78 -48q-79 -50 -120 -86t-50 -80q-10 -46 17.5 -72.5t76.5 -26.5q22 0 47.5 6t58.5 17l-31 -144q-48 -17 -80 -24q-57 -13 -125 -13q-105 0 -159 58.5t-38 139.5q20 91 120 168q59 45 181 105h180z" />
    <glyph glyph-name="Ecaron" unicode="&#x11a;" horiz-adv-x="1366" 
d="M1503 1213h-780l-66 -313h716l-55 -256h-716l-80 -379h816l-56 -265h-1117l313 1474h1081zM919 1583l-171 299h232l95 -169l166 169h232l-298 -299h-256z" />
    <glyph glyph-name="ecaron" unicode="&#x11b;" horiz-adv-x="1139" 
d="M480 654h443q17 113 -32.5 171.5t-140.5 58.5q-99 0 -166.5 -62t-103.5 -168zM1180 907q44 -97 35 -225q-4 -75 -36 -216h-746q-29 -164 54 -230q50 -41 133 -41q88 0 154 50q35 27 69 75h291q-32 -97 -143 -197q-174 -159 -426 -159q-208 0 -338.5 134t-66.5 436
q60 283 235.5 434t404.5 151q136 0 234.5 -51t145.5 -161zM682 1194l-171 299h232l95 -169l166 169h232l-298 -299h-256z" />
    <glyph glyph-name="Gcircumflex" unicode="&#x11c;" horiz-adv-x="1593" 
d="M1362 1014q-3 151 -126 211q-69 33 -162 33q-178 0 -321 -134.5t-201 -404.5q-57 -272 42.5 -385t257.5 -113q155 0 273.5 89.5t171.5 234.5h-341l53 246h614l-168 -791h-204l8 184q-112 -105 -192 -148q-138 -75 -316 -75q-293 0 -437 203q-151 204 -76 558
q76 358 319 574t567 216q281 0 421 -142.5t120 -355.5h-303zM1511 1615h-232l-94 168l-167 -168h-232l299 299h256z" />
    <glyph glyph-name="gcircumflex" unicode="&#x11d;" 
d="M955 550q33 155 -15 236t-158 81q-150 0 -237 -141q-46 -75 -70 -185q-20 -95 -3 -169q28 -138 178 -138q100 0 185 75.5t120 240.5zM904 1091q95 -43 135 -158l33 157h277l-220 -1034q-44 -211 -138 -318q-161 -184 -507 -184q-209 0 -323.5 82t-94.5 245h310
q2 -50 24 -72q38 -39 147 -39q154 0 228 103q48 66 81 222l15 70q-56 -70 -111 -105q-99 -65 -235 -65q-210 0 -304 147.5t-40 399.5q51 243 207.5 408.5t378.5 165.5q82 0 137 -25zM1238 1220h-232l-94 168l-167 -168h-232l299 299h256z" />
    <glyph glyph-name="Gbreve" unicode="&#x11e;" horiz-adv-x="1593" 
d="M1362 1014q-3 151 -126 211q-69 33 -162 33q-178 0 -321 -134.5t-201 -404.5q-57 -272 42.5 -385t257.5 -113q155 0 273.5 89.5t171.5 234.5h-341l53 246h614l-168 -791h-204l8 184q-112 -105 -192 -148q-138 -75 -316 -75q-293 0 -437 203q-151 204 -76 558
q76 358 319 574t567 216q281 0 421 -142.5t120 -355.5h-303zM1148 1631q-154 0 -228 72.5t-54 225.5h135q-6 -92 69 -125q42 -19 110 -19t118 19q89 33 123 125h135q-46 -153 -150 -225.5t-258 -72.5z" />
    <glyph glyph-name="gbreve" unicode="&#x11f;" 
d="M955 550q33 155 -15 236t-158 81q-150 0 -237 -141q-46 -75 -70 -185q-20 -95 -3 -169q28 -138 178 -138q100 0 185 75.5t120 240.5zM904 1091q95 -43 135 -158l33 157h277l-220 -1034q-44 -211 -138 -318q-161 -184 -507 -184q-209 0 -323.5 82t-94.5 245h310
q2 -50 24 -72q38 -39 147 -39q154 0 228 103q48 66 81 222l15 70q-56 -70 -111 -105q-99 -65 -235 -65q-210 0 -304 147.5t-40 399.5q51 243 207.5 408.5t378.5 165.5q82 0 137 -25zM884 1238q-154 0 -228 72.5t-54 225.5h135q-6 -92 69 -125q42 -19 110 -19t118 19
q89 33 123 125h135q-46 -153 -150 -225.5t-258 -72.5z" />
    <glyph glyph-name="Gdotaccent" unicode="&#x120;" horiz-adv-x="1593" 
d="M1362 1014q-3 151 -126 211q-69 33 -162 33q-178 0 -321 -134.5t-201 -404.5q-57 -272 42.5 -385t257.5 -113q155 0 273.5 89.5t171.5 234.5h-341l53 246h614l-168 -791h-204l8 184q-112 -105 -192 -148q-138 -75 -316 -75q-293 0 -437 203q-151 204 -76 558
q76 358 319 574t567 216q281 0 421 -142.5t120 -355.5h-303zM1070 1877h260l-51 -237h-260z" />
    <glyph glyph-name="gdotaccent" unicode="&#x121;" 
d="M955 550q33 155 -15 236t-158 81q-150 0 -237 -141q-46 -75 -70 -185q-20 -95 -3 -169q28 -138 178 -138q100 0 185 75.5t120 240.5zM904 1091q95 -43 135 -158l33 157h277l-220 -1034q-44 -211 -138 -318q-161 -184 -507 -184q-209 0 -323.5 82t-94.5 245h310
q2 -50 24 -72q38 -39 147 -39q154 0 228 103q48 66 81 222l15 70q-56 -70 -111 -105q-99 -65 -235 -65q-210 0 -304 147.5t-40 399.5q51 243 207.5 408.5t378.5 165.5q82 0 137 -25zM776 1480h260l-51 -237h-260z" />
    <glyph glyph-name="Gcommaaccent" unicode="&#x122;" horiz-adv-x="1593" 
d="M1362 1014q-3 151 -126 211q-69 33 -162 33q-178 0 -321 -134.5t-201 -404.5q-57 -272 42.5 -385t257.5 -113q155 0 273.5 89.5t171.5 234.5h-341l53 246h614l-168 -791h-204l8 184q-112 -105 -192 -148q-138 -75 -316 -75q-293 0 -437 203q-151 204 -76 558
q76 358 319 574t567 216q281 0 421 -142.5t120 -355.5h-303zM479 -647q91 24 143.5 80t80.5 157h-173l63 298h308l-55 -258q-14 -68 -48 -142t-94 -128q-66 -58 -143.5 -87.5t-104.5 -29.5z" />
    <glyph glyph-name="gcommaaccent" unicode="&#x123;" 
d="M955 550q33 155 -15 236t-158 81q-150 0 -237 -141q-46 -75 -70 -185q-20 -95 -3 -169q28 -138 178 -138q100 0 185 75.5t120 240.5zM904 1091q95 -43 135 -158l33 157h277l-220 -1034q-44 -211 -138 -318q-161 -184 -507 -184q-209 0 -323.5 82t-94.5 245h310
q2 -50 24 -72q38 -39 147 -39q154 0 228 103q48 66 81 222l15 70q-56 -70 -111 -105q-99 -65 -235 -65q-210 0 -304 147.5t-40 399.5q51 243 207.5 408.5t378.5 165.5q82 0 137 -25zM1085 1871.99q-90.9941 -23.998 -143.491 -79.9951q-52.4971 -55.9961 -80.4951 -156.99
h172.989l-62.9961 -297.981h-307.98l54.9961 257.983q13.999 67.9961 47.9971 141.992q33.998 73.9951 93.9941 127.992q65.9961 57.9961 143.491 87.4941t104.494 29.498z" />
    <glyph glyph-name="Hcircumflex" unicode="&#x124;" horiz-adv-x="1479" 
d="M154 0l313 1474h305l-120 -562h576l120 562h306l-313 -1474h-306l139 658h-576l-139 -658h-305zM1435 1564h-232l-94 168l-167 -168h-232l299 299h256z" />
    <glyph glyph-name="hcircumflex" unicode="&#x125;" 
d="M1260 976q32 -61 28.5 -125.5t-34.5 -210.5l-136 -640h-291l140 663q19 88 1 142q-23 76 -132 76q-113 0 -187.5 -75.5t-104.5 -215.5l-125 -590h-284l312 1469h284l-111 -521q82 95 171.5 132.5t179.5 37.5q101 0 176 -35t113 -107zM1390 1528h-232l-94 168l-167 -168
h-232l299 299h256z" />
    <glyph glyph-name="Hbar" unicode="&#x126;" horiz-adv-x="1479" 
d="M154 0l229 1079h-127l46 218h127l38 177h305l-38 -177h576l38 177h306l-38 -177h133l-46 -218h-133l-229 -1079h-306l139 658h-576l-139 -658h-305zM1228 912l35 167h-576l-35 -167h576z" />
    <glyph glyph-name="hbar" unicode="&#x127;" 
d="M1260 976q32 -61 28.5 -125.5t-34.5 -210.5l-136 -640h-291l140 663q19 88 1 142q-23 76 -132 76q-113 0 -187.5 -75.5t-104.5 -215.5l-125 -590h-284l312 1469h284l-111 -521q82 95 171.5 132.5t179.5 37.5q101 0 176 -35t113 -107zM271 1350h711l-32 -152h-711z" />
    <glyph glyph-name="Itilde" unicode="&#x128;" horiz-adv-x="860" 
d="M518 0h-306l313 1474h306zM716 1820l86 -35q39 -14 51.5 -18t28.5 -4q48 0 72.5 25.5t41.5 60.5h133q-40 -105 -109 -176t-172 -71q-31 0 -84 15q-32 8 -60 18l-75 27q-16 6 -31.5 8.5t-31.5 2.5q-38 0 -66 -22q-29 -23 -48 -63h-130q44 103 91 156q84 95 210 95
q27 0 51.5 -6t41.5 -13z" />
    <glyph glyph-name="itilde" unicode="&#x129;" horiz-adv-x="881" 
d="M461 1090h289l-231 -1090h-289zM681 1585l86 -35q39 -14 51.5 -18t28.5 -4q48 0 72.5 25.5t41.5 60.5h133q-40 -105 -109 -176t-172 -71q-31 0 -84 15q-32 8 -60 18l-75 27q-16 6 -31.5 8.5t-31.5 2.5q-38 0 -66 -22q-29 -23 -48 -63h-130q44 103 91 156q84 95 210 95
q27 0 51.5 -6t41.5 -13z" />
    <glyph glyph-name="Imacron" unicode="&#x12a;" horiz-adv-x="870" 
d="M506 0h-306l313 1474h306zM372 1757h711l-32 -152h-711z" />
    <glyph glyph-name="imacron" unicode="&#x12b;" horiz-adv-x="860" 
d="M442 1090h289l-231 -1090h-289zM295 1384h711l-32 -152h-711z" />
    <glyph glyph-name="Ibreve" unicode="&#x12c;" horiz-adv-x="569" 
d="M438 0h-306l313 1474h306zM621 1548q-154 0 -228 72.5t-54 225.5h135q-6 -92 69 -125q42 -19 110 -19t118 19q89 33 123 125h135q-46 -153 -150 -225.5t-258 -72.5z" />
    <glyph glyph-name="ibreve" unicode="&#x12d;" horiz-adv-x="569" 
d="M368 1090h289l-231 -1090h-289zM548 1210q-154 0 -228 72.5t-54 225.5h135q-6 -92 69 -125q42 -19 110 -19t118 19q89 33 123 125h135q-46 -153 -150 -225.5t-258 -72.5z" />
    <glyph glyph-name="Iogonek" unicode="&#x12e;" horiz-adv-x="569" 
d="M438 0h-306l313 1474h306zM451 0l-78 -48q-79 -50 -120 -86t-50 -80q-10 -46 17.5 -72.5t76.5 -26.5q22 0 47.5 6t58.5 17l-31 -144q-48 -17 -80 -24q-57 -13 -125 -13q-105 0 -159 58.5t-38 139.5q20 91 120 168q59 45 181 105h180z" />
    <glyph glyph-name="iogonek" unicode="&#x12f;" horiz-adv-x="569" 
d="M685 1220h-289l56 263h289zM368 1090h289l-231 -1090h-289zM419 0l-78 -48q-79 -50 -120 -86t-50 -80q-10 -46 17.5 -72.5t76.5 -26.5q22 0 47.5 6t58.5 17l-31 -144q-48 -17 -80 -24q-57 -13 -125 -13q-105 0 -159 58.5t-38 139.5q20 91 120 168q59 45 181 105h180z" />
    <glyph glyph-name="Idotaccent" unicode="&#x130;" horiz-adv-x="569" 
d="M438 0h-306l313 1474h306zM553 1877h260l-51 -237h-260z" />
    <glyph glyph-name="dotlessi" unicode="&#x131;" horiz-adv-x="569" 
d="M368 1090h289l-231 -1090h-289z" />
    <glyph glyph-name="IJ" unicode="&#x132;" horiz-adv-x="1708" 
d="M438 0h-306l313 1474h306zM1023 559l-7 -34q-32 -171 -13.5 -240.5t128.5 -69.5q109 0 160 76q31 45 54 152l219 1031h308l-218 -1026q-40 -188 -129 -298q-149 -186 -436 -186t-353 150.5t-11 410.5l7 34h291z" />
    <glyph glyph-name="ij" unicode="&#x133;" horiz-adv-x="1138" 
d="M685 1220h-289l56 263h289zM368 1090h289l-231 -1090h-289zM1259 1220h-285l56 263h285zM534 -209q24 -2 33 -2.5t17 -0.5q42 0 68 20.5t39 79.5l254 1197h285l-255 -1202q-35 -165 -117 -244t-272 -79q-13 0 -38 1t-62 2z" />
    <glyph glyph-name="Jcircumflex" unicode="&#x134;" horiz-adv-x="1139" 
d="M454 559l-7 -34q-32 -171 -13.5 -240.5t128.5 -69.5q109 0 160 76q31 45 54 152l219 1031h308l-218 -1026q-40 -188 -129 -298q-149 -186 -436 -186t-353 150.5t-11 410.5l7 34h291zM1508 1551h-232l-94 168l-167 -168h-232l299 299h256z" />
    <glyph glyph-name="jcircumflex" unicode="&#x135;" horiz-adv-x="635" 
d="M-35 -209q24 -2 33 -2.5t17 -0.5q42 0 68 20.5t39 79.5l254 1197h285l-255 -1202q-35 -165 -117 -244t-272 -79q-13 0 -38 1t-62 2zM912 1166h-232l-94 168l-167 -168h-232l299 299h256z" />
    <glyph glyph-name="Kcommaaccent" unicode="&#x136;" horiz-adv-x="1479" 
d="M474 1474h303l-129 -607l698 607h398l-733 -607l451 -867h-396l-319 644l-179 -151l-104 -493h-303zM457 -627q91 24 143.5 80t80.5 157h-173l63 298h308l-55 -258q-14 -68 -48 -142t-94 -128q-66 -58 -143.5 -87.5t-104.5 -29.5z" />
    <glyph glyph-name="kcommaaccent" unicode="&#x137;" horiz-adv-x="1139" 
d="M442 1469h280l-169 -794l442 410h353l-470 -417l255 -668h-344l-162 466l-145 -123l-72 -343h-280zM316 -617q91 24 143.5 80t80.5 157h-173l63 298h308l-55 -258q-14 -68 -48 -142t-94 -128q-66 -58 -143.5 -87.5t-104.5 -29.5z" />
    <glyph glyph-name="kgreenlandic" unicode="&#x138;" horiz-adv-x="1139" 
d="M360 1085h280l-87 -410l442 410h353l-470 -417l255 -668h-344l-162 466l-145 -123l-72 -343h-280z" />
    <glyph glyph-name="Lacute" unicode="&#x139;" 
d="M469 1474h308l-257 -1209h730l-56 -265h-1038zM1110 1856l-368 -299h-206l256 299h318z" />
    <glyph glyph-name="lacute" unicode="&#x13a;" horiz-adv-x="625" 
d="M424 0h-285l313 1474h285zM1036 1851l-368 -299h-206l256 299h318z" />
    <glyph glyph-name="Lcommaaccent" unicode="&#x13b;" 
d="M469 1474h308l-257 -1209h730l-56 -265h-1038zM351 -637q91 24 143.5 80t80.5 157h-173l63 298h308l-55 -258q-14 -68 -48 -142t-94 -128q-66 -58 -143.5 -87.5t-104.5 -29.5z" />
    <glyph glyph-name="lcommaaccent" unicode="&#x13c;" horiz-adv-x="569" 
d="M424 0h-285l313 1474h285zM12 -637q91 24 143.5 80t80.5 157h-173l63 298h308l-55 -258q-14 -68 -48 -142t-94 -128q-66 -58 -143.5 -87.5t-104.5 -29.5z" />
    <glyph glyph-name="Lcaron" unicode="&#x13d;" 
d="M1084 939q91 24 143.5 80t80.5 157h-173l63 298h308l-55 -258q-14 -68 -48 -142t-94 -128q-66 -58 -143.5 -87.5t-104.5 -29.5zM469 1474h308l-257 -1209h730l-56 -265h-1038z" />
    <glyph glyph-name="lcaron" unicode="&#x13e;" horiz-adv-x="808" 
d="M724 939q91 24 143.5 80t80.5 157h-173l63 298h308l-55 -258q-14 -68 -48 -142t-94 -128q-66 -58 -143.5 -87.5t-104.5 -29.5zM424 0h-285l313 1474h285z" />
    <glyph glyph-name="Ldotaccent" unicode="&#x13f;" 
d="M469 1474h308l-257 -1209h730l-56 -265h-1038zM856 932h260l-51 -237h-260z" />
    <glyph glyph-name="ldotaccent" unicode="&#x140;" horiz-adv-x="809" 
d="M424 0h-285l313 1474h285zM724 935h260l-51 -237h-260z" />
    <glyph glyph-name="Lslash" unicode="&#x141;" 
d="M1194 0h-1038l120 566l-194 -109l41 194l193 105l153 718h308l-113 -533l342 182l-40 -187l-342 -183l-104 -488h730z" />
    <glyph glyph-name="lslash" unicode="&#x142;" horiz-adv-x="569" 
d="M424 0h-285l120 568l-185 -104l38 178l185 104l155 728h285l-118 -552l186 104l-38 -176l-185 -104z" />
    <glyph glyph-name="Nacute" unicode="&#x143;" horiz-adv-x="1479" 
d="M464 1474h323l368 -1029l219 1029h287l-313 -1474h-308l-380 1047l-222 -1047h-287zM1475 1841l-368 -299h-206l256 299h318z" />
    <glyph glyph-name="nacute" unicode="&#x144;" 
d="M1277 734l-156 -734h-292l140 663q19 86 5 132q-24 84 -142 84q-145 0 -225 -123q-42 -65 -63 -166l-125 -590h-284l231 1088h275l-34 -159q73 84 130 121q102 66 237 66q169 0 257.5 -88.5t45.5 -293.5zM1293 1523l-368 -299h-206l256 299h318z" />
    <glyph glyph-name="Ncommaaccent" unicode="&#x145;" horiz-adv-x="1479" 
d="M464 1474h323l368 -1029l219 1029h287l-313 -1474h-308l-380 1047l-222 -1047h-287zM454 -597q91 24 143.5 80t80.5 157h-173l63 298h308l-55 -258q-14 -68 -48 -142t-94 -128q-66 -58 -143.5 -87.5t-104.5 -29.5z" />
    <glyph glyph-name="ncommaaccent" unicode="&#x146;" 
d="M1277 734l-156 -734h-292l140 663q19 86 5 132q-24 84 -142 84q-145 0 -225 -123q-42 -65 -63 -166l-125 -590h-284l231 1088h275l-34 -159q73 84 130 121q102 66 237 66q169 0 257.5 -88.5t45.5 -293.5zM340 -597q91 24 143.5 80t80.5 157h-173l63 298h308l-55 -258
q-14 -68 -48 -142t-94 -128q-66 -58 -143.5 -87.5t-104.5 -29.5z" />
    <glyph glyph-name="Ncaron" unicode="&#x147;" horiz-adv-x="1479" 
d="M464 1474h323l368 -1029l219 1029h287l-313 -1474h-308l-380 1047l-222 -1047h-287zM947 1536l-171 299h232l95 -169l166 169h232l-298 -299h-256z" />
    <glyph glyph-name="ncaron" unicode="&#x148;" 
d="M1277 734l-156 -734h-292l140 663q19 86 5 132q-24 84 -142 84q-145 0 -225 -123q-42 -65 -63 -166l-125 -590h-284l231 1088h275l-34 -159q73 84 130 121q102 66 237 66q169 0 257.5 -88.5t45.5 -293.5zM786 1210l-171 299h232l95 -169l166 169h232l-298 -299h-256z" />
    <glyph glyph-name="napostrophe" unicode="&#x149;" 
d="M1277 734l-156 -734h-292l140 663q19 86 5 132q-24 84 -142 84q-145 0 -225 -123q-42 -65 -63 -166l-125 -590h-284l231 1088h275l-34 -159q73 84 130 121q102 66 237 66q169 0 257.5 -88.5t45.5 -293.5zM417 1331q91 24 143.5 80t80.5 157h-173l63 298h308l-55 -258
q-14 -68 -48 -142t-94 -128q-66 -58 -143.5 -87.5t-104.5 -29.5z" />
    <glyph glyph-name="Eng" unicode="&#x14a;" horiz-adv-x="1479" 
d="M881 -209q24 -2 33.5 -2.5t17.5 -0.5q42 0 68 20.5t39 79.5l24 112h-23l-380 1047l-222 -1047h-287l313 1474h323l368 -1029l219 1029h287l-338 -1591q-35 -165 -117 -244t-272 -79q-13 0 -38.5 1t-62.5 2z" />
    <glyph glyph-name="eng" unicode="&#x14b;" 
d="M654 -209q24 -2 33.5 -2.5t17.5 -0.5q42 0 68 20.5t39 79.5l24 112h-7l140 663q19 86 5 132q-24 84 -142 84q-145 0 -225 -123q-42 -65 -63 -166l-125 -590h-284l231 1088h275l-34 -159q73 84 130 121q102 66 237 66q169 0 257.5 -88.5t45.5 -293.5l-181 -851
q-35 -165 -117 -244t-272 -79q-13 0 -38.5 1t-62.5 2z" />
    <glyph glyph-name="Omacron" unicode="&#x14c;" horiz-adv-x="1593" 
d="M1363 739q52 248 -26.5 383.5t-261.5 135.5t-320.5 -135t-190.5 -384t27 -384t263 -135t319.5 135t189.5 384zM1318 131q-203 -172 -519 -172t-447 172q-179 211 -94 608q86 405 353 608q203 172 519 172t447 -172q180 -203 94 -608q-85 -397 -353 -608zM900 1773h711
l-32 -152h-711z" />
    <glyph glyph-name="omacron" unicode="&#x14d;" 
d="M996 543q35 164 -13.5 252.5t-173.5 88.5t-211 -88.5t-121 -252.5t13.5 -253t173.5 -89t211 89t121 253zM614 -38q-281 0 -382.5 170.5t-50.5 410.5q50 236 225 409t456 173t382 -173t51 -409q-51 -240 -225.5 -410.5t-455.5 -170.5zM615 1390h711l-32 -152h-711z" />
    <glyph glyph-name="Obreve" unicode="&#x14e;" horiz-adv-x="1593" 
d="M1363 739q52 248 -26.5 383.5t-261.5 135.5t-320.5 -135t-190.5 -384t27 -384t263 -135t319.5 135t189.5 384zM1318 131q-203 -172 -519 -172t-447 172q-179 211 -94 608q86 405 353 608q203 172 519 172t447 -172q180 -203 94 -608q-85 -397 -353 -608zM1221 1601
q-154 0 -228 72.5t-54 225.5h135q-6 -92 69 -125q42 -19 110 -19t118 19q89 33 123 125h135q-46 -153 -150 -225.5t-258 -72.5z" />
    <glyph glyph-name="obreve" unicode="&#x14f;" 
d="M996 543q35 164 -13.5 252.5t-173.5 88.5t-211 -88.5t-121 -252.5t13.5 -253t173.5 -89t211 89t121 253zM614 -38q-281 0 -382.5 170.5t-50.5 410.5q50 236 225 409t456 173t382 -173t51 -409q-51 -240 -225.5 -410.5t-455.5 -170.5zM950 1223q-154 0 -228 72.5
t-54 225.5h135q-6 -92 69 -125q42 -19 110 -19t118 19q89 33 123 125h135q-46 -153 -150 -225.5t-258 -72.5z" />
    <glyph glyph-name="Ohungarumlaut" unicode="&#x150;" horiz-adv-x="1593" 
d="M1363 739q52 248 -26.5 383.5t-261.5 135.5t-320.5 -135t-190.5 -384t27 -384t263 -135t319.5 135t189.5 384zM1318 131q-203 -172 -519 -172t-447 172q-179 211 -94 608q86 405 353 608q203 172 519 172t447 -172q180 -203 94 -608q-85 -397 -353 -608zM1495 1913h291
l-306 -292h-196zM1347 1913l-306 -292h-196l211 292h291z" />
    <glyph glyph-name="ohungarumlaut" unicode="&#x151;" 
d="M996 543q35 164 -13.5 252.5t-173.5 88.5t-211 -88.5t-121 -252.5t13.5 -253t173.5 -89t211 89t121 253zM614 -38q-281 0 -382.5 170.5t-50.5 410.5q50 236 225 409t456 173t382 -173t51 -409q-51 -240 -225.5 -410.5t-455.5 -170.5zM1212 1525h291l-306 -292h-196z
M1064 1525l-306 -292h-196l211 292h291z" />
    <glyph glyph-name="OE" unicode="&#x152;" horiz-adv-x="2048" 
d="M1071 400l139 654q16 78 -40 135t-184 57q-178 0 -295 -155t-162 -371q-45 -209 10 -359.5t230 -150.5q112 0 199.5 60.5t102.5 129.5zM540 1322q202 183 452 183q127 0 210 -48q46 -26 94 -85l21 97h962l-55 -256h-683l-68 -322h636l-53 -247h-636l-81 -384h683
l-55 -260h-962l21 101q-69 -78 -161.5 -108.5t-198.5 -30.5q-252 0 -375 184q-133 245 -60 588q72 343 309 588z" />
    <glyph glyph-name="oe" unicode="&#x153;" horiz-adv-x="1933" 
d="M974 537q34 162 -3.5 254.5t-180.5 92.5q-157 0 -245 -145q-48 -76 -73 -197q-37 -172 5 -261t161 -89q144 0 224 98t112 247zM1197 955q97 78 162 109q105 50 243 50q127 0 218.5 -51t142.5 -147q42 -77 36 -200q-1 -80 -36 -242h-745q-21 -127 20.5 -203.5t147.5 -76.5
q89 0 150 28.5t96 99.5h284q-49 -141 -199.5 -248.5t-386.5 -107.5q-135 0 -223 55q-51 32 -105 102q-69 -64 -137 -98q-121 -61 -281 -61q-244 0 -353 159t-55 413q58 273 239.5 425.5t424.5 152.5q144 0 228 -44t129 -115zM1709 794q-35 99 -180 99q-66 0 -123 -29
q-108 -57 -146 -206h452q16 83 -3 136z" />
    <glyph glyph-name="Racute" unicode="&#x154;" horiz-adv-x="1479" 
d="M722 1218l-84 -396h349q104 0 161 24q101 42 128 166q28 134 -51 180q-45 26 -145 26h-358zM1549 1333q36 -56 49.5 -124t-4.5 -155q-23 -105 -97.5 -206.5t-205.5 -143.5q93 -41 119.5 -116.5t-6.5 -230.5l-21 -99q-21 -101 -21 -137q0 -57 38 -84l-7 -37h-339
q-4 49 -4 79q1 62 14 127l27 137q28 141 -11.5 188t-175.5 47h-318l-122 -578h-301l313 1474h723q154 -3 230 -38t120 -103zM1438 1869l-368 -299h-206l256 299h318z" />
    <glyph glyph-name="racute" unicode="&#x155;" horiz-adv-x="797" 
d="M999 1114l-62 -292q-26 3 -47 4t-34 1q-172 0 -255 -112q-46 -63 -74 -194l-110 -521h-287l231 1090h272l-40 -190q89 109 146 149q95 67 223 67q8 0 13.5 -0.5t23.5 -1.5zM1002 1508l-368 -299h-206l256 299h318z" />
    <glyph glyph-name="Rcommaaccent" unicode="&#x156;" horiz-adv-x="1479" 
d="M722 1218l-84 -396h349q104 0 161 24q101 42 128 166q28 134 -51 180q-45 26 -145 26h-358zM1549 1333q36 -56 49.5 -124t-4.5 -155q-23 -105 -97.5 -206.5t-205.5 -143.5q93 -41 119.5 -116.5t-6.5 -230.5l-21 -99q-21 -101 -21 -137q0 -57 38 -84l-7 -37h-339
q-4 49 -4 79q1 62 14 127l27 137q28 141 -11.5 188t-175.5 47h-318l-122 -578h-301l313 1474h723q154 -3 230 -38t120 -103zM486 -587q91 24 143.5 80t80.5 157h-173l63 298h308l-55 -258q-14 -68 -48 -142t-94 -128q-66 -58 -143.5 -87.5t-104.5 -29.5z" />
    <glyph glyph-name="rcommaaccent" unicode="&#x157;" horiz-adv-x="797" 
d="M999 1114l-62 -292q-26 3 -47 4t-34 1q-172 0 -255 -112q-46 -63 -74 -194l-110 -521h-287l231 1090h272l-40 -190q89 109 146 149q95 67 223 67q8 0 13.5 -0.5t23.5 -1.5zM7 -617q91 24 143.5 80t80.5 157h-173l63 298h308l-55 -258q-14 -68 -48 -142t-94 -128
q-66 -58 -143.5 -87.5t-104.5 -29.5z" />
    <glyph glyph-name="Rcaron" unicode="&#x158;" horiz-adv-x="1479" 
d="M722 1218l-84 -396h349q104 0 161 24q101 42 128 166q28 134 -51 180q-45 26 -145 26h-358zM1549 1333q36 -56 49.5 -124t-4.5 -155q-23 -105 -97.5 -206.5t-205.5 -143.5q93 -41 119.5 -116.5t-6.5 -230.5l-21 -99q-21 -101 -21 -137q0 -57 38 -84l-7 -37h-339
q-4 49 -4 79q1 62 14 127l27 137q28 141 -11.5 188t-175.5 47h-318l-122 -578h-301l313 1474h723q154 -3 230 -38t120 -103zM864 1575l-171 299h232l95 -169l166 169h232l-298 -299h-256z" />
    <glyph glyph-name="rcaron" unicode="&#x159;" horiz-adv-x="797" 
d="M999 1114l-62 -292q-26 3 -47 4t-34 1q-172 0 -255 -112q-46 -63 -74 -194l-110 -521h-287l231 1090h272l-40 -190q89 109 146 149q95 67 223 67q8 0 13.5 -0.5t23.5 -1.5zM538 1203l-171 299h232l95 -169l166 169h232l-298 -299h-256z" />
    <glyph glyph-name="Sacute" unicode="&#x15a;" horiz-adv-x="1366" 
d="M475 455q-7 -101 23 -151q56 -91 238 -91q109 0 182 24q139 46 165 171q16 73 -40 113q-55 39 -186 69l-149 35q-219 52 -294 113q-127 102 -81 319q42 198 214 329t451 131q233 0 371 -123.5t96 -358.5h-296q21 133 -75 189q-64 37 -171 37q-119 0 -200.5 -48
t-99.5 -134q-17 -79 45 -118q39 -26 179 -61l241 -61q158 -40 229 -107q110 -104 68 -301q-43 -202 -226 -335.5t-465 -133.5q-288 0 -425 131.5t-88 361.5h294zM1402 1908l-368 -299h-206l256 299h318z" />
    <glyph glyph-name="sacute" unicode="&#x15b;" horiz-adv-x="1139" 
d="M428 348q-7 -76 17 -108q40 -57 183 -57q84 0 139 25t66 75q10 48 -25 73t-279 86q-175 46 -236 115q-62 68 -34 196q32 151 173.5 259.5t356.5 108.5q204 0 315 -81.5t88 -281.5h-285q5 55 -13 87q-35 58 -148 58q-93 0 -138.5 -29t-53.5 -68q-11 -49 27 -71
q37 -23 280 -79q161 -40 229 -121q67 -82 41 -205q-35 -162 -177 -264.5t-394 -102.5q-257 0 -356.5 108.5t-64.5 276.5h289zM1192 1506l-368 -299h-206l256 299h318z" />
    <glyph glyph-name="Scircumflex" unicode="&#x15c;" horiz-adv-x="1366" 
d="M475 455q-7 -101 23 -151q56 -91 238 -91q109 0 182 24q139 46 165 171q16 73 -40 113q-55 39 -186 69l-149 35q-219 52 -294 113q-127 102 -81 319q42 198 214 329t451 131q233 0 371 -123.5t96 -358.5h-296q21 133 -75 189q-64 37 -171 37q-119 0 -200.5 -48
t-99.5 -134q-17 -79 45 -118q39 -26 179 -61l241 -61q158 -40 229 -107q110 -104 68 -301q-43 -202 -226 -335.5t-465 -133.5q-288 0 -425 131.5t-88 361.5h294zM1400 1609h-232l-94 168l-167 -168h-232l299 299h256z" />
    <glyph glyph-name="scircumflex" unicode="&#x15d;" horiz-adv-x="1139" 
d="M428 348q-7 -76 17 -108q40 -57 183 -57q84 0 139 25t66 75q10 48 -25 73t-279 86q-175 46 -236 115q-62 68 -34 196q32 151 173.5 259.5t356.5 108.5q204 0 315 -81.5t88 -281.5h-285q5 55 -13 87q-35 58 -148 58q-93 0 -138.5 -29t-53.5 -68q-11 -49 27 -71
q37 -23 280 -79q161 -40 229 -121q67 -82 41 -205q-35 -162 -177 -264.5t-394 -102.5q-257 0 -356.5 108.5t-64.5 276.5h289zM1185 1195h-232l-94 168l-167 -168h-232l299 299h256z" />
    <glyph glyph-name="Scedilla" unicode="&#x15e;" horiz-adv-x="1366" 
d="M475 455q-7 -101 23 -151q56 -91 238 -91q109 0 182 24q139 46 165 171q16 73 -39.5 112.5t-186.5 69.5l-149 35q-219 52 -294 113q-127 102 -81 319q42 198 214 329t451 131q233 0 371 -123.5t96 -358.5h-296q21 133 -75 189q-64 37 -171 37q-119 0 -200.5 -48
t-99.5 -134q-17 -79 45 -118q39 -26 179 -61l241 -61q158 -40 229 -107q110 -104 68 -301q-43 -202 -226 -335.5t-460 -133.5l-81 -93q34 7 48.5 9.5t30.5 2.5q81 0 120.5 -39.5t24.5 -113.5q-20 -92 -106.5 -145.5t-204.5 -53.5q-51 0 -118 21q-31 10 -86 32l56 86
q53 -17 73 -22q46 -12 76 -12q60 0 91.5 25.5t36.5 53.5q9 42 -16 59t-58 17q-19 0 -40 -4.5t-48 -12.5l-34 40l130 150q-188 0 -325 131.5t-88 361.5h294z" />
    <glyph glyph-name="scedilla" unicode="&#x15f;" horiz-adv-x="1139" 
d="M428 348q-7 -76 17 -108q40 -57 183 -57q84 0 139 25t66 75q10 48 -25 73t-279 86q-175 46 -236.5 114.5t-33.5 196.5q32 151 173.5 259.5t356.5 108.5q204 0 315 -81.5t88 -281.5h-285q5 55 -13 87q-35 58 -148 58q-93 0 -138.5 -29t-53.5 -68q-11 -49 26.5 -71.5
t280.5 -78.5q322 -81 270 -326q-35 -162 -177 -264.5t-366 -102.5l-84 -94q34 7 48.5 9.5t30.5 2.5q81 0 120.5 -39.5t24.5 -113.5q-20 -92 -106.5 -145.5t-204.5 -53.5q-51 0 -118 21q-31 10 -86 32l56 86q53 -17 73 -22q46 -12 76 -12q60 0 91.5 25.5t36.5 53.5
q9 42 -16 59t-58 17q-19 0 -40 -4.5t-48 -12.5l-34 40l129 151q-176 0 -275.5 108.5t-64.5 276.5h289z" />
    <glyph glyph-name="Scaron" unicode="&#x160;" horiz-adv-x="1366" 
d="M475 455q-7 -101 23 -151q56 -91 238 -91q109 0 182 24q139 46 165 171q16 73 -40 113q-55 39 -186 69l-149 35q-219 52 -294 113q-127 102 -81 319q42 198 214 329t451 131q233 0 371 -123.5t96 -358.5h-296q21 133 -75 189q-64 37 -171 37q-119 0 -200.5 -48
t-99.5 -134q-17 -79 45 -118q39 -26 179 -61l241 -61q158 -40 229 -107q110 -104 68 -301q-43 -202 -226 -335.5t-465 -133.5q-288 0 -425 131.5t-88 361.5h294zM897 1637l-171 299h232l95 -169l166 169h232l-298 -299h-256z" />
    <glyph glyph-name="scaron" unicode="&#x161;" horiz-adv-x="1139" 
d="M428 348q-7 -76 17 -108q40 -57 183 -57q84 0 139 25t66 75q10 48 -25 73t-279 86q-175 46 -236 115q-62 68 -34 196q32 151 173.5 259.5t356.5 108.5q204 0 315 -81.5t88 -281.5h-285q5 55 -13 87q-35 58 -148 58q-93 0 -138.5 -29t-53.5 -68q-11 -49 27 -71
q37 -23 280 -79q161 -40 229 -121q67 -82 41 -205q-35 -162 -177 -264.5t-394 -102.5q-257 0 -356.5 108.5t-64.5 276.5h289zM707 1237l-171 299h232l95 -169l166 169h232l-298 -299h-256z" />
    <glyph glyph-name="Tcedilla" unicode="&#x162;" 
d="M1540 1474l-56 -261h-441l-257 -1213h-310l257 1213h-443l56 261h1194zM814 -272q-20 -92 -106.5 -145.5t-204.5 -53.5q-51 0 -118 21q-30 10 -85 32l56 86q52 -17 72 -22q46 -12 76 -12q60 0 91.5 25.5t36.5 53.5q9 42 -16 59t-58 17q-19 0 -40 -4.5t-48 -12.5l-103 117
l230 111h109l-116 -131q34 7 48.5 9.5t30.5 2.5q81 0 120.5 -39.5t24.5 -113.5z" />
    <glyph glyph-name="tcedilla" unicode="&#x163;" horiz-adv-x="682" 
d="M207 877l43 203h152l65 304h282l-65 -304h177l-43 -203h-177l-123 -576q-14 -67 -0.5 -83.5t100.5 -16.5q13 0 27.5 0.5t29.5 1.5l-46 -213l-136 -5q-203 -7 -261 70q-37 49 -16 151l143 671h-152zM649 -274q-20 -92 -106.5 -145.5t-204.5 -53.5q-51 0 -118 21
q-30 10 -85 32l56 86q52 -17 72 -22q46 -12 76 -12q60 0 91.5 25.5t36.5 53.5q9 42 -16 59t-58 17q-19 0 -40 -4.5t-48 -12.5l-103 117l230 111h109l-116 -131q34 7 48.5 9.5t30.5 2.5q81 0 120.5 -39.5t24.5 -113.5z" />
    <glyph glyph-name="Tcaron" unicode="&#x164;" 
d="M1540 1474l-56 -261h-441l-257 -1213h-310l257 1213h-443l56 261h1194zM837 1576l-171 299h232l95 -169l166 169h232l-298 -299h-256z" />
    <glyph glyph-name="tcaron" unicode="&#x165;" horiz-adv-x="952" 
d="M894 1234q91 24 143.5 80t80.5 157h-173l63 298h308l-55 -258q-14 -68 -48 -142t-94 -128q-66 -58 -143.5 -87.5t-104.5 -29.5zM207 877l43 203h152l65 304h282l-65 -304h177l-43 -203h-177l-123 -576q-14 -67 -0.5 -83.5t100.5 -16.5q13 0 27.5 0.5t29.5 1.5l-46 -213
l-136 -5q-203 -7 -261 70q-37 49 -16 151l143 671h-152z" />
    <glyph glyph-name="Tbar" unicode="&#x166;" 
d="M1540 1474l-56 -261h-441l-257 -1213h-310l257 1213h-443l56 261h1194zM449 824h711l-32 -152h-711z" />
    <glyph glyph-name="tbar" unicode="&#x167;" horiz-adv-x="682" 
d="M207 877l43 203h152l65 304h282l-65 -304h177l-43 -203h-177l-123 -576q-14 -67 -0.5 -83.5t100.5 -16.5q13 0 27.5 0.5t29.5 1.5l-46 -213l-136 -5q-203 -7 -261 70q-37 49 -16 151l143 671h-152zM134 768h711l-32 -152h-711z" />
    <glyph glyph-name="Utilde" unicode="&#x168;" horiz-adv-x="1479" 
d="M469 1474h313l-193 -906q-32 -152 -11 -222q30 -124 218 -124q187 0 269 124q51 70 83 222l193 906h313l-193 -906q-50 -235 -151 -366q-187 -240 -570 -240t-469 240q-45 131 5 366zM1137 1804l86 -35q39 -14 51.5 -18t28.5 -4q48 0 72.5 25.5t41.5 60.5h133
q-40 -105 -109 -176t-172 -71q-31 0 -84 15q-32 8 -60 18l-75 27q-16 6 -31.5 8.5t-31.5 2.5q-38 0 -66 -22q-29 -23 -48 -63h-130q44 103 91 156q84 95 210 95q27 0 51.5 -6t41.5 -13z" />
    <glyph glyph-name="utilde" unicode="&#x169;" 
d="M648 1090l-139 -657q-20 -93 -8 -140q21 -83 135 -83q146 0 225 118q42 64 64 169l126 593h289l-231 -1090h-277l32 154q-5 -5 -26 -30t-47 -44q-80 -60 -147.5 -82t-151.5 -22q-242 0 -289 174q-26 96 14 283l139 657h292zM926 1464l86 -35q39 -14 51.5 -18t28.5 -4
q48 0 72.5 25.5t41.5 60.5h133q-40 -105 -109 -176t-172 -71q-31 0 -84 15q-32 8 -60 18l-75 27q-16 6 -31.5 8.5t-31.5 2.5q-38 0 -66 -22q-29 -23 -48 -63h-130q44 103 91 156q84 95 210 95q27 0 51.5 -6t41.5 -13z" />
    <glyph glyph-name="Umacron" unicode="&#x16a;" horiz-adv-x="1479" 
d="M469 1474h313l-193 -906q-32 -152 -11 -222q30 -124 218 -124q187 0 269 124q51 70 83 222l193 906h313l-193 -906q-50 -235 -151 -366q-187 -240 -570 -240t-469 240q-45 131 5 366zM759 1728h711l-32 -152h-711z" />
    <glyph glyph-name="umacron" unicode="&#x16b;" 
d="M648 1090l-139 -657q-20 -93 -8 -140q21 -83 135 -83q146 0 225 118q42 64 64 169l126 593h289l-231 -1090h-277l32 154q-5 -5 -26 -30t-47 -44q-80 -60 -147.5 -82t-151.5 -22q-242 0 -289 174q-26 96 14 283l139 657h292zM555 1384h711l-32 -152h-711z" />
    <glyph glyph-name="Ubreve" unicode="&#x16c;" horiz-adv-x="1479" 
d="M469 1474h313l-193 -906q-32 -152 -11 -222q30 -124 218 -124q187 0 269 124q51 70 83 222l193 906h313l-193 -906q-50 -235 -151 -366q-187 -240 -570 -240t-469 240q-45 131 5 366zM1066 1528q-154 0 -228 72.5t-54 225.5h135q-6 -92 69 -125q42 -19 110 -19t118 19
q89 33 123 125h135q-46 -153 -150 -225.5t-258 -72.5z" />
    <glyph glyph-name="ubreve" unicode="&#x16d;" 
d="M648 1090l-139 -657q-20 -93 -8 -140q21 -83 135 -83q146 0 225 118q42 64 64 169l126 593h289l-231 -1090h-277l32 154q-5 -5 -26 -30t-47 -44q-80 -60 -147.5 -82t-151.5 -22q-242 0 -289 174q-26 96 14 283l139 657h292zM888 1188q-154 0 -228 72.5t-54 225.5h135
q-6 -92 69 -125q42 -19 110 -19t118 19q89 33 123 125h135q-46 -153 -150 -225.5t-258 -72.5z" />
    <glyph glyph-name="Uring" unicode="&#x16e;" horiz-adv-x="1479" 
d="M469 1474h313l-193 -906q-32 -152 -11 -222q30 -124 218 -124q187 0 269 124q51 70 83 222l193 906h313l-193 -906q-50 -235 -151 -366q-187 -240 -570 -240t-469 240q-45 131 5 366zM1094 1634q49 0 91 34.5t52 83.5q11 49 -16 84t-76 35t-91.5 -35t-53.5 -84
q-10 -49 17.5 -83.5t76.5 -34.5zM1166 1970q90 0 140 -64t31 -154t-96.5 -154t-167.5 -64t-140.5 64t-31.5 154t97 154t168 64z" />
    <glyph glyph-name="uring" unicode="&#x16f;" 
d="M648 1090l-139 -657q-20 -93 -8 -140q21 -83 135 -83q146 0 225 118q42 64 64 169l126 593h289l-231 -1090h-277l32 154q-5 -5 -26 -30t-47 -44q-80 -60 -147.5 -82t-151.5 -22q-242 0 -289 174q-26 96 14 283l139 657h292zM874 1244q49 0 91 34.5t52 83.5q11 49 -16 84
t-76 35t-91.5 -35t-53.5 -84q-10 -49 17.5 -83.5t76.5 -34.5zM946 1580q90 0 140 -64t31 -154t-96.5 -154t-167.5 -64t-140.5 64t-31.5 154t97 154t168 64z" />
    <glyph glyph-name="Uhungarumlaut" unicode="&#x170;" horiz-adv-x="1479" 
d="M469 1474h313l-193 -906q-32 -152 -11 -222q30 -124 218 -124q187 0 269 124q51 70 83 222l193 906h313l-193 -906q-50 -235 -151 -366q-187 -240 -570 -240t-469 240q-45 131 5 366zM1369 1868h291l-306 -292h-196zM1221 1868l-306 -292h-196l211 292h291z" />
    <glyph glyph-name="uhungarumlaut" unicode="&#x171;" 
d="M648 1090l-139 -657q-20 -93 -8 -140q21 -83 135 -83q146 0 225 118q42 64 64 169l126 593h289l-231 -1090h-277l32 154q-5 -5 -26 -30t-47 -44q-80 -60 -147.5 -82t-151.5 -22q-242 0 -289 174q-26 96 14 283l139 657h292zM1168 1524h291l-306 -292h-196zM1020 1524
l-306 -292h-196l211 292h291z" />
    <glyph glyph-name="Uogonek" unicode="&#x172;" horiz-adv-x="1479" 
d="M469 1474h313l-193 -906q-32 -152 -11 -222q30 -124 218 -124q187 0 269 124q51 70 83 222l193 906h313l-193 -906q-50 -235 -151 -366q-187 -240 -570 -240t-469 240q-45 131 5 366zM862 -27l-78 -48q-79 -50 -120 -86t-50 -80q-10 -46 17.5 -72.5t76.5 -26.5
q22 0 47.5 6t58.5 17l-31 -144q-48 -17 -80 -24q-57 -13 -125 -13q-105 0 -159 58.5t-38 139.5q20 91 120 168q59 45 181 105h180z" />
    <glyph glyph-name="uogonek" unicode="&#x173;" 
d="M1015 0l-78 -48q-79 -50 -120 -86t-50 -80q-10 -46 17.5 -72.5t76.5 -26.5q22 0 47.5 6t58.5 17l-31 -144q-48 -17 -80 -24q-57 -13 -125 -13q-105 0 -159 58.5t-38 139.5q20 91 120 168q59 45 181 105h180zM648 1090l-139 -657q-20 -93 -8 -140q21 -83 135 -83
q146 0 225 118q42 64 64 169l126 593h289l-231 -1090h-277l32 154q-5 -5 -26 -30t-47 -44q-80 -60 -147.5 -82t-151.5 -22q-242 0 -289 174q-26 96 14 283l139 657h292z" />
    <glyph glyph-name="Wcircumflex" unicode="&#x174;" horiz-adv-x="1933" 
d="M670 1474l15 -844l-8 -235l92 230l347 849h325l-5 -844l-5 -235l93 226l379 853h313l-728 -1474h-294l5 862l8 285l-112 -285l-361 -862h-286l-105 1474h327zM1678 1558h-232l-94 168l-167 -168h-232l299 299h256z" />
    <glyph glyph-name="wcircumflex" unicode="&#x175;" horiz-adv-x="1593" 
d="M878 1090h289l-1 -785l337 785h297l-547 -1090h-293l-3 794l-341 -794h-296l-75 1090h306l4 -782zM1446 1306h-232l-94 168l-167 -168h-232l299 299h256z" />
    <glyph glyph-name="Ycircumflex" unicode="&#x176;" horiz-adv-x="1366" 
d="M1310 1474h349l-689 -920l-117 -554h-308l117 554l-314 920h363l169 -642zM1391 1563h-232l-94 168l-167 -168h-232l299 299h256z" />
    <glyph glyph-name="ycircumflex" unicode="&#x177;" horiz-adv-x="1139" 
d="M132 -209l36 -2q41 -2 80 3t69 23q29 17 62 71t31 66l-158 1138h317l67 -804l396 804h303l-602 -1072q-174 -310 -252.5 -384.5t-267.5 -74.5q-38 0 -61 0.5t-68 3.5zM1191 1200h-232l-94 168l-167 -168h-232l299 299h256z" />
    <glyph glyph-name="Ydieresis" unicode="&#x178;" horiz-adv-x="1366" 
d="M1310 1474h349l-689 -920l-117 -554h-308l117 554l-314 920h363l169 -642zM1152 1848h261l-51 -237h-261zM752 1848h261l-51 -237h-261z" />
    <glyph glyph-name="Zacute" unicode="&#x179;" 
d="M107 260l963 953h-742l56 261h1126l-53 -247l-976 -967h773l-55 -260h-1147zM1313 1844l-368 -299h-206l256 299h318z" />
    <glyph glyph-name="zacute" unicode="&#x17a;" horiz-adv-x="1024" 
d="M253 858l49 232h884l-50 -237l-685 -619h572l-49 -234h-941l47 222l694 636h-521zM1157 1505l-368 -299h-206l256 299h318z" />
    <glyph glyph-name="Zdotaccent" unicode="&#x17b;" 
d="M107 260l963 953h-742l56 261h1126l-53 -247l-976 -967h773l-55 -260h-1147zM880 1870h260l-51 -237h-260z" />
    <glyph glyph-name="zdotaccent" unicode="&#x17c;" horiz-adv-x="1024" 
d="M253 858l49 232h884l-50 -237l-685 -619h572l-49 -234h-941l47 222l694 636h-521zM731 1480h260l-51 -237h-260z" />
    <glyph glyph-name="Zcaron" unicode="&#x17d;" 
d="M107 260l963 953h-742l56 261h1126l-53 -247l-976 -967h773l-55 -260h-1147zM843 1592l-171 299h232l95 -169l166 169h232l-298 -299h-256z" />
    <glyph glyph-name="zcaron" unicode="&#x17e;" horiz-adv-x="1024" 
d="M253 858l49 232h884l-50 -237l-685 -619h572l-49 -234h-941l47 222l694 636h-521zM647 1237l-171 299h232l95 -169l166 169h232l-298 -299h-256z" />
    <glyph glyph-name="slong" unicode="&#x17f;" horiz-adv-x="682" 
d="M650 879l-186 -879h-284l186 879h-159l43 201h156l15 70q37 175 110 241q83 98 320 98q27 0 48.5 -1.5t59.5 -4.5l-50 -232q-23 3 -79 4.5t-83.5 -25t-33.5 -58.5q-7 -32 -63 -293z" />
    <glyph glyph-name="bstroke" unicode="&#x180;" 
d="M681 952q64 77 150.5 120.5t185.5 43.5q215 0 309.5 -160t34.5 -439q-51 -242 -214.5 -396.5t-354.5 -154.5q-116 0 -184.5 44t-108.5 141l-32 -151h-277l256 1205h-127l32 152h127l24 115h289l-24 -115h295l-32 -152h-295zM583 529q-30 -143 13.5 -233t164.5 -90
t200 90.5t111 241.5q30 140 -8.5 234.5t-163.5 94.5q-82 0 -155 -52q-120 -86 -162 -286z" />
    <glyph glyph-name="Btopbar" unicode="&#x182;" horiz-adv-x="1366" 
d="M982 944q245 0 354 -108t54 -369q-51 -239 -207 -353t-378 -114h-642l312 1471l-6 7h1081l-56 -261h-767l-58 -273h313zM810 256q109 0 180 49t95 164q25 115 -24.5 168t-158.5 53h-287l-92 -434h287z" />
    <glyph glyph-name="btopbar" unicode="&#x183;" 
d="M429 1478h901l-56 -261h-600l-7 8l-59 -277q70 76 144 116q87 50 206 50q215 0 303.5 -155t36.5 -400q-54 -254 -209.5 -421t-370.5 -167q-135 0 -205 54q-42 32 -82 112l-29 -137h-279l312 1471zM993 529q25 116 11 192q-27 144 -180 144q-155 0 -243 -141
q-46 -75 -71 -194q-30 -140 12.5 -232t169.5 -92q110 0 190 89t111 234z" />
    <glyph glyph-name="Oopen" unicode="&#x186;" horiz-adv-x="1479" 
d="M1224 140q-218 -182 -496 -182q-372 0 -493 244q-65 137 -43 275h308q7 -106 43 -160q63 -96 228 -96q168 0 294 135.5t179 383.5t-23.5 371.5t-234.5 123.5q-162 0 -270 -106q-59 -57 -114 -171h-305q91 241 288 392t454 151q318 0 456 -204q139 -205 63 -562
q-82 -386 -334 -595z" />
    <glyph glyph-name="Dafrican" unicode="&#x189;" horiz-adv-x="1479" 
d="M722 256q125 0 182 16q95 25 171 109q71 77 114 182.5t60 187.5q65 304 -63 409q-72 58 -246 58h-227l-64 -304h310l-55 -256h-310l-85 -402h213zM1370 312q-225 -312 -600 -312h-614l139 658h-138l55 256h138l118 558h616q171 0 280.5 -51.5t172.5 -173.5
q47 -93 53.5 -212t-23.5 -263q-57 -266 -197 -460z" />
    <glyph glyph-name="Dtopbar" unicode="&#x18b;" horiz-adv-x="1366" 
d="M864 944h313l58 273h-767l56 261h1081l-10 -7l-312 -1471h-642q-222 0 -330 114t-57 353q55 261 210 369t400 108zM744 256h287l92 434h-287q-109 0 -180.5 -53t-96.5 -168q-24 -115 26 -164t159 -49z" />
    <glyph glyph-name="dtopbar" unicode="&#x18c;" 
d="M1484 1471l-312 -1471h-279l29 137q-74 -80 -130 -112q-94 -54 -229 -54q-215 0 -299.5 167t-30.5 421q52 245 206.5 400t369.5 155q119 0 186 -50q56 -40 94 -116l59 277l-11 -8h-600l56 261h901zM526 529q-31 -145 11 -234t152 -89q127 0 208.5 92t111.5 232
q25 119 11 194q-28 141 -183 141q-153 0 -240 -144q-46 -76 -71 -192z" />
    <glyph glyph-name="deltaturned" unicode="&#x18d;" horiz-adv-x="1182" 
d="M754 396l305 -222l-43 -204h-861l49 229h451q-22 4 -137.5 116.5t-199.5 281.5t-45 352q49 229 219 372.5t391 143.5q244 0 352.5 -148.5t56.5 -392.5q-42 -199 -188.5 -343t-349.5 -185zM699 600q111 0 197 100.5t114 235.5q28 131 -13.5 223.5t-158.5 92.5
q-109 0 -187 -93.5t-106 -224.5q-29 -135 10.5 -234.5t143.5 -99.5z" />
    <glyph glyph-name="Ereversed" unicode="&#x18e;" horiz-adv-x="1366" 
d="M513 1474h1081l-313 -1474h-1117l56 265h816l80 379h-716l55 256h716l66 313h-780z" />
    <glyph glyph-name="Schwa" unicode="&#x18f;" horiz-adv-x="1538" 
d="M1287 579h-798q-22 -161 82.5 -285.5t227.5 -124.5q134 0 286 133.5t202 276.5zM240 238q-58 131 -48 303q7 102 51 292h1107q39 221 -59 330q-160 136 -273 126q-118 10 -335 -138q-42 -56 -97 -121h-283q43 131 193 266q235 215 576 215q280 0 456.5 -181t89.5 -589
q-81 -382 -318.5 -586t-546.5 -204q-183 0 -316 69t-197 218z" />
    <glyph glyph-name="Eopen" unicode="&#x190;" horiz-adv-x="1163" 
d="M153 473q24 114 106 213q91 112 200 131q-77 44 -110 126.5t-13 180.5q43 199 200 301q141 91 347 91q291 0 372 -191q23 -55 18 -124q-9 -49 -18 -97h-245q17 80 -19 137q-44 72 -160 72q-91 0 -156.5 -56t-85.5 -147q-20 -98 38 -160q49 -51 112 -51h141l-46 -215h-157
q-65 0 -141 -53q-93 -64 -113 -160q-27 -125 16 -203q49 -86 170 -86q252 0 309 269h258q-47 -221 -208 -359q-164 -141 -384 -141q-252 0 -366 134q-118 138 -65 388z" />
    <glyph glyph-name="Fhook" unicode="&#x191;" 
d="M-25 -209q24 -2 33 -2.5t17 -0.5q42 0 68 20.5t39 79.5l336 1584h1045l-55 -259h-739l-72 -339h647l-54 -256h-647l-131 -618h-4l-25 -117q-35 -165 -117 -244t-289 -79q-13 0 -38 1t-62 2z" />
    <glyph glyph-name="florin" unicode="&#x192;" horiz-adv-x="1139" 
d="M1320 1242q-30 18 -53.5 26.5t-49.5 8.5q-36 0 -67.5 -14t-62.5 -56q-27 -42 -51.5 -100.5t-51.5 -130.5h247l-42 -199h-275l-278 -735q-73 -193 -156 -299q-139 -175 -334 -175q-47 0 -101.5 12t-96.5 31l97 227q35 -23 54 -30.5t47 -7.5q72 0 112.5 61t106.5 233
l262 683h-249l42 199h280q118 289 195 383q122 148 328 148q58 0 102 -9t93 -29z" />
    <glyph glyph-name="Iotaafrican" unicode="&#x196;" horiz-adv-x="569" 
d="M501 -46q-38 -1 -64 -2t-39 -1q-190 0 -238 79t-13 244l255 1202h285l-254 -1197q-13 -59 4.5 -79.5t59.5 -20.5q8 0 18 0.5t34 2.5z" />
    <glyph glyph-name="Istroke" unicode="&#x197;" horiz-adv-x="798" 
d="M256 1003h206l100 471h285l-100 -471h220l-33 -152h-220l-180 -851h-285l180 851h-206z" />
    <glyph glyph-name="lbar" unicode="&#x19a;" horiz-adv-x="798" 
d="M256 1003h206l100 471h285l-100 -471h220l-33 -152h-220l-180 -851h-285l180 851h-206z" />
    <glyph glyph-name="uni019B" unicode="&#x19b;" horiz-adv-x="1124" 
d="M332 1143l266 62l-37 241h303l26 -173l296 70l-32 -152l-242 -57l177 -1134h-315l-65 659h-4l-338 -659h-318l580 1003l-10 62l-319 -74z" />
    <glyph glyph-name="Nhookleft" unicode="&#x19d;" horiz-adv-x="1479" 
d="M-31 -209q24 -2 33 -2.5t17 -0.5q42 0 68 20.5t39 79.5l254 1197h1l83 389h323l368 -1029l219 1029h287l-313 -1474h-308l-380 1047l-222 -1047h-3l-25 -117q-35 -165 -117 -244t-272 -79q-13 0 -38 1t-62 2z" />
    <glyph glyph-name="nlegrightlong" unicode="&#x19e;" 
d="M1277 734l-248 -1166h-292l232 1095q19 86 5 132q-24 84 -142 84q-145 0 -225 -123q-42 -65 -63 -166l-125 -590h-284l231 1088h275l-34 -159q73 84 130 121q102 66 237 66q169 0 257.5 -88.5t45.5 -293.5z" />
    <glyph glyph-name="Ocenteredtilde" unicode="&#x19f;" horiz-adv-x="1593" 
d="M1318 131q-203 -172 -519 -172t-447 172q-179 211 -94 608q86 405 353 608q203 172 519 172t447 -172q180 -203 94 -608q-85 -397 -353 -608zM591 355q80 -135 263 -135t319 135q106 105 161 279h-788q-18 -174 45 -279zM1336 1122q-78 136 -261 136t-321 -135
q-105 -103 -160 -271h787q15 167 -45 270z" />
    <glyph glyph-name="Ohorn" unicode="&#x1a0;" horiz-adv-x="1938" 
d="M1318 131q-203 -172 -519 -172t-447 172q-179 211 -94 608q86 405 353 608q203 172 519 172t447 -172q51 -58 81 -133l6 -1q68 -7 168 38l-55 150l290 149l97 -267l-250 -129q-66 -34 -144 -56q-41 -11 -80 -12q22 -150 -19 -347q-85 -397 -353 -608zM1363 739
q52 248 -26.5 383.5t-261.5 135.5t-320.5 -135t-190.5 -384t27 -384t263 -135t319.5 135t189.5 384z" />
    <glyph glyph-name="ohorn" unicode="&#x1a1;" horiz-adv-x="1628" 
d="M614 -38q-281 0 -382.5 170.5t-50.5 410.5q50 236 225 409t456 173t382 -173q16 -28 29 -58q6 -1 13 -1q68 -7 168 38l-55 150l290 149l97 -267l-250 -129q-66 -34 -144 -56q-45 -12 -86 -12q14 -104 -11 -223q-51 -240 -225.5 -410.5t-455.5 -170.5zM996 543
q35 164 -13.5 252.5t-173.5 88.5t-211 -88.5t-121 -252.5t13.5 -253t173.5 -89t211 89t121 253z" />
    <glyph glyph-name="yr" unicode="&#x1a6;" horiz-adv-x="1331" 
d="M372 1474h301l-43 -200h422q155 -3 231 -38t119 -103q36 -56 50 -124t-5 -155q-22 -105 -96.5 -206.5t-205.5 -143.5q93 -41 119.5 -116.5t-6.5 -230.5l-21 -99q-22 -101 -21 -137q0 -57 38 -84l-8 -37h-339q-4 49 -3 79q1 62 14 127l27 137q28 141 -11.5 188t-175.5 47
h-318l-80 -378h-301zM576 1018l-84 -396h349q104 0 161 24q101 42 127 166q29 134 -51 180q-44 26 -144 26h-358z" />
    <glyph glyph-name="Tonetwo" unicode="&#x1a7;" horiz-adv-x="1366" 
d="M1391 455q-49 -230 -242 -361.5t-481 -131.5q-282 0 -408 133.5t-83 335.5q42 197 196 301q99 67 275 107l267 61q154 35 205 61q78 39 95 118q18 86 -42.5 134t-179.5 48q-107 0 -187 -37q-120 -56 -157 -189h-296q58 235 249 358.5t424 123.5q279 0 395 -131t74 -329
q-46 -217 -217 -319q-101 -61 -342 -113l-163 -35q-143 -30 -216 -69q-72 -40 -88 -113q-26 -125 93 -171q63 -24 172 -24q182 0 276 91q52 50 87 151h294z" />
    <glyph glyph-name="tonetwo" unicode="&#x1a8;" horiz-adv-x="1139" 
d="M1135 348q-35 -168 -180.5 -276.5t-402.5 -108.5q-252 0 -351 102.5t-64 264.5q26 123 127 205q102 81 281 121q267 56 314 79q46 22 57 71q8 39 -25.5 68t-126.5 29q-113 0 -172 -58q-32 -32 -49 -87h-285q61 200 207 281.5t350 81.5q215 0 310.5 -108.5t63.5 -259.5
q-28 -128 -118 -196q-91 -69 -286 -115q-270 -61 -315 -86t-55 -73q-11 -50 33 -75t128 -25q143 0 209 57q36 32 61 108h289z" />
    <glyph glyph-name="Esh" unicode="&#x1a9;" horiz-adv-x="1219" 
d="M1091 733l-564 -467h680l-56 -266h-1090l47 225l610 506l-394 508l48 225h1090l-57 -266h-680z" />
    <glyph glyph-name="Tretroflexhook" unicode="&#x1ae;" 
d="M294 -209q24 -2 33.5 -2.5t17.5 -0.5q42 0 68 20.5t39 79.5l281 1325h-443l56 261h1194l-56 -261h-441l-282 -1330q-35 -165 -129.5 -244t-284.5 -79q-13 0 -38.5 1t-62.5 2z" />
    <glyph glyph-name="Uhorn" unicode="&#x1af;" horiz-adv-x="1880" 
d="M469 1474h313l-193 -906q-32 -152 -11 -222q30 -124 218 -124q187 0 269 124q51 70 83 222l193 906h313l-56 -261h6q68 -7 168 38l-55 150l290 149l97 -267l-250 -129q-66 -34 -144 -56q-73 -20 -138 -7l-111 -523q-50 -235 -151 -366q-187 -240 -570 -240t-469 240
q-45 131 5 366z" />
    <glyph glyph-name="uhorn" unicode="&#x1b0;" horiz-adv-x="1649" 
d="M648 1090l-139 -657q-20 -93 -8 -140q21 -83 135 -83q146 0 225 118q42 64 64 169l126 593h289l-31 -146q4 -1 8 -1q67 -7 168 38l-55 150l290 149l97 -267l-251 -129q-66 -34 -144 -56q-74 -20 -139 -7l-174 -821h-277l32 154q-5 -5 -26 -30t-47 -44q-80 -60 -147.5 -82
t-151.5 -22q-242 0 -289 174q-26 96 14 283l139 657h292z" />
    <glyph glyph-name="Upsilonafrican" unicode="&#x1b1;" horiz-adv-x="1587" 
d="M845 276q166 0 278 123t149 297q37 172 16 294t-124 208l57 266h584l-53 -246h-307q213 -203 143 -532q-61 -289 -274 -487.5t-516 -198.5q-293 0 -432.5 199.5t-78.5 486.5q38 176 123.5 300t245.5 232h-307l53 246h584l-57 -266q-139 -86 -212 -207t-110 -295
q-37 -176 18.5 -298t219.5 -122z" />
    <glyph glyph-name="uni01B5" unicode="&#x1b5;" 
d="M107 260l476 471h-208l32 152h329l334 330h-742l56 261h1126l-53 -247l-348 -344h169l-32 -152h-290l-475 -471h773l-55 -260h-1147z" />
    <glyph glyph-name="uni01B6" unicode="&#x1b6;" horiz-adv-x="1024" 
d="M271 672h299l204 186h-521l49 232h884l-50 -237l-201 -181h107l-32 -152h-243l-316 -286h572l-49 -234h-941l47 222l325 298h-166z" />
    <glyph glyph-name="Ezh" unicode="&#x1b7;" horiz-adv-x="1228" 
d="M1014 1208h-680l57 266h1090l-48 -225l-369 -316q82 -39 131 -113q121 -76 61 -357q-53 -249 -251.5 -365t-461.5 -116t-358 187q-59 116 -41 246h291q-10 -86 20.5 -140t130.5 -54q141 0 244.5 64.5t128.5 184.5q27 126 15 202q-36 46 -151 61l-2 -2l-373 2z" />
    <glyph glyph-name="Ezhreversed" unicode="&#x1b8;" horiz-adv-x="1228" 
d="M1090 733l-373 -2l-2 2q-121 -15 -177 -61q-44 -76 -71 -202q-25 -120 50.5 -184.5t216.5 -64.5q100 0 153.5 54t81.5 140h291q-38 -130 -147 -246q-173 -187 -436 -187t-412.5 116t-96.5 365q60 281 213 357q81 74 179 113l-235 316l48 225h1090l-57 -266h-680z" />
    <glyph glyph-name="ezhreversed" unicode="&#x1b9;" horiz-adv-x="1128" 
d="M908 344l-274 -2l-1 2q-122 -15 -177 -61q-48 -91 -74 -217q-26 -120 13 -193.5t180 -73.5q100 0 138.5 54t65.5 140h291q-38 -130 -146 -246q-134 -187 -397 -187t-380.5 125t-64.5 374q60 281 216 372q81 74 179 113l-235 316l48 225h990l-56 -266h-580z" />
    <glyph glyph-name="twostroke" unicode="&#x1bb;" horiz-adv-x="1253" 
d="M206 285q92 145 353 307q227 141 298 202q109 95 133 208q20 92 -18 153t-133 61q-130 0 -198 -97q-39 -56 -69 -178h-277q46 185 130 299q160 217 451 217q230 0 339 -127.5t64 -337.5q-34 -161 -156 -286q-81 -83 -247 -185l-131 -81q-123 -76 -170 -110t-83 -79h633
l-53 -251h-993q37 156 127 285zM1366 800l-43 -201h-1070l43 201h1070z" />
    <glyph glyph-name="clickdental" unicode="&#x1c0;" horiz-adv-x="573" 
d="M744 1488l-316 -1488h-263l316 1488h263z" />
    <glyph glyph-name="clicklateral" unicode="&#x1c1;" horiz-adv-x="1083" 
d="M744 1488l-316 -1488h-263l316 1488h263zM1244 1488l-316 -1488h-263l316 1488h263z" />
    <glyph glyph-name="clickalveolar" unicode="&#x1c2;" horiz-adv-x="1172" 
d="M1336 1067l-56 -263h-432l-43 -204h432l-56 -263h-432l-71 -337h-263l71 337h-388l56 263h388l43 204h-388l56 263h388l90 421h263l-90 -421h432z" />
    <glyph glyph-name="clickretroflex" unicode="&#x1c3;" horiz-adv-x="682" 
d="M537 1469h313l-80 -374l-227 -688h-149l63 688zM293 289h298l-61 -289h-298z" />
    <glyph glyph-name="DZcaron" unicode="&#x1c4;" horiz-adv-x="2519" 
d="M627 1217l-204 -962h284q218 0 350 215q72 118 106 281q48 225 3 345.5t-255 120.5h-284zM1239 1441q144 -51 211 -187q54 -110 54.5 -238t-23.5 -244q-63 -294 -224 -498q-218 -275 -552 -275h-635l313 1474h635q136 -2 221 -32zM1391 260l963 953h-742l56 261h1126
l-53 -247l-976 -967h773l-55 -260h-1147zM2095 1539l-171 299h232l95 -169l166 169h232l-298 -299h-256z" />
    <glyph glyph-name="Dzcaron" unicode="&#x1c5;" horiz-adv-x="2319" 
d="M643 1218l-204 -962h284q218 0 350 215q72 118 106 281q48 225 3 345.5t-255 120.5h-284zM1255 1442q144 -51 211 -187q54 -110 54.5 -238t-23.5 -244q-63 -294 -224 -498q-218 -275 -552 -275h-635l313 1474h635q136 -2 221 -32zM1558 858l49 232h884l-50 -237
l-685 -619h572l-49 -234h-941l47 222l694 636h-521zM1909 1175l-171 299h232l95 -169l166 169h232l-298 -299h-256z" />
    <glyph glyph-name="dzcaron" unicode="&#x1c6;" horiz-adv-x="2171" 
d="M1038 952l110 520h289l-312 -1472h-277l32 151q-82 -97 -169.5 -141t-203.5 -44q-191 0 -288.5 154.5t-46.5 396.5q60 279 222.5 439t377.5 160q99 0 166.5 -43.5t99.5 -120.5zM956 529q42 200 -40 286q-51 52 -133 52q-125 0 -203.5 -94.5t-108.5 -234.5
q-32 -151 8 -241.5t161 -90.5t203.5 90t112.5 233zM1414 858l49 232h884l-50 -237l-685 -619h572l-49 -234h-941l47 222l694 636h-521zM1775 1179l-171 299h232l95 -169l166 169h232l-298 -299h-256z" />
    <glyph glyph-name="LJ" unicode="&#x1c7;" horiz-adv-x="2166" 
d="M420 1474h308l-257 -1209h730l-56 -265h-1038zM1572 580l-7 -34q-32 -171 -13.5 -240.5t128.5 -69.5q109 0 160 76q31 45 54 152l219 1031h308l-218 -1026q-40 -188 -129 -298q-149 -186 -436 -186t-353 150.5t-11 410.5l7 34h291z" />
    <glyph glyph-name="Lj" unicode="&#x1c8;" horiz-adv-x="1711" 
d="M420 1474h308l-257 -1209h730l-56 -265h-1038zM1883 1220h-285l56 263h285zM1158 -209q24 -2 33 -2.5t17 -0.5q42 0 68 20.5t39 79.5l254 1197h285l-255 -1202q-35 -165 -117 -244t-272 -79q-13 0 -38 1t-62 2z" />
    <glyph glyph-name="lj" unicode="&#x1c9;" horiz-adv-x="1068" 
d="M424 0h-285l313 1474h285zM1259 1220h-285l56 263h285zM534 -209q24 -2 33 -2.5t17 -0.5q42 0 68 20.5t39 79.5l254 1197h285l-255 -1202q-35 -165 -117 -244t-272 -79q-13 0 -38 1t-62 2z" />
    <glyph glyph-name="NJ" unicode="&#x1ca;" horiz-adv-x="2372" 
d="M410 1474h323l368 -1029l219 1029h287l-313 -1474h-308l-380 1047l-222 -1047h-287zM1766 569l-7 -34q-32 -171 -13.5 -240.5t128.5 -69.5q109 0 160 76q31 45 54 152l219 1031h308l-218 -1026q-40 -188 -129 -298q-149 -186 -436 -186t-353 150.5t-11 410.5l7 34h291z
" />
    <glyph glyph-name="Nj" unicode="&#x1cb;" horiz-adv-x="1855" 
d="M415 1474h323l368 -1029l219 1029h287l-313 -1474h-308l-380 1047l-222 -1047h-287zM2023 1225h-285l56 263h285zM1298 -204q24 -2 33 -2.5t17 -0.5q42 0 68 20.5t39 79.5l254 1197h285l-255 -1202q-35 -165 -117 -244t-272 -79q-13 0 -38 1t-62 2z" />
    <glyph glyph-name="nj" unicode="&#x1cc;" horiz-adv-x="1639" 
d="M1233 734l-156 -734h-292l140 663q19 86 5 132q-24 84 -142 84q-145 0 -225 -123q-42 -65 -63 -166l-125 -590h-284l231 1088h275l-34 -159q73 84 130 121q102 66 237 66q169 0 257.5 -88.5t45.5 -293.5zM1788 1220h-285l56 263h285zM1063 -209q24 -2 33 -2.5t17 -0.5
q42 0 68 20.5t39 79.5l254 1197h285l-255 -1202q-35 -165 -117 -244t-272 -79q-13 0 -38 1t-62 2z" />
    <glyph glyph-name="Acaron" unicode="&#x1cd;" horiz-adv-x="1479" 
d="M677 557h374l-61 580zM891 1474h348l209 -1474h-334l-31 303h-543l-166 -303h-322zM955 1567l-171 299h232l95 -169l166 169h232l-298 -299h-256z" />
    <glyph glyph-name="acaron" unicode="&#x1ce;" horiz-adv-x="1139" 
d="M846 530q-30 -17 -60 -27.5t-80 -19.5l-66 -12q-94 -16 -138 -39q-74 -39 -91 -121q-16 -73 17.5 -105.5t91.5 -32.5q92 0 181 54t123 197zM701 663q82 10 119 25q66 26 78 81q14 67 -27 92.5t-131 25.5q-101 0 -154 -50q-37 -37 -61 -100h-275q40 143 130 235
q144 144 419 144q179 0 303 -71t82 -268l-107 -500q-11 -52 -24 -126q-9 -56 0.5 -76t34.5 -33l-8 -42h-310q-6 33 -5 62t6 66q-73 -64 -159 -109q-104 -53 -220 -53q-148 0 -226.5 84.5t-45.5 239.5q43 201 217 291q95 49 265 70zM693 1211l-171 299h232l95 -169l166 169
h232l-298 -299h-256z" />
    <glyph glyph-name="Icaron" unicode="&#x1cf;" horiz-adv-x="569" 
d="M438 0h-306l313 1474h306zM497 1586l-171 299h232l95 -169l166 169h232l-298 -299h-256z" />
    <glyph glyph-name="icaron" unicode="&#x1d0;" horiz-adv-x="569" 
d="M368 1090h289l-231 -1090h-289zM415 1196l-171 299h232l95 -169l166 169h232l-298 -299h-256z" />
    <glyph glyph-name="Ocaron" unicode="&#x1d1;" horiz-adv-x="1593" 
d="M1363 739q52 248 -26.5 383.5t-261.5 135.5t-320.5 -135t-190.5 -384t27 -384t263 -135t319.5 135t189.5 384zM1318 131q-203 -172 -519 -172t-447 172q-179 211 -94 608q86 405 353 608q203 172 519 172t447 -172q180 -203 94 -608q-85 -397 -353 -608zM1030 1628
l-171 299h232l95 -169l166 169h232l-298 -299h-256z" />
    <glyph glyph-name="ocaron" unicode="&#x1d2;" 
d="M996 543q35 164 -13.5 252.5t-173.5 88.5t-211 -88.5t-121 -252.5t13.5 -253t173.5 -89t211 89t121 253zM614 -38q-281 0 -382.5 170.5t-50.5 410.5q50 236 225 409t456 173t382 -173t51 -409q-51 -240 -225.5 -410.5t-455.5 -170.5zM758 1212l-171 299h232l95 -169
l166 169h232l-298 -299h-256z" />
    <glyph glyph-name="Ucaron" unicode="&#x1d3;" horiz-adv-x="1479" 
d="M469 1474h313l-193 -906q-32 -152 -11 -222q30 -124 218 -124q187 0 269 124q51 70 83 222l193 906h313l-193 -906q-50 -235 -151 -366q-187 -240 -570 -240t-469 240q-45 131 5 366zM947 1594l-171 299h232l95 -169l166 169h232l-298 -299h-256z" />
    <glyph glyph-name="ucaron" unicode="&#x1d4;" 
d="M648 1090l-139 -657q-20 -93 -8 -140q21 -83 135 -83q146 0 225 118q42 64 64 169l126 593h289l-231 -1090h-277l32 154q-5 -5 -26 -30t-47 -44q-80 -60 -147.5 -82t-151.5 -22q-242 0 -289 174q-26 96 14 283l139 657h292zM740 1185l-171 299h232l95 -169l166 169h232
l-298 -299h-256z" />
    <glyph glyph-name="Udieresismacron" unicode="&#x1d5;" horiz-adv-x="1479" 
d="M469 1474h313l-193 -906q-32 -152 -11 -222q30 -124 218 -124q187 0 269 124q51 70 83 222l193 906h313l-193 -906q-50 -235 -151 -366q-187 -240 -570 -240t-469 240q-45 131 5 366zM1237 1873h261l-51 -237h-261zM837 1873h261l-51 -237h-261zM860 2146h711l-32 -152
h-711z" />
    <glyph glyph-name="udieresismacron" unicode="&#x1d6;" 
d="M648 1090l-139 -657q-20 -93 -8 -140q21 -83 135 -83q146 0 225 118q42 64 64 169l126 593h289l-231 -1090h-277l32 154q-5 -5 -26 -30t-47 -44q-80 -60 -147.5 -82t-151.5 -22q-242 0 -289 174q-26 96 14 283l139 657h292zM1000 1469h261l-51 -237h-261zM600 1469h261
l-51 -237h-261zM646 1743h711l-32 -152h-711z" />
    <glyph glyph-name="Udieresisacute" unicode="&#x1d7;" horiz-adv-x="1479" 
d="M469 1474h313l-193 -906q-32 -152 -11 -222q30 -124 218 -124q187 0 269 124q51 70 83 222l193 906h313l-193 -906q-50 -235 -151 -366q-187 -240 -570 -240t-469 240q-45 131 5 366zM1198 1804h261l-51 -237h-261zM798 1804h261l-51 -237h-261zM1550 2190l-368 -299
h-206l256 299h318z" />
    <glyph glyph-name="udieresisacute" unicode="&#x1d8;" 
d="M648 1090l-139 -657q-20 -93 -8 -140q21 -83 135 -83q146 0 225 118q42 64 64 169l126 593h289l-231 -1090h-277l32 154q-5 -5 -26 -30t-47 -44q-80 -60 -147.5 -82t-151.5 -22q-242 0 -289 174q-26 96 14 283l139 657h292zM987 1462h261l-51 -237h-261zM587 1462h261
l-51 -237h-261zM1361 1879l-368 -299h-206l256 299h318z" />
    <glyph glyph-name="Udieresiscaron" unicode="&#x1d9;" horiz-adv-x="1479" 
d="M469 1474h313l-193 -906q-32 -152 -11 -222q30 -124 218 -124q187 0 269 124q51 70 83 222l193 906h313l-193 -906q-50 -235 -151 -366q-187 -240 -570 -240t-469 240q-45 131 5 366zM1200 1819h261l-51 -237h-261zM800 1819h261l-51 -237h-261zM1013 1957l-171 299h232
l95 -169l166 169h232l-298 -299h-256z" />
    <glyph glyph-name="udieresiscaron" unicode="&#x1da;" 
d="M648 1090l-139 -657q-20 -93 -8 -140q21 -83 135 -83q146 0 225 118q42 64 64 169l126 593h289l-231 -1090h-277l32 154q-5 -5 -26 -30t-47 -44q-80 -60 -147.5 -82t-151.5 -22q-242 0 -289 174q-26 96 14 283l139 657h292zM993 1459h261l-51 -237h-261zM593 1459h261
l-51 -237h-261zM806 1579l-171 299h232l95 -169l166 169h232l-298 -299h-256z" />
    <glyph glyph-name="Udieresisgrave" unicode="&#x1db;" horiz-adv-x="1479" 
d="M469 1474h313l-193 -906q-32 -152 -11 -222q30 -124 218 -124q187 0 269 124q51 70 83 222l193 906h313l-193 -906q-50 -235 -151 -366q-187 -240 -570 -240t-469 240q-45 131 5 366zM1220 1842h261l-51 -237h-261zM820 1842h261l-51 -237h-261zM1306 1954h-206l-239 299
h317z" />
    <glyph glyph-name="udieresisgrave" unicode="&#x1dc;" 
d="M648 1090l-139 -657q-20 -93 -8 -140q21 -83 135 -83q146 0 225 118q42 64 64 169l126 593h289l-231 -1090h-277l32 154q-5 -5 -26 -30t-47 -44q-80 -60 -147.5 -82t-151.5 -22q-242 0 -289 174q-26 96 14 283l139 657h292zM996 1446h261l-51 -237h-261zM596 1446h261
l-51 -237h-261zM1068 1561h-206l-239 299h317z" />
    <glyph glyph-name="eturned" unicode="&#x1dd;" horiz-adv-x="1139" 
d="M877 428h-443q-17 -113 32.5 -171.5t140.5 -58.5q99 0 166.5 62t103.5 168zM177 175q-44 97 -35 225q4 75 36 216h746q29 164 -54 230q-50 41 -133 41q-88 0 -154 -50q-35 -27 -69 -75h-291q32 97 143 197q174 159 426 159q208 0 338.5 -134t66.5 -436
q-60 -283 -235.5 -434t-404.5 -151q-136 0 -234.5 51t-145.5 161z" />
    <glyph glyph-name="Adieresismacron" unicode="&#x1de;" horiz-adv-x="1479" 
d="M677 557h374l-61 580zM891 1474h348l209 -1474h-334l-31 303h-543l-166 -303h-322zM1233 1881h261l-51 -237h-261zM833 1881h261l-51 -237h-261zM862 2204h711l-32 -152h-711z" />
    <glyph glyph-name="adieresismacron" unicode="&#x1df;" horiz-adv-x="1139" 
d="M846 530q-30 -17 -60 -27.5t-80 -19.5l-66 -12q-94 -16 -138 -39q-74 -39 -91 -121q-16 -73 17.5 -105.5t91.5 -32.5q92 0 181 54t123 197zM701 663q82 10 119 25q66 26 78 81q14 67 -27 92.5t-131 25.5q-101 0 -154 -50q-37 -37 -61 -100h-275q40 143 130 235
q144 144 419 144q179 0 303 -71t82 -268l-107 -500q-11 -52 -24 -126q-9 -56 0.5 -76t34.5 -33l-8 -42h-310q-6 33 -5 62t6 66q-73 -64 -159 -109q-104 -53 -220 -53q-148 0 -226.5 84.5t-45.5 239.5q43 201 217 291q95 49 265 70zM994 1514h261l-51 -237h-261zM594 1514
h261l-51 -237h-261zM634 1782h711l-32 -152h-711z" />
    <glyph glyph-name="Adotmacron" unicode="&#x1e0;" horiz-adv-x="1479" 
d="M677 557h374l-61 580zM891 1474h348l209 -1474h-334l-31 303h-543l-166 -303h-322zM1013 1885h260l-51 -237h-260zM852 2156h711l-32 -152h-711z" />
    <glyph glyph-name="adotmacron" unicode="&#x1e1;" horiz-adv-x="1139" 
d="M846 530q-30 -17 -60 -27.5t-80 -19.5l-66 -12q-94 -16 -138 -39q-74 -39 -91 -121q-16 -73 17.5 -105.5t91.5 -32.5q92 0 181 54t123 197zM701 663q82 10 119 25q66 26 78 81q14 67 -27 92.5t-131 25.5q-101 0 -154 -50q-37 -37 -61 -100h-275q40 143 130 235
q144 144 419 144q179 0 303 -71t82 -268l-107 -500q-11 -52 -24 -126q-9 -56 0.5 -76t34.5 -33l-8 -42h-310q-6 33 -5 62t6 66q-73 -64 -159 -109q-104 -53 -220 -53q-148 0 -226.5 84.5t-45.5 239.5q43 201 217 291q95 49 265 70zM753 1457h260l-51 -237h-260zM590 1723
h711l-32 -152h-711z" />
    <glyph glyph-name="AEmacron" unicode="&#x1e2;" horiz-adv-x="2048" 
d="M1144 1218h-133l-368 -664h360zM866 1469h1394l-55 -256h-759l-67 -317h683l-54 -252h-683l-81 -384h773l-55 -260h-1076l66 312h-441l-173 -312h-320zM1202 1782h711l-32 -152h-711z" />
    <glyph glyph-name="aemacron" unicode="&#x1e3;" horiz-adv-x="1821" 
d="M1594 658q16 105 -24 167.5t-147 62.5q-108 0 -176 -56.5t-99 -173.5h446zM854 521q-24 -15 -42.5 -21.5t-79.5 -18.5l-114 -22q-98 -19 -135 -41q-61 -36 -79 -119q-10 -47 16.5 -88t110.5 -41q87 0 151 32q117 58 149 210zM739 661q70 10 105 27q53 26 64 78
q17 79 -57 108q-40 15 -112 15q-110 0 -166 -62q-30 -33 -45 -93h-278q58 225 254 318q130 62 311 62q129 0 219 -44q50 -24 99 -73q72 52 158 84.5t190 32.5q332 0 391 -273q31 -145 -21 -367h-746q-24 -113 -10 -173q27 -110 169 -110q80 0 145 27.5t110 108.5h289
q-33 -100 -142 -200q-177 -163 -440 -163q-135 0 -220.5 51t-121.5 131q-95 -95 -207.5 -139t-246.5 -44q-202 0 -271.5 98t-40.5 234q40 185 195 270q85 46 245 70zM853 1427h711l-32 -152h-711z" />
    <glyph glyph-name="Gstroke" unicode="&#x1e4;" horiz-adv-x="1690" 
d="M884 284l43 201h314q15 29 26 60h-341l53 246h614l-65 -306h229l-43 -201h-229l-60 -284h-204l8 184q-112 -105 -192 -148q-138 -75 -316 -75q-293 0 -437 203q-151 204 -76 558q76 358 319 574t567 216q281 0 421 -142.5t120 -355.5h-303q-3 151 -126 211
q-69 33 -162 33q-178 0 -321 -134.5t-201 -404.5q-57 -272 42.5 -385t257.5 -113q130 0 235 63h-173z" />
    <glyph glyph-name="gstroke" unicode="&#x1e5;" horiz-adv-x="1407" 
d="M896 1091q95 -43 135 -158l33 157h277l-94 -445h266l-43 -201h-266l-83 -388q-44 -211 -138 -318q-161 -184 -507 -184q-209 0 -323.5 82t-94.5 245h310q2 -50 24 -72q38 -39 147 -39q154 0 228 103q48 66 81 222l15 70q-56 -70 -111 -105q-99 -65 -235 -65
q-210 0 -304 147.5t-40 399.5q51 243 207.5 408.5t378.5 165.5q82 0 137 -25zM640 444l43 201h277q4 87 -28 141q-48 81 -158 81q-150 0 -237 -141q-46 -75 -70 -185q-20 -95 -3 -169q28 -138 178 -138q100 0 185 75q55 49 89 135h-276z" />
    <glyph glyph-name="Gcaron" unicode="&#x1e6;" horiz-adv-x="1593" 
d="M1362 1014q-3 151 -126 211q-69 33 -162 33q-178 0 -321 -134.5t-201 -404.5q-57 -272 42.5 -385t257.5 -113q155 0 273.5 89.5t171.5 234.5h-341l53 246h614l-168 -791h-204l8 184q-112 -105 -192 -148q-138 -75 -316 -75q-293 0 -437 203q-151 204 -76 558
q76 358 319 574t567 216q281 0 421 -142.5t120 -355.5h-303zM1054 1643l-171 299h232l95 -169l166 169h232l-298 -299h-256z" />
    <glyph glyph-name="gcaron" unicode="&#x1e7;" 
d="M955 550q33 155 -15 236t-158 81q-150 0 -237 -141q-46 -75 -70 -185q-20 -95 -3 -169q28 -138 178 -138q100 0 185 75.5t120 240.5zM904 1091q95 -43 135 -158l33 157h277l-220 -1034q-44 -211 -138 -318q-161 -184 -507 -184q-209 0 -323.5 82t-94.5 245h310
q2 -50 24 -72q38 -39 147 -39q154 0 228 103q48 66 81 222l15 70q-56 -70 -111 -105q-99 -65 -235 -65q-210 0 -304 147.5t-40 399.5q51 243 207.5 408.5t378.5 165.5q82 0 137 -25zM694 1232l-171 299h232l95 -169l166 169h232l-298 -299h-256z" />
    <glyph glyph-name="Kcaron" unicode="&#x1e8;" horiz-adv-x="1479" 
d="M474 1474h303l-129 -607l698 607h398l-733 -607l451 -867h-396l-319 644l-179 -151l-104 -493h-303zM946 1590l-171 299h232l95 -169l166 169h232l-298 -299h-256z" />
    <glyph glyph-name="kcaron" unicode="&#x1e9;" horiz-adv-x="1139" 
d="M442 1469h280l-169 -794l442 410h353l-470 -417l255 -668h-344l-162 466l-145 -123l-72 -343h-280zM873 1536l-171 299h232l95 -169l166 169h232l-298 -299h-256z" />
    <glyph glyph-name="Oogonek" unicode="&#x1ea;" horiz-adv-x="1593" 
d="M1363 739q52 248 -26.5 383.5t-261.5 135.5t-320.5 -135t-190.5 -384t27 -384t263 -135t319.5 135t189.5 384zM1318 131q-203 -172 -519 -172t-447 172q-179 211 -94 608q86 405 353 608q203 172 519 172t447 -172q180 -203 94 -608q-85 -397 -353 -608zM941 -26l-78 -48
q-79 -50 -120 -86t-50 -80q-10 -46 17.5 -72.5t76.5 -26.5q22 0 47.5 6t58.5 17l-31 -144q-48 -17 -80 -24q-57 -13 -125 -13q-105 0 -159 58.5t-38 139.5q20 91 120 168q59 45 181 105h180z" />
    <glyph glyph-name="oogonek" unicode="&#x1eb;" 
d="M996 543q35 164 -13.5 252.5t-173.5 88.5t-211 -88.5t-121 -252.5t13.5 -253t173.5 -89t211 89t121 253zM614 -38q-281 0 -382.5 170.5t-50.5 410.5q50 236 225 409t456 173t382 -173t51 -409q-51 -240 -225.5 -410.5t-455.5 -170.5zM715 -28l-78 -48q-79 -50 -120 -86
t-50 -80q-10 -46 17.5 -72.5t76.5 -26.5q22 0 47.5 6t58.5 17l-31 -144q-48 -17 -80 -24q-57 -13 -125 -13q-105 0 -159 58.5t-38 139.5q20 91 120 168q59 45 181 105h180z" />
    <glyph glyph-name="Oogonekmacron" unicode="&#x1ec;" horiz-adv-x="1593" 
d="M1363 739q52 248 -26.5 383.5t-261.5 135.5t-320.5 -135t-190.5 -384t27 -384t263 -135t319.5 135t189.5 384zM1318 131q-203 -172 -519 -172t-447 172q-179 211 -94 608q86 405 353 608q203 172 519 172t447 -172q180 -203 94 -608q-85 -397 -353 -608zM942 -35l-78 -48
q-79 -50 -120 -86t-50 -80q-10 -46 17.5 -72.5t76.5 -26.5q22 0 47.5 6t58.5 17l-31 -144q-48 -17 -80 -24q-57 -13 -125 -13q-105 0 -159 58.5t-38 139.5q20 91 120 168q59 45 181 105h180zM896 1802h711l-32 -152h-711z" />
    <glyph glyph-name="oogonekmacron" unicode="&#x1ed;" 
d="M996 543q35 164 -13.5 252.5t-173.5 88.5t-211 -88.5t-121 -252.5t13.5 -253t173.5 -89t211 89t121 253zM614 -38q-281 0 -382.5 170.5t-50.5 410.5q50 236 225 409t456 173t382 -173t51 -409q-51 -240 -225.5 -410.5t-455.5 -170.5zM720 -28l-78 -48q-79 -50 -120 -86
t-50 -80q-10 -46 17.5 -72.5t76.5 -26.5q22 0 47.5 6t58.5 17l-31 -144q-48 -17 -80 -24q-57 -13 -125 -13q-105 0 -159 58.5t-38 139.5q20 91 120 168q59 45 181 105h180zM601 1409h711l-32 -152h-711z" />
    <glyph glyph-name="Ezhcaron" unicode="&#x1ee;" horiz-adv-x="1190" 
d="M991 1208h-680l57 266h1090l-48 -225l-369 -316q82 -39 131 -113q121 -76 61 -357q-53 -249 -251.5 -365t-461.5 -116t-358 187q-59 116 -41 246h291q-10 -86 20.5 -140t130.5 -54q141 0 244.5 64.5t128.5 184.5q27 126 15 202q-36 46 -151 61l-2 -2l-373 2zM837 1637
l-171 299h232l95 -169l166 169h232l-298 -299h-256z" />
    <glyph glyph-name="ezhcaron" unicode="&#x1ef;" horiz-adv-x="1092" 
d="M344 344l272 -2l3 2q114 -15 151 -61q8 -91 -18 -217q-26 -120 -96 -193.5t-211 -73.5q-100 0 -115.5 54t-6.5 140h-291q-18 -130 42 -246q54 -187 317 -187t433.5 125t223.5 374q60 281 -58 372q-49 74 -131 113l369 316l48 225h-990l-56 -266h580zM703 1237l-171 299
h232l95 -169l166 169h232l-298 -299h-256z" />
    <glyph glyph-name="jcaron" unicode="&#x1f0;" horiz-adv-x="569" 
d="M-35 -209q24 -2 33 -2.5t17 -0.5q42 0 68 20.5t39 79.5l254 1197h285l-255 -1202q-35 -165 -117 -244t-272 -79q-13 0 -38 1t-62 2zM425 1238l-171 299h232l95 -169l166 169h232l-298 -299h-256z" />
    <glyph glyph-name="DZ" unicode="&#x1f1;" horiz-adv-x="2572" 
d="M664 1218l-204 -962h284q218 0 350 215q72 118 106 281q48 225 3 345.5t-255 120.5h-284zM1276 1442q144 -51 211 -187q54 -110 54.5 -238t-23.5 -244q-63 -294 -224 -498q-218 -275 -552 -275h-635l313 1474h635q136 -2 221 -32zM1418 260l963 953h-742l56 261h1126
l-53 -247l-976 -967h773l-55 -260h-1147z" />
    <glyph glyph-name="Dz" unicode="&#x1f2;" horiz-adv-x="2361" 
d="M659 1218l-204 -962h284q218 0 350 215q72 118 106 281q48 225 3 345.5t-255 120.5h-284zM1271 1442q144 -51 211 -187q54 -110 54.5 -238t-23.5 -244q-63 -294 -224 -498q-218 -275 -552 -275h-635l313 1474h635q136 -2 221 -32zM1579 858l49 232h884l-50 -237
l-685 -619h572l-49 -234h-941l47 222l694 636h-521z" />
    <glyph glyph-name="dz" unicode="&#x1f3;" horiz-adv-x="2219" 
d="M1038 952l110 520h289l-312 -1472h-277l32 151q-82 -97 -169.5 -141t-203.5 -44q-191 0 -288.5 154.5t-46.5 396.5q60 279 222.5 439t377.5 160q99 0 166.5 -43.5t99.5 -120.5zM956 529q42 200 -40 286q-51 52 -133 52q-125 0 -203.5 -94.5t-108.5 -234.5
q-32 -151 8 -241.5t161 -90.5t203.5 90t112.5 233zM1448 869l49 232h884l-50 -237l-685 -619h572l-49 -234h-941l47 222l694 636h-521z" />
    <glyph glyph-name="Gacute" unicode="&#x1f4;" horiz-adv-x="1593" 
d="M1362 1014q-3 151 -126 211q-69 33 -162 33q-178 0 -321 -134.5t-201 -404.5q-57 -272 42.5 -385t257.5 -113q155 0 273.5 89.5t171.5 234.5h-341l53 246h614l-168 -791h-204l8 184q-112 -105 -192 -148q-138 -75 -316 -75q-293 0 -437 203q-151 204 -76 558
q76 358 319 574t567 216q281 0 421 -142.5t120 -355.5h-303zM1671 1955l-368 -299h-206l256 299h318z" />
    <glyph glyph-name="gacute" unicode="&#x1f5;" 
d="M955 550q33 155 -15 236t-158 81q-150 0 -237 -141q-46 -75 -70 -185q-20 -95 -3 -169q28 -138 178 -138q100 0 185 75.5t120 240.5zM904 1091q95 -43 135 -158l33 157h277l-220 -1034q-44 -211 -138 -318q-161 -184 -507 -184q-209 0 -323.5 82t-94.5 245h310
q2 -50 24 -72q38 -39 147 -39q154 0 228 103q48 66 81 222l15 70q-56 -70 -111 -105q-99 -65 -235 -65q-210 0 -304 147.5t-40 399.5q51 243 207.5 408.5t378.5 165.5q82 0 137 -25zM1237 1523l-368 -299h-206l256 299h318z" />
    <glyph glyph-name="Wynn" unicode="&#x1f7;" horiz-adv-x="1366" 
d="M1014 1218h-287l-156 -734l330 200q124 70 199 138t99 183q25 115 -25.5 164t-159.5 49zM873 430l-356 -200l-48 -230h-306l313 1474h642q222 0 329.5 -114t57.5 -353q-56 -261 -209 -359t-423 -218z" />
    <glyph glyph-name="Ngrave" unicode="&#x1f8;" horiz-adv-x="1479" 
d="M464 1474h323l368 -1029l219 1029h287l-313 -1474h-308l-380 1047l-222 -1047h-287zM1254 1582h-206l-239 299h317z" />
    <glyph glyph-name="ngrave" unicode="&#x1f9;" 
d="M1277 734l-156 -734h-292l140 663q19 86 5 132q-24 84 -142 84q-145 0 -225 -123q-42 -65 -63 -166l-125 -590h-284l231 1088h275l-34 -159q73 84 130 121q102 66 237 66q169 0 257.5 -88.5t45.5 -293.5zM1121 1276h-206l-239 299h317z" />
    <glyph glyph-name="Aringacute" unicode="&#x1fa;" horiz-adv-x="1479" 
d="M677 557h374l-61 580zM891 1474h348l209 -1474h-334l-31 303h-543l-166 -303h-322zM1103 1666q49 0 91 34.5t52 83.5q11 49 -16 84t-76 35t-91.5 -35t-53.5 -84q-10 -49 17.5 -83.5t76.5 -34.5zM1175 2002q90 0 140 -64t31 -154t-96.5 -154t-167.5 -64t-140.5 64
t-31.5 154t97 154t168 64zM1669 2407l-368 -299h-206l256 299h318z" />
    <glyph glyph-name="aringacute" unicode="&#x1fb;" horiz-adv-x="1139" 
d="M846 530q-30 -17 -60 -27.5t-80 -19.5l-66 -12q-94 -16 -138 -39q-74 -39 -91 -121q-16 -73 17.5 -105.5t91.5 -32.5q92 0 181 54t123 197zM701 663q82 10 119 25q66 26 78 81q14 67 -27 92.5t-131 25.5q-101 0 -154 -50q-37 -37 -61 -100h-275q40 143 130 235
q144 144 419 144q179 0 303 -71t82 -268l-107 -500q-11 -52 -24 -126q-9 -56 0.5 -76t34.5 -33l-8 -42h-310q-6 33 -5 62t6 66q-73 -64 -159 -109q-104 -53 -220 -53q-148 0 -226.5 84.5t-45.5 239.5q43 201 217 291q95 49 265 70zM894 1327q49 0 91 34.5t52 83.5
q11 49 -16 84t-76 35t-91.5 -35t-53.5 -84q-10 -49 17.5 -83.5t76.5 -34.5zM966 1663q90 0 140 -64t31 -154t-96.5 -154t-167.5 -64t-140.5 64t-31.5 154t97 154t168 64zM1464 2073l-368 -299h-206l256 299h318z" />
    <glyph glyph-name="AEacute" unicode="&#x1fc;" horiz-adv-x="2048" 
d="M1144 1218h-133l-368 -664h360zM866 1469h1394l-55 -256h-759l-67 -317h683l-54 -252h-683l-81 -384h773l-55 -260h-1076l66 312h-441l-173 -312h-320zM1844 1916l-368 -299h-206l256 299h318z" />
    <glyph glyph-name="aeacute" unicode="&#x1fd;" horiz-adv-x="1821" 
d="M1594 658q16 105 -24 167.5t-147 62.5q-108 0 -176 -56.5t-99 -173.5h446zM854 521q-24 -15 -42.5 -21.5t-79.5 -18.5l-114 -22q-98 -19 -135 -41q-61 -36 -79 -119q-10 -47 16.5 -88t110.5 -41q87 0 151 32q117 58 149 210zM739 661q70 10 105 27q53 26 64 78
q17 79 -57 108q-40 15 -112 15q-110 0 -166 -62q-30 -33 -45 -93h-278q58 225 254 318q130 62 311 62q129 0 219 -44q50 -24 99 -73q72 52 158 84.5t190 32.5q332 0 391 -273q31 -145 -21 -367h-746q-24 -113 -10 -173q27 -110 169 -110q80 0 145 27.5t110 108.5h289
q-33 -100 -142 -200q-177 -163 -440 -163q-135 0 -220.5 51t-121.5 131q-95 -95 -207.5 -139t-246.5 -44q-202 0 -271.5 98t-40.5 234q40 185 195 270q85 46 245 70zM1559 1553l-368 -299h-206l256 299h318z" />
    <glyph glyph-name="Ostrokeacute" unicode="&#x1fe;" horiz-adv-x="1593" 
d="M1242 1218q-63 40 -170 40q-214 0 -337 -141.5t-173 -377.5q-21 -98 -21 -180q0 -48 11 -119l781 697q-29 47 -91 81zM851 220q214 0 342 161t170 358q14 66 19 128q7 95 -7 164l-775 -690q45 -66 110 -93.5t141 -27.5zM1570 1348l202 178l68 -81l-208 -187
q41 -69 61 -192q18 -128 -24 -327q-74 -346 -318 -565q-239 -215 -555 -215q-122 0 -235.5 37.5t-202.5 131.5l-215 -185l-68 80l223 190q-42 78 -60 197q-22 142 18 329q73 346 344 594q227 186 527 186q131 0 247.5 -44t195.5 -127zM1568 1961l-368 -299h-206l256 299h318
z" />
    <glyph glyph-name="ostrokeacute" unicode="&#x1ff;" 
d="M887 872q-41 12 -82 12q-119 0 -206.5 -89.5t-120.5 -245.5q-10 -49 -13.5 -98t6.5 -84l508 441q-26 44 -92 64zM562 223q41 -24 111 -24q123 0 207 96t115 244q11 50 13 81.5t2 97.5l-506 -439q33 -41 58 -56zM602 -41q-132 0 -226 44q-53 25 -108 77l-166 -142l-60 62
l172 144q-49 93 -50.5 200.5t17.5 197.5q53 250 234.5 416.5t425.5 166.5q142 0 223.5 -30.5t142.5 -92.5l169 145l57 -67l-175 -149q48 -87 53.5 -185.5t-14.5 -193.5q-56 -264 -242.5 -428.5t-452.5 -164.5zM1280 1594l-368 -299h-206l256 299h318z" />
    <glyph glyph-name="Adblgrave" unicode="&#x200;" horiz-adv-x="1479" 
d="M677 557h374l-61 580zM891 1474h348l209 -1474h-334l-31 303h-543l-166 -303h-322zM971 1610h-196l-182 292h291zM1323 1902l86 -292h-195l-182 292h291z" />
    <glyph glyph-name="adblgrave" unicode="&#x201;" horiz-adv-x="1139" 
d="M846 530q-30 -17 -60 -27.5t-80 -19.5l-66 -12q-94 -16 -138 -39q-74 -39 -91 -121q-16 -73 17.5 -105.5t91.5 -32.5q92 0 181 54t123 197zM701 663q82 10 119 25q66 26 78 81q14 67 -27 92.5t-131 25.5q-101 0 -154 -50q-37 -37 -61 -100h-275q40 143 130 235
q144 144 419 144q179 0 303 -71t82 -268l-107 -500q-11 -52 -24 -126q-9 -56 0.5 -76t34.5 -33l-8 -42h-310q-6 33 -5 62t6 66q-73 -64 -159 -109q-104 -53 -220 -53q-148 0 -226.5 84.5t-45.5 239.5q43 201 217 291q95 49 265 70zM746 1284h-196l-182 292h291zM1098 1576
l86 -292h-195l-182 292h291z" />
    <glyph glyph-name="Ainvertedbreve" unicode="&#x202;" horiz-adv-x="1479" 
d="M677 557h374l-61 580zM891 1474h348l209 -1474h-334l-31 303h-543l-166 -303h-322zM1136 1875q154 0 227 -72.5t55 -225.5h-135q5 92 -70 125q-42 19 -110 19t-118 -19q-89 -33 -122 -125h-135q45 153 149.5 225.5t258.5 72.5z" />
    <glyph glyph-name="ainvertedbreve" unicode="&#x203;" horiz-adv-x="1139" 
d="M846 530q-30 -17 -60 -27.5t-80 -19.5l-66 -12q-94 -16 -138 -39q-74 -39 -91 -121q-16 -73 17.5 -105.5t91.5 -32.5q92 0 181 54t123 197zM701 663q82 10 119 25q66 26 78 81q14 67 -27 92.5t-131 25.5q-101 0 -154 -50q-37 -37 -61 -100h-275q40 143 130 235
q144 144 419 144q179 0 303 -71t82 -268l-107 -500q-11 -52 -24 -126q-9 -56 0.5 -76t34.5 -33l-8 -42h-310q-6 33 -5 62t6 66q-73 -64 -159 -109q-104 -53 -220 -53q-148 0 -226.5 84.5t-45.5 239.5q43 201 217 291q95 49 265 70zM901 1558q154 0 227 -72.5t55 -225.5h-135
q5 92 -70 125q-42 19 -110 19t-118 -19q-89 -33 -122 -125h-135q45 153 149.5 225.5t258.5 72.5z" />
    <glyph glyph-name="Edblgrave" unicode="&#x204;" horiz-adv-x="1366" 
d="M1503 1213h-780l-66 -313h716l-55 -256h-716l-80 -379h816l-56 -265h-1117l313 1474h1081zM949 1619h-196l-182 292h291zM1301 1911l86 -292h-195l-182 292h291z" />
    <glyph glyph-name="edblgrave" unicode="&#x205;" horiz-adv-x="1139" 
d="M480 654h443q17 113 -32.5 171.5t-140.5 58.5q-99 0 -166.5 -62t-103.5 -168zM1180 907q44 -97 35 -225q-4 -75 -36 -216h-746q-29 -164 54 -230q50 -41 133 -41q88 0 154 50q35 27 69 75h291q-32 -97 -143 -197q-174 -159 -426 -159q-208 0 -338.5 134t-66.5 436
q60 283 235.5 434t404.5 151q136 0 234.5 -51t145.5 -161zM732 1274h-196l-182 292h291zM1084 1566l86 -292h-195l-182 292h291z" />
    <glyph glyph-name="Einvertedbreve" unicode="&#x206;" horiz-adv-x="1366" 
d="M1503 1213h-780l-66 -313h716l-55 -256h-716l-80 -379h816l-56 -265h-1117l313 1474h1081zM1114 1913q154 0 227 -72.5t55 -225.5h-135q5 92 -70 125q-42 19 -110 19t-118 -19q-89 -33 -122 -125h-135q45 153 149.5 225.5t258.5 72.5z" />
    <glyph glyph-name="einvertedbreve" unicode="&#x207;" horiz-adv-x="1139" 
d="M480 654h443q17 113 -32.5 171.5t-140.5 58.5q-99 0 -166.5 -62t-103.5 -168zM1180 907q44 -97 35 -225q-4 -75 -36 -216h-746q-29 -164 54 -230q50 -41 133 -41q88 0 154 50q35 27 69 75h291q-32 -97 -143 -197q-174 -159 -426 -159q-208 0 -338.5 134t-66.5 436
q60 283 235.5 434t404.5 151q136 0 234.5 -51t145.5 -161zM920 1567q154 0 227 -72.5t55 -225.5h-135q5 92 -70 125q-42 19 -110 19t-118 -19q-89 -33 -122 -125h-135q45 153 149.5 225.5t258.5 72.5z" />
    <glyph glyph-name="Idblgrave" unicode="&#x208;" horiz-adv-x="569" 
d="M438 0h-306l313 1474h306zM525 1643h-196l-182 292h291zM877 1935l86 -292h-195l-182 292h291z" />
    <glyph glyph-name="idblgrave" unicode="&#x209;" horiz-adv-x="569" 
d="M368 1090h289l-231 -1090h-289zM482 1285h-196l-182 292h291zM834 1577l86 -292h-195l-182 292h291z" />
    <glyph glyph-name="Iinvertedbreve" unicode="&#x20a;" horiz-adv-x="569" 
d="M438 0h-306l313 1474h306zM692 1942q154 0 227 -72.5t55 -225.5h-135q5 92 -70 125q-42 19 -110 19t-118 -19q-89 -33 -122 -125h-135q45 153 149.5 225.5t258.5 72.5z" />
    <glyph glyph-name="iinvertedbreve" unicode="&#x20b;" horiz-adv-x="569" 
d="M368 1090h289l-231 -1090h-289zM619 1575q154 0 227 -72.5t55 -225.5h-135q5 92 -70 125q-42 19 -110 19t-118 -19q-89 -33 -122 -125h-135q45 153 149.5 225.5t258.5 72.5z" />
    <glyph glyph-name="Odblgrave" unicode="&#x20c;" horiz-adv-x="1593" 
d="M1363 739q52 248 -26.5 383.5t-261.5 135.5t-320.5 -135t-190.5 -384t27 -384t263 -135t319.5 135t189.5 384zM1318 131q-203 -172 -519 -172t-447 172q-179 211 -94 608q86 405 353 608q203 172 519 172t447 -172q180 -203 94 -608q-85 -397 -353 -608zM1000 1669h-196
l-182 292h291zM1352 1961l86 -292h-195l-182 292h291z" />
    <glyph glyph-name="odblgrave" unicode="&#x20d;" 
d="M996 543q35 164 -13.5 252.5t-173.5 88.5t-211 -88.5t-121 -252.5t13.5 -253t173.5 -89t211 89t121 253zM614 -38q-281 0 -382.5 170.5t-50.5 410.5q50 236 225 409t456 173t382 -173t51 -409q-51 -240 -225.5 -410.5t-455.5 -170.5zM743 1276h-196l-182 292h291z
M1095 1568l86 -292h-195l-182 292h291z" />
    <glyph glyph-name="Oinvertedbreve" unicode="&#x20e;" horiz-adv-x="1593" 
d="M1363 739q52 248 -26.5 383.5t-261.5 135.5t-320.5 -135t-190.5 -384t27 -384t263 -135t319.5 135t189.5 384zM1318 131q-203 -172 -519 -172t-447 172q-179 211 -94 608q86 405 353 608q203 172 519 172t447 -172q180 -203 94 -608q-85 -397 -353 -608zM1218 1957
q154 0 227 -72.5t55 -225.5h-135q5 92 -70 125q-42 19 -110 19t-118 -19q-89 -33 -122 -125h-135q45 153 149.5 225.5t258.5 72.5z" />
    <glyph glyph-name="oinvertedbreve" unicode="&#x20f;" 
d="M996 543q35 164 -13.5 252.5t-173.5 88.5t-211 -88.5t-121 -252.5t13.5 -253t173.5 -89t211 89t121 253zM614 -38q-281 0 -382.5 170.5t-50.5 410.5q50 236 225 409t456 173t382 -173t51 -409q-51 -240 -225.5 -410.5t-455.5 -170.5zM942 1573q154 0 227 -72.5t55 -225.5
h-135q5 92 -70 125q-42 19 -110 19t-118 -19q-89 -33 -122 -125h-135q45 153 149.5 225.5t258.5 72.5z" />
    <glyph glyph-name="Rdblgrave" unicode="&#x210;" horiz-adv-x="1479" 
d="M722 1218l-84 -396h349q104 0 161 24q101 42 128 166q28 134 -51 180q-45 26 -145 26h-358zM1549 1333q36 -56 49.5 -124t-4.5 -155q-23 -105 -97.5 -206.5t-205.5 -143.5q93 -41 119.5 -116.5t-6.5 -230.5l-21 -99q-21 -101 -21 -137q0 -57 38 -84l-7 -37h-339
q-4 49 -4 79q1 62 14 127l27 137q28 141 -11.5 188t-175.5 47h-318l-122 -578h-301l313 1474h723q154 -3 230 -38t120 -103zM963 1617h-196l-182 292h291zM1315 1909l86 -292h-195l-182 292h291z" />
    <glyph glyph-name="rdblgrave" unicode="&#x211;" horiz-adv-x="797" 
d="M999 1114l-62 -292q-26 3 -47 4t-34 1q-172 0 -255 -112q-46 -63 -74 -194l-110 -521h-287l231 1090h272l-40 -190q89 109 146 149q95 67 223 67q8 0 13.5 -0.5t23.5 -1.5zM574 1305h-196l-182 292h291zM926 1597l86 -292h-195l-182 292h291z" />
    <glyph glyph-name="Rinvertedbreve" unicode="&#x212;" horiz-adv-x="1479" 
d="M722 1218l-84 -396h349q104 0 161 24q101 42 128 166q28 134 -51 180q-45 26 -145 26h-358zM1549 1333q36 -56 49.5 -124t-4.5 -155q-23 -105 -97.5 -206.5t-205.5 -143.5q93 -41 119.5 -116.5t-6.5 -230.5l-21 -99q-21 -101 -21 -137q0 -57 38 -84l-7 -37h-339
q-4 49 -4 79q1 62 14 127l27 137q28 141 -11.5 188t-175.5 47h-318l-122 -578h-301l313 1474h723q154 -3 230 -38t120 -103zM1101 1891q154 0 227 -72.5t55 -225.5h-135q5 92 -70 125q-42 19 -110 19t-118 -19q-89 -33 -122 -125h-135q45 153 149.5 225.5t258.5 72.5z" />
    <glyph glyph-name="rinvertedbreve" unicode="&#x213;" horiz-adv-x="797" 
d="M999 1114l-62 -292q-26 3 -47 4t-34 1q-172 0 -255 -112q-46 -63 -74 -194l-110 -521h-287l231 1090h272l-40 -190q89 109 146 149q95 67 223 67q8 0 13.5 -0.5t23.5 -1.5zM763 1575q154 0 227 -72.5t55 -225.5h-135q5 92 -70 125q-42 19 -110 19t-118 -19
q-89 -33 -122 -125h-135q45 153 149.5 225.5t258.5 72.5z" />
    <glyph glyph-name="Udblgrave" unicode="&#x214;" horiz-adv-x="1479" 
d="M469 1474h313l-193 -906q-32 -152 -11 -222q30 -124 218 -124q187 0 269 124q51 70 83 222l193 906h313l-193 -906q-50 -235 -151 -366q-187 -240 -570 -240t-469 240q-45 131 5 366zM1027 1623h-196l-182 292h291zM1379 1915l86 -292h-195l-182 292h291z" />
    <glyph glyph-name="udblgrave" unicode="&#x215;" 
d="M648 1090l-139 -657q-20 -93 -8 -140q21 -83 135 -83q146 0 225 118q42 64 64 169l126 593h289l-231 -1090h-277l32 154q-5 -5 -26 -30t-47 -44q-80 -60 -147.5 -82t-151.5 -22q-242 0 -289 174q-26 96 14 283l139 657h292zM785 1279h-196l-182 292h291zM1137 1571
l86 -292h-195l-182 292h291z" />
    <glyph glyph-name="Uinvertedbreve" unicode="&#x216;" horiz-adv-x="1479" 
d="M469 1474h313l-193 -906q-32 -152 -11 -222q30 -124 218 -124q187 0 269 124q51 70 83 222l193 906h313l-193 -906q-50 -235 -151 -366q-187 -240 -570 -240t-469 240q-45 131 5 366zM1158 1913q154 0 227 -72.5t55 -225.5h-135q5 92 -70 125q-42 19 -110 19t-118 -19
q-89 -33 -122 -125h-135q45 153 149.5 225.5t258.5 72.5z" />
    <glyph glyph-name="uinvertedbreve" unicode="&#x217;" 
d="M648 1090l-139 -657q-20 -93 -8 -140q21 -83 135 -83q146 0 225 118q42 64 64 169l126 593h289l-231 -1090h-277l32 154q-5 -5 -26 -30t-47 -44q-80 -60 -147.5 -82t-151.5 -22q-242 0 -289 174q-26 96 14 283l139 657h292zM954 1567q154 0 227 -72.5t55 -225.5h-135
q5 92 -70 125q-42 19 -110 19t-118 -19q-89 -33 -122 -125h-135q45 153 149.5 225.5t258.5 72.5z" />
    <glyph glyph-name="Scommaaccent" unicode="&#x218;" horiz-adv-x="1366" 
d="M475 455q-7 -101 23 -151q56 -91 238 -91q109 0 182 24q139 46 165 171q16 73 -40 113q-55 39 -186 69l-149 35q-219 52 -294 113q-127 102 -81 319q42 198 214 329t451 131q233 0 371 -123.5t96 -358.5h-296q21 133 -75 189q-64 37 -171 37q-119 0 -200.5 -48
t-99.5 -134q-17 -79 45 -118q39 -26 179 -61l241 -61q158 -40 229 -107q110 -104 68 -301q-43 -202 -226 -335.5t-465 -133.5q-288 0 -425 131.5t-88 361.5h294zM356.6 -519.597q72.7988 19.1992 114.798 63.999q41.999 44.7988 64.3994 125.598h-138.398l50.3994 238.396
h246.396l-44 -206.396q-11.1992 -54.3994 -38.3994 -113.599q-27.1992 -59.1992 -75.1982 -102.398q-52.7998 -46.3994 -114.799 -69.999t-83.5986 -23.5996z" />
    <glyph glyph-name="scommaaccent" unicode="&#x219;" horiz-adv-x="1139" 
d="M428 348q-7 -76 17 -108q40 -57 183 -57q84 0 139 25t66 75q10 48 -25 73t-279 86q-175 46 -236 115q-62 68 -34 196q32 151 173.5 259.5t356.5 108.5q204 0 315 -81.5t88 -281.5h-285q5 55 -13 87q-35 58 -148 58q-93 0 -138.5 -29t-53.5 -68q-11 -49 27 -71
q37 -23 280 -79q161 -40 229 -121q67 -82 41 -205q-35 -162 -177 -264.5t-394 -102.5q-257 0 -356.5 108.5t-64.5 276.5h289zM253.73 -530.597q72.9766 19.1992 115.078 63.999q42.1016 44.7988 64.5566 125.598h-138.736l50.5225 238.396h246.998l-44.1074 -206.396
q-11.2266 -54.3994 -38.4932 -113.599q-27.2656 -59.1992 -75.3818 -102.398q-52.9287 -46.3994 -115.079 -69.999t-83.8027 -23.5996z" />
    <glyph glyph-name="Tcommaaccent" unicode="&#x21a;" 
d="M1540 1474l-56 -261h-441l-257 -1213h-310l257 1213h-443l56 261h1194zM332.6 -504.597q72.7988 19.1992 114.798 63.999q41.999 44.7988 64.3994 125.598h-138.398l50.3994 238.396h246.396l-44 -206.396q-11.1992 -54.3994 -38.3994 -113.599
q-27.1992 -59.1992 -75.1982 -102.398q-52.7998 -46.3994 -114.799 -69.999t-83.5986 -23.5996z" />
    <glyph glyph-name="tcommaaccent" unicode="&#x21b;" horiz-adv-x="682" 
d="M207 877l43 203h152l65 304h282l-65 -304h177l-43 -203h-177l-123 -576q-14 -67 -0.5 -83.5t100.5 -16.5q13 0 27.5 0.5t29.5 1.5l-46 -213l-136 -5q-203 -7 -261 70q-37 49 -16 151l143 671h-152zM120.6 -504.597q72.7988 19.1992 114.798 63.999
q41.999 44.7988 64.3994 125.598h-138.398l50.3994 238.396h246.396l-44 -206.396q-11.1992 -54.3994 -38.3994 -113.599q-27.1992 -59.1992 -75.1982 -102.398q-52.7998 -46.3994 -114.799 -69.999t-83.5986 -23.5996z" />
    <glyph glyph-name="Yogh" unicode="&#x21c;" horiz-adv-x="1359" 
d="M1171 727l1 3q-5 -2 -6 -3h5zM730 209q140 0 235 75q82 60 105 169q42 198 -240 198q-6 0 -23 -1t-37.5 -2t-42 -2.5t-35.5 -2.5l56 261q230 3 308 40q79 32 100 133q9 42 1.5 76t-30.5 58l-1 -2q-26 25 -69.5 39t-100.5 14q-58 0 -113.5 -23t-226.5 -165v1l-162 194
q215 171 327.5 209.5t240.5 38.5q242 0 355 -127q115 -124 71 -328q-32 -151 -188 -272q70 -51 98 -121q31 -88 2 -225q-21 -100 -81.5 -187.5t-149.5 -157.5q-95 -70 -203.5 -107t-226.5 -37q-137 0 -239 41t-270 120l243 178q170 -85 297 -85z" />
    <glyph glyph-name="yogh" unicode="&#x21d;" horiz-adv-x="1359" 
d="M1080 300l1 3q-5 -2 -6 -3h5zM639 -218q140 0 235 75q82 60 105 169q42 198 -240 198q-6 0 -22.5 -1t-37.5 -2t-42 -2.5t-36 -2.5l56 261q231 3 308 40q79 32 101 133q9 42 1 76t-31 58v-2q-27 25 -70.5 39t-100.5 14q-58 0 -113.5 -23t-226.5 -165v1l-162 194
q215 171 327.5 209.5t240.5 38.5q242 0 355 -127q115 -124 71 -328q-32 -151 -187 -272q69 -51 97 -121q31 -88 2 -225q-21 -100 -81 -187.5t-150 -157.5q-95 -70 -203.5 -107t-226.5 -37q-137 0 -238.5 41t-270.5 120l243 178q170 -85 297 -85z" />
    <glyph glyph-name="Hcaron" unicode="&#x21e;" horiz-adv-x="1479" 
d="M154 0l313 1474h305l-120 -562h576l120 562h306l-313 -1474h-306l139 658h-576l-139 -658h-305zM950 1586l-171 299h232l95 -169l166 169h232l-298 -299h-256z" />
    <glyph glyph-name="hcaron" unicode="&#x21f;" 
d="M1260 976q32 -61 28.5 -125.5t-34.5 -210.5l-136 -640h-291l140 663q19 88 1 142q-23 76 -132 76q-113 0 -187.5 -75.5t-104.5 -215.5l-125 -590h-284l312 1469h284l-111 -521q82 95 171.5 132.5t179.5 37.5q101 0 176 -35t113 -107zM878 1565l-171 299h232l95 -169
l166 169h232l-298 -299h-256z" />
    <glyph glyph-name="uni0220" unicode="&#x220;" horiz-adv-x="1479" 
d="M1248 -434h-313l277 1302q32 152 11 222q-29 124 -217 124q-187 0 -270 -124q-51 -70 -83 -222l-185 -870h-313l185 870l5 23l124 583h306l-10 -46q130 46 296 46q383 0 469 -240q45 -131 -5 -366z" />
    <glyph glyph-name="uni0226" unicode="&#x226;" horiz-adv-x="1479" 
d="M677 557h374l-61 580zM891 1474h348l209 -1474h-334l-31 303h-543l-166 -303h-322zM1006 1876h260l-51 -237h-260z" />
    <glyph glyph-name="uni0227" unicode="&#x227;" horiz-adv-x="1139" 
d="M846 530q-30 -17 -60 -27.5t-80 -19.5l-66 -12q-94 -16 -138 -39q-74 -39 -91 -121q-16 -73 17.5 -105.5t91.5 -32.5q92 0 181 54t123 197zM701 663q82 10 119 25q66 26 78 81q14 67 -27 92.5t-131 25.5q-101 0 -154 -50q-37 -37 -61 -100h-275q40 143 130 235
q144 144 419 144q179 0 303 -71t82 -268l-107 -500q-11 -52 -24 -126q-9 -56 0.5 -76t34.5 -33l-8 -42h-310q-6 33 -5 62t6 66q-73 -64 -159 -109q-104 -53 -220 -53q-148 0 -226.5 84.5t-45.5 239.5q43 201 217 291q95 49 265 70zM778 1503h260l-51 -237h-260z" />
    <glyph glyph-name="uni0228" unicode="&#x228;" horiz-adv-x="1366" 
d="M1503 1213h-780l-66 -313h716l-55 -256h-716l-80 -379h816l-56 -265h-1117l313 1474h1081zM907 -272q-20 -92 -106.5 -145.5t-204.5 -53.5q-51 0 -118 21q-30 10 -85 32l56 86q52 -17 72 -22q46 -12 76 -12q60 0 91.5 25.5t36.5 53.5q9 42 -16 59t-58 17q-19 0 -40 -4.5
t-48 -12.5l-103 117l230 111h109l-116 -131q34 7 48.5 9.5t30.5 2.5q81 0 120.5 -39.5t24.5 -113.5z" />
    <glyph glyph-name="uni0229" unicode="&#x229;" horiz-adv-x="1139" 
d="M480 654h443q17 113 -32.5 171.5t-140.5 58.5q-99 0 -166.5 -62t-103.5 -168zM1180 907q44 -97 35 -225q-4 -75 -36 -216h-746q-29 -164 54 -230q50 -41 133 -41q88 0 154 50q35 27 69 75h291q-32 -97 -143 -197q-174 -159 -426 -159q-208 0 -338.5 134t-66.5 436
q60 283 235.5 434t404.5 151q136 0 234.5 -51t145.5 -161zM742 -298q-20 -92 -106.5 -145.5t-204.5 -53.5q-51 0 -118 21q-30 10 -85 32l56 86q52 -17 72 -22q46 -12 76 -12q60 0 91.5 25.5t36.5 53.5q9 42 -16 59t-58 17q-19 0 -40 -4.5t-48 -12.5l-103 117l230 111h109
l-116 -131q34 7 48.5 9.5t30.5 2.5q81 0 120.5 -39.5t24.5 -113.5z" />
    <glyph glyph-name="uni022A" unicode="&#x22a;" horiz-adv-x="1593" 
d="M1363 739q52 248 -26.5 383.5t-261.5 135.5t-320.5 -135t-190.5 -384t27 -384t263 -135t319.5 135t189.5 384zM1318 131q-203 -172 -519 -172t-447 172q-179 211 -94 608q86 405 353 608q203 172 519 172t447 -172q180 -203 94 -608q-85 -397 -353 -608zM1267 1885h261
l-51 -237h-261zM867 1885h261l-51 -237h-261zM920 2180h711l-32 -152h-711z" />
    <glyph glyph-name="uni022B" unicode="&#x22b;" 
d="M996 543q35 164 -13.5 252.5t-173.5 88.5t-211 -88.5t-121 -252.5t13.5 -253t173.5 -89t211 89t121 253zM614 -38q-281 0 -382.5 170.5t-50.5 410.5q50 236 225 409t456 173t382 -173t51 -409q-51 -240 -225.5 -410.5t-455.5 -170.5zM1022 1496h261l-51 -237h-261z
M622 1496h261l-51 -237h-261zM636 1757h711l-32 -152h-711z" />
    <glyph glyph-name="uni022C" unicode="&#x22c;" horiz-adv-x="1593" 
d="M1363 739q52 248 -26.5 383.5t-261.5 135.5t-320.5 -135t-190.5 -384t27 -384t263 -135t319.5 135t189.5 384zM1318 131q-203 -172 -519 -172t-447 172q-179 211 -94 608q86 405 353 608q203 172 519 172t447 -172q180 -203 94 -608q-85 -397 -353 -608zM1228 1849
l86 -35q39 -14 51.5 -18t28.5 -4q48 0 72.5 25.5t41.5 60.5h133q-40 -105 -109 -176t-172 -71q-31 0 -84 15q-32 8 -60 18l-75 27q-16 6 -31.5 8.5t-31.5 2.5q-38 0 -66 -22q-29 -23 -48 -63h-130q44 103 91 156q84 95 210 95q27 0 51.5 -6t41.5 -13zM959 2173h711l-32 -152
h-711z" />
    <glyph glyph-name="uni022D" unicode="&#x22d;" 
d="M996 543q35 164 -13.5 252.5t-173.5 88.5t-211 -88.5t-121 -252.5t13.5 -253t173.5 -89t211 89t121 253zM614 -38q-281 0 -382.5 170.5t-50.5 410.5q50 236 225 409t456 173t382 -173t51 -409q-51 -240 -225.5 -410.5t-455.5 -170.5zM904 1497l86 -35q39 -14 51.5 -18
t28.5 -4q48 0 72.5 25.5t41.5 60.5h133q-40 -105 -109 -176t-172 -71q-31 0 -84 15q-32 8 -60 18l-75 27q-16 6 -31.5 8.5t-31.5 2.5q-38 0 -66 -22q-29 -23 -48 -63h-130q44 103 91 156q84 95 210 95q27 0 51.5 -6t41.5 -13zM630 1763h711l-32 -152h-711z" />
    <glyph glyph-name="uni022E" unicode="&#x22e;" horiz-adv-x="1593" 
d="M1363 739q52 248 -26.5 383.5t-261.5 135.5t-320.5 -135t-190.5 -384t27 -384t263 -135t319.5 135t189.5 384zM1318 131q-203 -172 -519 -172t-447 172q-179 211 -94 608q86 405 353 608q203 172 519 172t447 -172q180 -203 94 -608q-85 -397 -353 -608zM1123 1891h260
l-51 -237h-260z" />
    <glyph glyph-name="uni022F" unicode="&#x22f;" 
d="M996 543q35 164 -13.5 252.5t-173.5 88.5t-211 -88.5t-121 -252.5t13.5 -253t173.5 -89t211 89t121 253zM614 -38q-281 0 -382.5 170.5t-50.5 410.5q50 236 225 409t456 173t382 -173t51 -409q-51 -240 -225.5 -410.5t-455.5 -170.5zM816 1493h260l-51 -237h-260z" />
    <glyph glyph-name="uni0230" unicode="&#x230;" horiz-adv-x="1593" 
d="M1363 739q52 248 -26.5 383.5t-261.5 135.5t-320.5 -135t-190.5 -384t27 -384t263 -135t319.5 135t189.5 384zM1318 131q-203 -172 -519 -172t-447 172q-179 211 -94 608q86 405 353 608q203 172 519 172t447 -172q180 -203 94 -608q-85 -397 -353 -608zM1096 1903h260
l-51 -237h-260zM945 2163h711l-32 -152h-711z" />
    <glyph glyph-name="uni0231" unicode="&#x231;" 
d="M996 543q35 164 -13.5 252.5t-173.5 88.5t-211 -88.5t-121 -252.5t13.5 -253t173.5 -89t211 89t121 253zM614 -38q-281 0 -382.5 170.5t-50.5 410.5q50 236 225 409t456 173t382 -173t51 -409q-51 -240 -225.5 -410.5t-455.5 -170.5zM794 1501h260l-51 -237h-260z
M633 1745h711l-32 -152h-711z" />
    <glyph glyph-name="uni0232" unicode="&#x232;" horiz-adv-x="1366" 
d="M1310 1474h349l-689 -920l-117 -554h-308l117 554l-314 920h363l169 -642zM711 1767h711l-32 -152h-711z" />
    <glyph glyph-name="uni0233" unicode="&#x233;" horiz-adv-x="1139" 
d="M132 -209l36 -2q41 -2 80 3t69 23q29 17 62 71t31 66l-158 1138h317l67 -804l396 804h303l-602 -1072q-174 -310 -252.5 -384.5t-267.5 -74.5q-38 0 -61 0.5t-68 3.5zM529 1421h711l-32 -152h-711z" />
    <glyph glyph-name="dotlessj" unicode="&#x237;" horiz-adv-x="569" 
d="M-35 -209q24 -2 33 -2.5t17 -0.5q42 0 68 20.5t39 79.5l254 1197h285l-255 -1202q-35 -165 -117 -244t-272 -79q-13 0 -38 1t-62 2z" />
    <glyph glyph-name="uni0238" unicode="&#x238;" horiz-adv-x="1968" 
d="M2021 559q-54 -254 -209.5 -421t-370.5 -167q-135 0 -205 54q-42 31 -81 109l-28 -134h-281l30 144q-79 -92 -163 -134q-88 -44 -204 -44q-191 0 -288.5 154.5t-46.5 396.5q60 279 222.5 439t377.5 160q99 0 166.5 -43.5t99.5 -120.5l110 520h292l-111 -524
q70 76 144 116q87 50 206 50q215 0 303.5 -155t36.5 -400zM958 529q42 200 -40 286q-51 52 -133 52q-125 0 -203.5 -94.5t-108.5 -234.5q-32 -151 8 -241.5t161 -90.5t203 90q78 85 110 219zM1716 529q25 116 11 192q-27 144 -180 144q-155 0 -243 -141q-25 -41 -44 -96
l-38 -181q-6 -86 24 -149q42 -92 169 -92q110 0 190 89t111 234z" />
    <glyph glyph-name="uni0239" unicode="&#x239;" horiz-adv-x="1972" 
d="M2023 559q-61 -288 -222.5 -439t-365.5 -151q-130 0 -202 65q-40 36 -70 105l-121 -568h-10v-3h-282l120 567q-46 -66 -134.5 -117.5t-222.5 -51.5q-189 0 -290 151t-47 403q58 272 226 435t364 163q136 0 206 -67q41 -38 73 -125l35 162h3v2h273l-34 -161q61 71 122 112
q110 73 241 73q191 0 293.5 -141t44.5 -414zM881 336q58 83 85 210q21 100 4 179q-31 142 -184 142q-108 0 -191 -83t-119 -252q-24 -113 -10 -185q27 -137 179 -137q147 0 236 126zM1550 865q-155 0 -244 -147q-46 -78 -72 -198q-40 -190 44 -267q51 -45 133 -45
q119 0 201 92t114 245q27 126 -10 223t-166 97z" />
    <glyph glyph-name="uni023A" unicode="&#x23a;" horiz-adv-x="1479" 
d="M677 557h374l-61 580zM891 1474h348l209 -1474h-334l-31 303h-543l-166 -303h-322zM1427 1735h237l-987 -1951h-235z" />
    <glyph glyph-name="uni023B" unicode="&#x23b;" horiz-adv-x="1479" 
d="M1326 1729h237l-153 -302q104 -60 158 -169q66 -137 43 -275h-308q-7 102 -40 156l-465 -914h19q162 0 270 106q59 57 114 171h305q-91 -241 -287.5 -392t-453.5 -151q-52 0 -99 5l-88 -174h-235l119 234q-94 50 -154 139q-138 205 -62 562q82 386 333 595
q219 182 497 182q70 0 130 -9zM1032 1239q-168 0 -294 -135.5t-178 -383.5q-53 -248 22 -372q12 -19 26 -35l468 924q-21 2 -44 2z" />
    <glyph glyph-name="uni023C" unicode="&#x23c;" horiz-adv-x="1139" 
d="M1039 1319h237l-163 -276q13 -9 25 -19q112 -92 86 -325h-292q1 19 0 38l-316 -536h15q100 0 153.5 54t80.5 140h291q-37 -130 -146 -246q-174 -187 -437 -187q-51 0 -94 6l-99 -168h-235l141 240q-40 32 -66 78q-91 156 -38 405q59 281 229.5 437t411.5 156q49 0 92 -6z
M552 732q-44 -76 -71 -202q-24 -113 -15 -184l311 529q-143 -1 -225 -143z" />
    <glyph glyph-name="uni023D" unicode="&#x23d;" 
d="M1194 0h-1038l141 666l-172 -4l41 194h171l132 618h308l-132 -618h304l-39 -187l-305 -1l-85 -403h730z" />
    <glyph glyph-name="uni023E" unicode="&#x23e;" 
d="M1356 1729h237l-176 -255h123l-56 -261h-247l-281 -409l-170 -804h-310l32 153l-250 -363h-235l590 859l120 564h-443l56 261h835z" />
    <glyph glyph-name="uni0241" unicode="&#x241;" 
d="M622 1413q134 76 306 76q226 0 352.5 -108t81.5 -320q-28 -130 -112 -219q-49 -54 -175 -138l-83 -55q-67 -45 -99 -105q-20 -38 -128 -544h-270q132 595 171.5 659.5t165.5 148.5l85 57q42 27 71 59q52 55 66 121q16 76 -15.5 138.5t-149.5 62.5q-116 0 -180.5 -77
t-82.5 -160h-289q73 285 285 404z" />
    <glyph glyph-name="uni0242" unicode="&#x242;" 
d="M544 1049q135 76 307 76q226 0 352.5 -108t81.5 -320q-28 -130 -112 -219q-49 -54 -175 -138l-83 -55q-67 -45 -99 -105q1 62 -51 -180h-270q55 231 94.5 295.5t165.5 148.5l85 57q42 27 71 59q51 55 65 121q16 76 -15 138.5t-149 62.5q-116 0 -181 -77t-82 -160h-289
q72 285 284 404z" />
    <glyph glyph-name="uni0243" unicode="&#x243;" horiz-adv-x="1563" 
d="M1647 1317q48 -94 21 -225q-29 -135 -115 -217q-47 -46 -129 -84q104 -41 142.5 -130t11.5 -216q-28 -131 -116 -235q-57 -69 -130 -116q-82 -54 -182.5 -74t-213.5 -20h-668l74 349h-210l42 201h210l197 924h716q270 -4 350 -157zM884 550l-42 -201h-206l-20 -93h362
q97 0 156 26q109 48 138 184q24 115 -62 158q-48 24 -144 25h-367l-21 -99h206zM820 1218l-69 -325h362q97 0 165.5 36.5t88.5 129.5q21 103 -51 136q-65 23 -172 23h-324z" />
    <glyph glyph-name="uni0244" unicode="&#x244;" horiz-adv-x="1704" 
d="M1870 1050l-43 -201h-200l-60 -281q-50 -235 -151 -366q-187 -240 -570 -240t-469 240q-45 131 5 366l60 281h-205l43 201h205l90 424h313l-90 -424h559l90 424h313l-90 -424h200zM684 346q30 -124 218 -124q187 0 269 124q51 70 83 222l60 281h-559l-60 -281
q-32 -152 -11 -222z" />
    <glyph glyph-name="uni0245" unicode="&#x245;" horiz-adv-x="1366" 
d="M933 1119l-557 -1119h-329l811 1474h291l190 -1474h-320z" />
    <glyph glyph-name="uni0246" unicode="&#x246;" horiz-adv-x="1366" 
d="M1226 1729h237l-130 -255h226l-56 -261h-303l-158 -313h331l-55 -256h-407l-192 -379h619l-56 -265h-697l-107 -210h-235l107 210h-185l313 1474h619zM657 900h149l158 313h-241zM549 394l126 250h-73z" />
    <glyph glyph-name="uni0247" unicode="&#x247;" horiz-adv-x="1139" 
d="M1009 1319h237l-166 -281q65 -49 100 -131q44 -97 35 -225q-4 -75 -36 -216h-436l-159 -269q17 -2 36 -2q88 0 154 50q35 27 69 75h291q-32 -97 -143 -197q-174 -159 -426 -159q-59 0 -112 11l-103 -175h-235l153 260q-22 17 -42 38q-130 134 -66 436q60 283 235.5 434
t404.5 151q46 0 87 -6zM480 654h138l134 230h-2q-99 0 -166.5 -62t-103.5 -168zM429 334l78 132h-74q-14 -76 -4 -132zM923 654q9 65 -3 112l-66 -112h69z" />
    <glyph glyph-name="uni0248" unicode="&#x248;" horiz-adv-x="1139" 
d="M1372 1080l-43 -201h-153l-91 -431q-40 -188 -129 -298q-149 -186 -436 -186t-353 150.5t-11 410.5l7 34h291l-7 -34q-32 -171 -13.5 -240.5t128.5 -69.5q109 0 160 76q31 45 54 152l92 436h-169l43 201h169l84 394h308l-84 -394h153z" />
    <glyph glyph-name="uni0249" unicode="&#x249;" horiz-adv-x="569" 
d="M740 580l-43 -201h-186l-105 -496q-35 -165 -117 -244t-272 -79q-13 0 -38 1t-62 2l48 228q24 -2 33 -2.5t17 -0.5q42 0 68 20.5t39 79.5l104 491h-159l43 201h159l107 505h285l-107 -505h186zM690 1220h-285l56 263h285z" />
    <glyph glyph-name="uni024A" unicode="&#x24a;" horiz-adv-x="1688" 
d="M1603 -225q-15 -70 -29 -125q-6 -24 -11.5 -46.5t-10 -40t-8.5 -28.5t-6 -11q-287 0 -357 186q-42 110 -2 298l11 52q-176 -101 -419 -101q-316 0 -447 172q-178 211 -93 608q86 405 352 608q203 172 519 172q243 0 377 -102l12 57h308l-313 -1471q-23 -107 -11 -152
q19 -76 128 -76zM539 739q-53 -249 25.5 -384t261.5 -135t321 135q116 113 171 306l33 156q26 193 -41 306q-80 135 -263 135t-319.5 -135.5t-188.5 -383.5z" />
    <glyph glyph-name="uni024B" unicode="&#x24b;" horiz-adv-x="1349" 
d="M1221 -437q-39 -1 -64.5 -2t-38.5 -1q-190 0 -238 79t-13 244l27 128q-121 -49 -273 -49q-281 0 -382.5 170.5t-50.5 410.5q50 236 225 409t456 173q152 0 251 -51l2 11h285l-254 -1197q-13 -59 4 -79.5t59 -20.5q8 0 18.5 0.5t34.5 2.5zM487 543q-35 -164 13 -253
t173 -89t211.5 89t121.5 253t-14 252.5t-174 88.5t-210.5 -88.5t-120.5 -252.5z" />
    <glyph glyph-name="uni024C" unicode="&#x24c;" horiz-adv-x="1582" 
d="M1657 1333q36 -56 49.5 -124t-4.5 -155q-23 -105 -97.5 -206.5t-205.5 -143.5q93 -41 119.5 -116.5t-6.5 -230.5l-21 -99q-21 -101 -21 -137q0 -57 38 -84l-7 -37h-339q-4 49 -4 79q1 62 14 127l27 137q28 141 -11.5 188t-175.5 47h-318l-122 -578h-301l122 578h-212
l52 244h212l139 652h723q154 -3 230 -38t120 -103zM830 1218l-84 -396h349q104 0 161 24q101 42 128 166q28 134 -51 180q-45 26 -145 26h-358z" />
    <glyph glyph-name="uni024D" unicode="&#x24d;" horiz-adv-x="900" 
d="M869 550l-42 -201h-244l-74 -349h-287l74 349h-179l42 201h179l115 540h272l-40 -190q89 109 146 149q95 67 223 67q8 0 13.5 -0.5t23.5 -1.5l-62 -292q-26 3 -47 4t-34 1q-172 0 -255 -112q-40 -56 -68 -165h244z" />
    <glyph glyph-name="uni024E" unicode="&#x24e;" horiz-adv-x="1570" 
d="M1805 1270l-42 -201h-322l-386 -515l-117 -554h-308l117 554l-176 515h-308l42 201h197l-69 204h363l53 -204h409l137 204h349l-154 -204h215zM965 832l159 237h-221z" />
    <glyph glyph-name="uni024F" unicode="&#x24f;" horiz-adv-x="1353" 
d="M1492 770l-43 -201h-299l-309 -551q-174 -310 -252.5 -384.5t-267.5 -74.5q-38 0 -61 0.5t-68 3.5l48 228l36 -2q41 -2 80 3t69 23q29 17 62 71t31 66l-86 617h-253l43 201h182l-44 320h317l26 -320h279l158 320h303l-180 -320h229zM744 286l139 283h-163z" />
    <glyph glyph-name="aturned" unicode="&#x250;" horiz-adv-x="1139" 
d="M521 552q30 17 60 27.5t80 19.5l66 12q94 16 138 39q74 39 91 121q16 73 -17.5 105.5t-91.5 32.5q-92 0 -181 -54t-123 -197zM666 419q-82 -10 -119 -25q-66 -26 -78 -81q-14 -67 27 -92.5t131 -25.5q101 0 154 50q37 37 61 100h275q-40 -143 -130 -235
q-144 -144 -419 -144q-179 0 -303 71t-82 268l107 500q11 52 24 126q9 56 -0.5 76t-34.5 33l8 42h310q6 -33 5 -62t-6 -66q73 64 159 109q104 53 220 53q148 0 226.5 -84.5t45.5 -239.5q-43 -201 -217 -291q-95 -49 -265 -70z" />
    <glyph glyph-name="ascript" unicode="&#x251;" horiz-adv-x="1212" 
d="M991 958l25 117h287l-228 -1075h-295l27 131q-80 -80 -166 -118t-186 -38q-178 0 -252 178.5t-30 387.5q46 215 204 383t349 168q90 0 152.5 -32t112.5 -102zM759 868q-108 0 -189.5 -98t-109.5 -233q-29 -136 9.5 -234t148.5 -98q101 0 177 98t105 234q28 135 -5 233
t-136 98z" />
    <glyph glyph-name="ascriptturned" unicode="&#x252;" horiz-adv-x="1212" 
d="M368 108l-24 -117h-287l228 1075h295l-28 -131q80 80 166 118t186 38q178 0 252.5 -178.5t29.5 -387.5q-46 -215 -203.5 -383t-348.5 -168q-90 0 -152.5 32t-113.5 102zM601 198q108 0 189 98t110 233q29 136 -9.5 234t-148.5 98q-101 0 -177 -98t-105 -234
q-29 -135 4.5 -233t136.5 -98z" />
    <glyph glyph-name="uni0253" unicode="&#x253;" 
d="M811 1273q-23 2 -33 2.5t-18 0.5q-42 0 -68 -20.5t-39 -79.5l-13 -64h3l-35 -164q70 76 144 116q87 50 206 50q215 0 303.5 -155t36.5 -400q-54 -254 -209.5 -421t-370.5 -167q-135 0 -205 54q-42 32 -82 112l-29 -137h-279l176 829h-4l75 352q35 165 116.5 244t271.5 79
q13 0 38.5 -1t63.5 -2zM993 529q25 116 11 192q-27 144 -180 144q-155 0 -243 -141q-46 -75 -71 -194q-30 -140 12.5 -232t169.5 -92q110 0 190 89t111 234z" />
    <glyph glyph-name="oopen" unicode="&#x254;" horiz-adv-x="1139" 
d="M442 379q-5 -61 18 -110q34 -66 135 -66q144 0 227 143q44 76 71 202q25 120 13 193q-22 136 -163 136q-100 0 -153.5 -54t-80.5 -140h-291q37 130 146 246q174 187 437 187t353.5 -156t37.5 -405q-59 -281 -229.5 -437t-411.5 -156q-205 0 -315.5 92t-85.5 325h292z" />
    <glyph glyph-name="uni0256" unicode="&#x256;" horiz-adv-x="1323" 
d="M1168 -437q-39 -1 -64.5 -2t-38.5 -1q-190 0 -238 79t-13 244l54 254q-77 -87 -157 -127q-88 -44 -204 -44q-191 0 -288.5 154.5t-46.5 396.5q60 279 222.5 439t377.5 160q99 0 166.5 -43.5t99.5 -120.5l110 520h289l-312 -1472h-1l-24 -112q-13 -59 4 -79.5t59 -20.5
q8 0 18.5 0.5t34.5 2.5zM956 529q42 200 -40 286q-51 52 -133 52q-125 0 -203.5 -94.5t-108.5 -234.5q-32 -151 8 -241.5t161 -90.5t203.5 90t112.5 233z" />
    <glyph glyph-name="uni0257" unicode="&#x257;" 
d="M1532 1284q-23 2 -33 2.5t-18 0.5q-42 0 -68 -20.5t-38 -79.5l-16 -75h2l-236 -1112h-277l32 151q-82 -97 -169.5 -141t-203.5 -44q-191 0 -288.5 154.5t-46.5 396.5q60 279 222.5 439t377.5 160q99 0 166.5 -43.5t99.5 -120.5l34 160h2l17 80q35 165 117 244t272 79
q13 0 38 -1t63 -2zM956 529q42 200 -40 286q-51 52 -133 52q-125 0 -203.5 -94.5t-108.5 -234.5q-32 -151 8 -241.5t161 -90.5t203.5 90t112.5 233z" />
    <glyph glyph-name="ereversed" unicode="&#x258;" horiz-adv-x="1139" 
d="M928 654q8 106 -33.5 168t-140.5 62q-91 0 -164.5 -58.5t-104.5 -171.5h443zM334 907q95 110 214.5 161t255.5 51q229 0 340.5 -151t51.5 -434q-64 -302 -251.5 -436t-395.5 -134q-252 0 -358 159q-69 100 -59 197h291q12 -48 37 -75q44 -50 132 -50q83 0 151 41
q111 66 152 230h-746q28 141 54 216q47 128 131 225z" />
    <glyph glyph-name="schwa" unicode="&#x259;" horiz-adv-x="1139" 
d="M877 428h-443q-17 -113 32.5 -171.5t140.5 -58.5q99 0 166.5 62t103.5 168zM177 175q-44 97 -35 225q4 75 36 216h746q29 164 -54 230q-50 41 -133 41q-88 0 -154 -50q-35 -27 -69 -75h-291q32 97 143 197q174 159 426 159q208 0 338.5 -134t66.5 -436
q-60 -283 -235.5 -434t-404.5 -151q-136 0 -234.5 51t-145.5 161z" />
    <glyph glyph-name="schwahook" unicode="&#x25a;" horiz-adv-x="1807" 
d="M1634 506q25 -9 49 -1.5t47 24.5t43 41t37 48q9 -12 21.5 -21.5t25.5 -18.5t25.5 -18.5t22.5 -21.5q-23 -36 -52 -68t-63.5 -57t-74 -40.5t-81.5 -18.5q-59 -6 -103.5 12t-72 54t-36.5 87t4 111q-44 -9 -84.5 -20.5t-80.5 -22.5h-1q-12 -204 -123 -350
q-138 -183 -372 -242q-139 -35 -253 -14t-192 109q-71 77 -96 196q-16 69 -21 206l762 193q-16 157 -118 196q-63 24 -147 2q-90 -22 -143 -85q-30 -34 -51 -86l-297 -75q6 96 92 216q135 190 392 255q213 54 382 -35q144 -75 177 -298q68 19 137 39q129 36 251 72
q2 -30 -5.5 -66.5t-16.5 -75t-18 -75.5t-10 -68t8.5 -53t35.5 -30zM968 490l-453 -115q13 -107 79 -147.5t159 -17.5q101 26 153 100t62 180z" />
    <glyph glyph-name="eopen" unicode="&#x25b;" horiz-adv-x="1034" 
d="M720 885q-86 0 -148 -27t-77 -96l-4 -19q-6 -49 48.5 -76.5t117.5 -27.5h96l-40 -188h-94q-71 0 -148 -38t-90 -98q-16 -79 35.5 -111t131.5 -32q100 0 161.5 43t88.5 113h236l-32 -90q-52 -105 -167.5 -184t-316.5 -79q-180 0 -301.5 72t-93.5 205q22 102 82 178
t135 115q-61 35 -85.5 85t-5.5 140q7 33 31 103.5t168 145.5t304 75q203 0 278 -70t85 -244h-245q-12 58 -35.5 81.5t-114.5 23.5z" />
    <glyph glyph-name="eopenreversed" unicode="&#x25c;" horiz-adv-x="1034" 
d="M692 885q-91 0 -124.5 -23.5t-71.5 -81.5h-245q84 174 189 244t308 70q160 0 272 -75t106 -145.5t-13 -103.5q-19 -90 -64.5 -140t-122.5 -85q59 -39 87 -115t6 -178q-28 -133 -180.5 -205t-332.5 -72q-201 0 -282.5 79t-89.5 184q4 45 6 90h236q-3 -70 40.5 -113
t143.5 -43q80 0 145.5 32t81.5 111q13 60 -48 98t-132 38h-94l40 188h96q63 0 129.5 27.5t80.5 76.5l4 19q15 69 -35 96t-136 27z" />
    <glyph glyph-name="eopenreversedhook" unicode="&#x25d;" horiz-adv-x="1634" 
d="M1505 736q25 -9 49 -1.5t46.5 24.5t43 41t37.5 48q9 -12 21.5 -21.5t25.5 -18.5t25.5 -18.5t22.5 -21.5q-23 -36 -52.5 -68t-63.5 -57t-73.5 -40.5t-81.5 -18.5q-59 -6 -103.5 12t-72 54t-36.5 87t4 111q-44 -9 -84.5 -20.5t-80.5 -22.5q-9 -3 -16 -5q-3 -18 -6 -30
q-19 -90 -64.5 -140t-122.5 -85q59 -39 87 -115t6 -178q-28 -133 -180.5 -205t-332.5 -72q-201 0 -282.5 79t-89.5 184q4 45 6 90h236q-3 -70 40.5 -113t143.5 -43q80 0 145.5 32t81.5 111q13 60 -48 98t-132 38h-94l40 188h96q63 0 129.5 27.5t80.5 76.5l4 19q15 69 -35 96
t-136 27q-91 0 -124.5 -23.5t-71.5 -81.5h-245q84 174 189 244t308 70q160 0 272 -75q31 -21 52 -41q94 27 191 54q129 36 251 72q2 -30 -5.5 -66.5t-16.5 -75t-18 -75.5t-10 -68t8.5 -53t35.5 -30z" />
    <glyph glyph-name="eopenreversedclosed" unicode="&#x25e;" horiz-adv-x="1099" 
d="M1084 1019q112 -75 106 -145.5t-13 -103.5q-19 -90 -64.5 -140t-122.5 -85q59 -39 87 -115t6 -178q-28 -133 -180.5 -205t-332.5 -72q-266 -13 -356.5 143t-37.5 405q59 281 229.5 437t406.5 134q160 0 272 -75zM773 875q-144 0 -227 -143q-44 -76 -71 -202
q-25 -120 -13 -193q22 -136 156 -165h6q80 0 145.5 32t81.5 111q13 60 -48 98t-132 38l42 188q63 0 129.5 27.5t80.5 76.5l4 19q15 69 -35 96q-45 24 -119 17z" />
    <glyph glyph-name="jdotlessstroke" unicode="&#x25f;" horiz-adv-x="682" 
d="M-56 -398l49 232q23 -3 79 -4.5t83 25t34 58.5t20 92h-187l42 201h187l187 879h284l-187 -879h159l-42 -201h-156l-15 -70q-38 -175 -111 -241q-82 -98 -319 -98q-27 0 -48.5 1.5t-58.5 4.5z" />
    <glyph glyph-name="uni0260" unicode="&#x260;" 
d="M1506 1174q-24 2 -33.5 2.5t-17.5 0.5q-42 0 -68 -20.5t-39 -79.5l-73 -347h-2l-144 -674q-44 -211 -138 -318q-161 -184 -507 -184q-209 0 -323.5 82t-94.5 245h310q2 -50 24 -72q38 -39 147 -39q154 0 228 103q48 66 81 222l15 70q-56 -70 -111 -105q-99 -65 -235 -65
q-210 0 -304 147.5t-40 399.5q51 243 207.5 408.5t378.5 165.5q82 0 137 -25q91 -41 131 -148l29 139q36 165 117.5 244t271.5 79q13 0 38.5 -1t63.5 -2zM955 550q33 155 -15 236t-158 81q-150 0 -237 -141q-46 -75 -70 -185q-20 -95 -3 -169q28 -138 178 -138
q100 0 185 75.5t120 240.5z" />
    <glyph glyph-name="gscript" unicode="&#x261;" 
d="M955 550q33 155 -15 236t-158 81q-150 0 -237 -141q-46 -75 -70 -185q-20 -95 -3 -169q28 -138 178 -138q100 0 185 75.5t120 240.5zM904 1091q95 -43 135 -158l33 157h277l-220 -1034q-44 -211 -138 -318q-161 -184 -507 -184q-209 0 -323.5 82t-94.5 245h310
q2 -50 24 -72q38 -39 147 -39q154 0 228 103q48 66 81 222l15 70q-56 -70 -111 -105q-99 -65 -235 -65q-210 0 -304 147.5t-40 399.5q51 243 207.5 408.5t378.5 165.5q82 0 137 -25z" />
    <glyph glyph-name="hturned" unicode="&#x265;" 
d="M222 109q-32 61 -28.5 125.5t34.5 210.5l136 640h291l-141 -663q-19 -88 0 -142q23 -76 132 -76q113 0 187.5 75.5t104.5 215.5l125 590h284l-312 -1469h-284l111 521q-83 -95 -172.5 -132.5t-179.5 -37.5q-101 0 -176 35t-112 107z" />
    <glyph glyph-name="uni0266" unicode="&#x266;" 
d="M844 1352q-24 2 -33.5 2.5t-17.5 0.5q-42 0 -68 -20.5t-39 -79.5l-65 -306q81 94 170.5 131.5t179.5 37.5q101 0 176 -35t113 -107q32 -61 28.5 -125.5t-34.5 -210.5l-136 -640h-291l140 663q19 88 1 142q-23 76 -132 76q-113 0 -187.5 -75.5t-104.5 -215.5l-125 -590
h-284l267 1260q35 165 117 244t272 79q13 0 38.5 -1t62.5 -2z" />
    <glyph glyph-name="uni0267" unicode="&#x267;" horiz-adv-x="1349" 
d="M1160 -437q-39 -1 -64.5 -2t-38.5 -1q-190 0 -238 79t-13 244l25 117h-4l140 663q19 88 1 142q-23 76 -132 76q-113 0 -187.5 -75.5t-104.5 -215.5l-125 -590h-284l267 1260q35 165 117 244t272 79q13 0 38.5 -1t62.5 -2l-48 -228q-24 2 -33.5 2.5t-17.5 0.5
q-42 0 -68 -20.5t-39 -79.5l-65 -306q81 94 170.5 131.5t179.5 37.5q101 0 176 -35t113 -107q32 -61 28.5 -125.5t-34.5 -210.5l-136 -640h-2l-24 -112q-13 -59 4 -79.5t59 -20.5q8 0 18.5 0.5t34.5 2.5z" />
    <glyph glyph-name="istroke" unicode="&#x268;" horiz-adv-x="774" 
d="M197 823h204l57 267h289l-57 -267h218l-32 -152h-218l-142 -671h-289l142 671h-204zM775 1220h-289l56 263h289z" />
    <glyph glyph-name="iotalatin" unicode="&#x269;" horiz-adv-x="569" 
d="M365 1075h287l-228 -1075h-287z" />
    <glyph glyph-name="Ismallipa" unicode="&#x26a;" horiz-adv-x="685" 
d="M104 269h140l117 550h-140l57 270h140v1h289v-1h145l-57 -270h-145l-117 -550h145l-58 -270h-574z" />
    <glyph glyph-name="lmiddletilde" unicode="&#x26b;" horiz-adv-x="802" 
d="M534 0h-285l156 736h-4q-38 0 -67 -22q-29 -23 -47 -63h-130q44 103 90 156q78 88 193 94l122 573h285l-138 -648h7q48 0 73 25.5t41 60.5h133q-40 -105 -108.5 -176t-171.5 -71h-8z" />
    <glyph glyph-name="uni026D" unicode="&#x26d;" horiz-adv-x="625" 
d="M468 -437q-39 -1 -64.5 -2t-38.5 -1q-190 0 -238 79t-13 244l338 1591h285l-337 -1586q-13 -59 4 -79.5t59 -20.5q8 0 18.5 0.5t34.5 2.5z" />
    <glyph glyph-name="mturned" unicode="&#x26f;" horiz-adv-x="1821" 
d="M226 126q-34 57 -32 140q2 55 24 161l148 687h292l-147 -694q-13 -62 -2 -102q22 -76 124 -76q118 0 184 98q34 52 49 125l138 649h287l-138 -649q-20 -97 -10 -141q20 -79 125 -79q122 0 180 79q33 45 52 134l139 656h289l-231 -1088h-277l34 159q-71 -85 -126 -121
q-96 -64 -228 -64q-125 0 -191 55q-51 51 -66 131q-76 -96 -169 -141q-97 -45 -205 -45q-72 0 -136.5 28t-106.5 98z" />
    <glyph glyph-name="mlonglegturned" unicode="&#x270;" horiz-adv-x="1821" 
d="M226 126q-34 57 -32 140q2 55 24 161l148 687h292l-147 -694q-13 -62 -2 -102q22 -76 124 -76q118 0 184 98q34 52 49 125l138 649h287l-138 -649q-20 -97 -10 -141q20 -79 125 -79q122 0 180 79q33 45 52 134l139 656h289l-318 -1498h-277l121 569q-71 -85 -126 -121
q-96 -64 -228 -64q-125 0 -191 55q-51 51 -66 131q-76 -96 -169 -141q-97 -45 -205 -45q-72 0 -136.5 28t-106.5 98z" />
    <glyph glyph-name="mhook" unicode="&#x271;" horiz-adv-x="1821" 
d="M1214 -209q24 -2 33.5 -2.5t17.5 -0.5q42 0 68 20.5t39 79.5l137 647h2l34 159q13 62 2 102q-22 76 -124 76q-118 0 -184 -98q-34 -52 -50 -125l-137 -649h-287l137 649q21 97 10 141q-19 79 -124 79q-122 0 -181 -79q-32 -45 -51 -134l-139 -656h-289l231 1088h277
l-34 -159q71 85 126 121q96 64 228 64q125 0 191 -55q51 -51 66 -131q76 96 169 141q97 45 205 45q72 0 136 -28t107 -98q33 -57 32 -140q-2 -55 -24 -161l-148 -687l-34 -117q-35 -165 -117 -244t-272 -79q-13 0 -38.5 1t-62.5 2z" />
    <glyph glyph-name="nhookleft" unicode="&#x272;" 
d="M-45 -209q24 -2 33.5 -2.5t16.5 -0.5q42 0 68 20.5t39 79.5l24 112h-1l231 1088h275l-1 -3h11l-29 -139q64 71 115 104q102 66 237 66q169 0 257.5 -88.5t45.5 -293.5l-156 -734h-292l140 663q19 86 5 132q-24 84 -142 84q-145 0 -225 -123q-31 -47 -50 -114l-161 -759
q-35 -165 -117 -244t-272 -79q-12 0 -37.5 1t-62.5 2z" />
    <glyph glyph-name="uni0273" unicode="&#x273;" horiz-adv-x="1328" 
d="M1158 -437q-39 -1 -64.5 -2t-38.5 -1q-190 0 -238 79t-13 244l165 780q19 86 5 132q-24 84 -142 84q-145 0 -225 -123q-42 -65 -63 -166l-125 -590h-284l231 1088h275l-34 -159q73 84 130 121q102 66 237 66q169 0 257.5 -88.5t45.5 -293.5l-156 -734h-7l-24 -112
q-13 -59 4 -79.5t59 -20.5q8 0 18.5 0.5t34.5 2.5z" />
    <glyph glyph-name="Nsmallipa" unicode="&#x274;" horiz-adv-x="1084" 
d="M323 1088h323l153 -643l137 643h287l-231 -1088h-308l-165 661l-140 -661h-287z" />
    <glyph glyph-name="uni0275" unicode="&#x275;" 
d="M614 -38q-281 0 -382.5 170.5t-50.5 410.5q50 236 225 409t456 173t382 -173t51 -409q-51 -240 -225.5 -410.5t-455.5 -170.5zM490 290q49 -89 174 -89t211 89q65 67 101 178h-511q-12 -111 25 -178zM982 795q-48 89 -173 89t-212 -89q-64 -66 -100 -175h511
q10 109 -26 175z" />
    <glyph glyph-name="uni0276" unicode="&#x276;" horiz-adv-x="1933" 
d="M974 537q34 162 -3.5 254.5t-180.5 92.5q-157 0 -245 -145q-48 -76 -73 -197q-37 -172 5 -261t161 -89q144 0 224 98t112 247zM1197 955q97 78 162 109q105 50 243 50q127 0 218.5 -51t142.5 -147q42 -77 36 -200q-1 -80 -36 -242h-745q-21 -127 20.5 -203.5t147.5 -76.5
q89 0 150 28.5t96 99.5h284q-49 -141 -199.5 -248.5t-386.5 -107.5q-135 0 -223 55q-51 32 -105 102q-69 -64 -137 -98q-121 -61 -281 -61q-244 0 -353 159t-55 413q58 273 239.5 425.5t424.5 152.5q144 0 228 -44t129 -115zM1709 794q-35 99 -180 99q-66 0 -123 -29
q-108 -57 -146 -206h452q16 83 -3 136z" />
    <glyph glyph-name="philatin" unicode="&#x278;" horiz-adv-x="1479" 
d="M608 0q-240 17 -359 152q-120 135 -69 387q55 258 232 411q174 152 430 154l73 342h262l-73 -342q260 -2 369 -154q107 -153 54 -411q-55 -252 -231 -387q-177 -135 -426 -152l-92 -429h-262zM792 866q-148 -12 -229 -100q-82 -90 -109 -227q-53 -260 204 -301zM920 238
q276 41 333 301q29 137 -12 227q-44 88 -187 100z" />
    <glyph glyph-name="rturned" unicode="&#x279;" horiz-adv-x="797" 
d="M129 2l62 292q26 -3 47 -4t34 -1q172 0 255 112q46 63 74 194l111 521h287l-232 -1090h-272l40 190q-89 -109 -146 -149q-94 -67 -222 -67q-8 0 -13.5 0.5t-24.5 1.5z" />
    <glyph glyph-name="rlonglegturned" unicode="&#x27a;" horiz-adv-x="797" 
d="M129 2l62 292q26 -3 47 -4t34 -1q172 0 255 112q46 63 74 194l187 879h287l-308 -1448h-272l40 190q-89 -109 -146 -149q-94 -67 -222 -67q-8 0 -13.5 0.5t-24.5 1.5z" />
    <glyph glyph-name="uni027B" unicode="&#x27b;" horiz-adv-x="966" 
d="M808 -437q-39 -1 -64.5 -2t-38.5 -1q-190 0 -238 79t-13 244l66 314q-79 -94 -131 -130q-94 -67 -222 -67q-8 0 -13.5 0.5t-24.5 1.5l62 292q26 -3 47 -4t34 -1q172 0 255 112q46 63 74 194l111 521h287l-188 -881h2l-73 -347q-13 -59 4 -79.5t59 -20.5q8 0 18.5 0.5
t34.5 2.5z" />
    <glyph glyph-name="rlongleg" unicode="&#x27c;" horiz-adv-x="797" 
d="M999 1114l-62 -292q-26 3 -47 4t-34 1q-172 0 -255 -112q-46 -63 -74 -194l-192 -905h-287l313 1474h272l-40 -190q89 109 146 149q95 67 223 67q8 0 13.5 -0.5t23.5 -1.5z" />
    <glyph glyph-name="uni027D" unicode="&#x27d;" horiz-adv-x="797" 
d="M458 -437q-39 -1 -64.5 -2t-38.5 -1q-190 0 -238 79t-13 244l74 352h1l182 855h272l-40 -190q89 109 146 149q95 67 223 67q8 0 13.5 -0.5t23.5 -1.5l-62 -292q-26 3 -47 4t-34 1q-172 0 -255 -112q-46 -63 -74 -194l-110 -521h-3l-24 -112q-13 -59 4 -79.5t59 -20.5
q8 0 18.5 0.5t34.5 2.5z" />
    <glyph glyph-name="rfishhook" unicode="&#x27e;" horiz-adv-x="569" 
d="M668 834q-24 2 -34 2.5t-18 0.5q-97 20 -123 -0.5t-39 -79.5l-160 -757h-285l161 762q36 165 117.5 244t271.5 79q13 0 66 -11t91 -12z" />
    <glyph glyph-name="rfishhookreversed" unicode="&#x27f;" horiz-adv-x="569" 
d="M234 1062q38 1 96 12t71 11q190 0 238.5 -79t12.5 -244l-161 -762h-285l160 757q13 59 -4 79.5t-124 0.5q-8 0 -18 -0.5t-34 -2.5z" />
    <glyph glyph-name="Rsmallipa" unicode="&#x280;" horiz-adv-x="1092" 
d="M616 899l-54 -251h92q77 0 119 17q74 31 85 82q21 99 -37 133q-32 19 -106 19h-99zM1143 984q27 -41 36.5 -91.5t-3.5 -114.5q-17 -78 -67.5 -132t-155.5 -126q68 -31 88 -86.5t-4 -169.5l-16 -74q-16 -74 -16 -101q0 -42 28 -62l-5 -27h-333q-3 36 -3 58q1 46 11 94
l19 101q12 61 -17 96t-130 35h-69l-81 -384h-305l231 1088h534q113 -2 169.5 -28t88.5 -76z" />
    <glyph glyph-name="Rsmallinverted" unicode="&#x281;" horiz-adv-x="1092" 
d="M564 189q74 0 114 19q73 34 94 133q11 51 -51 82q-34 17 -111 17h-92l-53 -251h99zM956 104q-53 -50 -120.5 -76t-181.5 -28h-534l231 1088h305l-82 -384h69q101 0 145 35t58 96l23 101q11 48 29 94q10 22 28 58h333l-6 -27q-36 -20 -54 -62q-12 -27 -28 -101l-15 -74
q-25 -114 -68 -169.5t-125 -86.5q75 -72 102.5 -126t10.5 -132q-13 -64 -44.5 -114.5t-75.5 -91.5z" />
    <glyph glyph-name="esh" unicode="&#x283;" horiz-adv-x="779" 
d="M401 -247q-119 -185 -322 -185q-43 0 -97 11.5t-104 31.5l72 227q34 -21 55.5 -30t49.5 -9q73 0 115 80q27 52 67 215l234 920q63 248 133 355q115 177 323 177q62 0 138 -19q76 -20 66 -20l-69 -227q-33 17 -57.5 26t-56.5 9q-76 0 -121 -80q-29 -52 -71 -221l-243 -972
q-48 -189 -112 -289z" />
    <glyph glyph-name="dotlessjstrokehook" unicode="&#x284;" horiz-adv-x="779" 
d="M15 153h237l219 861q63 248 133 355q115 177 323 177q62 0 138 -19q76 -20 66 -20l-69 -227q-33 17 -57.5 26t-56.5 9q-76 0 -121 -80q-29 -52 -71 -221l-215 -861h185l-32 -152h-191q-45 -159 -102 -248q-119 -185 -322 -185q-43 0 -97 11.5t-104 31.5l72 227
q34 -21 55.5 -30t49.5 -9q73 0 115 80q18 36 43 122h-229z" />
    <glyph glyph-name="eshsquatreversed" unicode="&#x285;" horiz-adv-x="877" 
d="M374 84q-31 55 -17 159l78 535q14 93 2 121q-19 44 -95 44q-32 0 -59.5 -5t-65.5 -14l5 125q-10 0 73 11q82 10 144 10q208 0 264 -97q36 -59 17 -195l-70 -506q-13 -90 -3 -119q16 -44 89 -44q28 0 53 5t65 17l-2 -125q-57 -11 -115 -17.5t-101 -6.5q-203 0 -262 102z
" />
    <glyph glyph-name="tturned" unicode="&#x287;" horiz-adv-x="682" 
d="M735 485l-44 -203h-152l-64 -304h-282l64 304h-177l44 203h177l122 576q14 67 0.5 83.5t-100.5 16.5q-13 0 -27.5 -0.5t-28.5 -1.5l45 213l136 5q204 7 261 -70q38 -49 16 -151l-142 -671h152z" />
    <glyph glyph-name="tretroflexhook" unicode="&#x288;" horiz-adv-x="682" 
d="M207 877l43 203h152l65 304h282l-65 -304h177l-43 -203h-177l-214 -1007q-14 -67 -0.5 -83.5t100.5 -16.5q13 0 27.5 0.5t28.5 1.5l-45 -213l-136 -5q-204 -7 -261 70q-38 49 -16 151l234 1102h-152z" />
    <glyph glyph-name="ubar" unicode="&#x289;" horiz-adv-x="1534" 
d="M176 579l42 201h204l66 310h292l-66 -310h403l66 310h289l-66 -310h242l-42 -201h-242l-123 -579h-277l32 154q-5 -5 -26 -30t-47 -44q-80 -60 -147.5 -82t-151.5 -22q-242 0 -289 174q-26 96 14 283l31 146h-204zM633 293q21 -83 135 -83q146 0 225 118q42 64 64 169
l18 82h-403l-31 -146q-20 -93 -8 -140z" />
    <glyph glyph-name="upsilonlatin" unicode="&#x28a;" horiz-adv-x="1182" 
d="M633 223q124 0 195 78.5t99 207.5q27 128 18 205.5t-83 159.5l46 216h435l-43 -201h-228q160 -142 108 -387q-45 -215 -202.5 -358.5t-383.5 -143.5q-218 0 -322.5 144t-59.5 358q28 131 90.5 218.5t181.5 168.5h-228l43 201h435l-46 -216q-108 -82 -150.5 -158.5
t-69.5 -206.5q-28 -131 7.5 -208.5t157.5 -77.5z" />
    <glyph glyph-name="vturned" unicode="&#x28c;" horiz-adv-x="1139" 
d="M331 0h-306l624 1090h301l160 -1090h-320l-57 804z" />
    <glyph glyph-name="wturned" unicode="&#x28d;" horiz-adv-x="1593" 
d="M935 0h-289v785l-336 -785h-297l547 1090h293l2 -794l342 794h296l75 -1090h-306l-4 782z" />
    <glyph glyph-name="yturned" unicode="&#x28e;" horiz-adv-x="1139" 
d="M1223 1299l-36 2q-42 2 -81 -3t-68 -23q-29 -17 -62 -71t-32 -66l159 -1138h-317l-68 804l-395 -804h-303l601 1072q174 310 253 384.5t268 74.5q38 0 61 -0.5t68 -3.5z" />
    <glyph glyph-name="Ysmallipa" unicode="&#x28f;" horiz-adv-x="1022" 
d="M863 1090h349l-452 -678l-87 -412h-308l87 412l-182 678h363l21 -476z" />
    <glyph glyph-name="ezh" unicode="&#x292;" horiz-adv-x="1128" 
d="M832 819h-580l56 266h990l-48 -225l-369 -316q82 -39 131 -113q118 -91 58 -372q-53 -249 -223.5 -374t-433.5 -125t-317 187q-60 116 -42 246h291q-9 -86 6.5 -140t115.5 -54q141 0 211 73.5t96 193.5q26 126 18 217q-37 46 -151 61l-3 -2l-272 2z" />
    <glyph glyph-name="glottalstop" unicode="&#x294;" 
d="M622 1413q134 76 306 76q226 0 352.5 -108t81.5 -320q-28 -130 -112 -219q-49 -54 -175 -138l-83 -55q-67 -45 -99 -105q-20 -38 -128 -544h-270q132 595 171.5 659.5t165.5 148.5l85 57q42 27 71 59q52 55 66 121q16 76 -15.5 138.5t-149.5 62.5q-116 0 -180.5 -77
t-82.5 -160h-289q73 285 285 404z" />
    <glyph glyph-name="glottalstopreversed" unicode="&#x295;" 
d="M1238 1413q162 -119 113 -404h-289q18 83 -14.5 160t-148.5 77q-118 0 -175.5 -62.5t-73.5 -138.5q-14 -66 14 -121q15 -32 45 -59l61 -57q90 -84 102.5 -148.5t-107.5 -659.5h-270q106 506 102 544q-6 60 -55 105l-59 55q-90 84 -117 138q-46 89 -18 219
q45 212 217.5 320t398.5 108q172 0 274 -76z" />
    <glyph glyph-name="glottalstopinverted" unicode="&#x296;" 
d="M337 75q-161 119 -113 404h289q-17 -83 15 -160t148 -77q118 0 176 62.5t74 138.5q14 66 -15 121q-15 32 -45 59l-61 57q-90 84 -102.5 148.5t108.5 659.5h270q-107 -506 -103 -544q6 -60 55 -105l59 -55q90 -84 117 -138q46 -89 18 -219q-45 -212 -217.5 -320
t-398.5 -108q-172 0 -274 76z" />
    <glyph glyph-name="cstretched" unicode="&#x297;" horiz-adv-x="1065" 
d="M866 699q5 61 -18 110q-34 66 -135 66q-144 0 -232 -224.5t-115 -350.5q-25 -120 -32.5 -339.5t133.5 -219.5q100 0 153.5 54t81.5 140h291q-38 -130 -147 -246q-173 -187 -436 -187t-310 221t27 570q81 381 235 602t395 221q205 0 316 -92t85 -325h-292z" />
    <glyph glyph-name="bilabialclick" unicode="&#x298;" horiz-adv-x="1593" 
d="M1363 739q52 248 -26.5 383.5t-261.5 135.5t-320.5 -135t-190.5 -384t27 -384t263 -135t319.5 135t189.5 384zM1318 131q-203 -172 -519 -172t-447 172q-179 211 -94 608q86 405 353 608q203 172 519 172t447 -172q180 -203 94 -608q-85 -397 -353 -608zM842 897h303
l-63 -298h-303z" />
    <glyph glyph-name="eopenclosed" unicode="&#x29a;" horiz-adv-x="1099" 
d="M443 1019q144 75 304 75q246 22 349.5 -134t44.5 -437q-53 -249 -210.5 -405t-417.5 -143q-180 0 -301.5 72t-93.5 205q22 102 82 178t135 115q-61 35 -85.5 85t-5.5 140q7 33 31 103.5t168 145.5zM692 875q-70 7 -125 -17q-62 -27 -77 -96l-4 -19q-6 -49 48.5 -76.5
t117.5 -27.5l-38 -188q-71 0 -148 -38t-90 -98q-16 -79 35.5 -111t131.5 -32h6q146 29 226 165q44 73 69 193q27 126 15 202q-23 143 -167 143z" />
    <glyph glyph-name="Hsmallipa" unicode="&#x29c;" horiz-adv-x="1323" 
d="M154 0l228 1076h305l-81 -380h436l81 380h306l-228 -1076h-306l102 480h-436l-102 -480h-305z" />
    <glyph glyph-name="kturned" unicode="&#x29e;" horiz-adv-x="1139" 
d="M1050 -385h-280l168 794l-442 -410h-353l470 417l-254 668h344l162 -466l144 123l73 343h280z" />
    <glyph glyph-name="Lsmallipa" unicode="&#x29f;" horiz-adv-x="1087" 
d="M387 1088h308l-175 -823h530l-56 -265h-838z" />
    <glyph glyph-name="uni02A0" unicode="&#x2a0;" 
d="M1512 1210q-24 2 -34 2.5t-18 0.5q-42 0 -67.5 -20.5t-38.5 -79.5l-328 -1545h-282l120 567q-46 -66 -134.5 -117.5t-222.5 -51.5q-189 0 -290 151t-47 403q58 272 226 435t364 163q136 0 206 -67q37 -34 67 -108l37 175q35 165 117 244t272 79q13 0 38 -1t63 -2z
M875 336q58 83 85 210q21 100 4 179q-31 142 -184 142q-108 0 -191 -83t-119 -252q-24 -113 -10 -185q27 -137 179 -137q147 0 236 126z" />
    <glyph glyph-name="glottalstopstroke" unicode="&#x2a1;" 
d="M351 373h230q61 246 86 286q39 65 165 149l85 57q42 27 71 59q52 55 66 121q16 76 -15.5 138.5t-149.5 62.5q-116 0 -180.5 -77t-82.5 -160h-289q73 285 285 404q134 76 306 76q226 0 352.5 -108t81.5 -320q-28 -130 -112 -219q-49 -54 -175 -138l-83 -55
q-67 -45 -99 -105q-11 -20 -46 -171h215l-33 -152h-217q-21 -96 -47 -221h-270q26 121 49 221h-226z" />
    <glyph glyph-name="glottalstopstrokereversed" unicode="&#x2a2;" 
d="M1034 221h-226q-19 -100 -43 -221h-270q26 125 45 221h-217l33 152h215q29 151 26 171q-6 60 -55 105l-59 55q-90 84 -117 138q-46 89 -18 219q45 212 217.5 320t398.5 108q172 0 274 -76q162 -119 113 -404h-289q18 83 -14.5 160t-148.5 77q-118 0 -175.5 -62.5
t-73.5 -138.5q-14 -66 14 -121q15 -32 45 -59l61 -57q90 -84 103 -149q7 -40 -36 -286h230z" />
    <glyph glyph-name="uni02A3" unicode="&#x2a3;" horiz-adv-x="2048" 
d="M1038 952l110 520h289l-81 -382h851l-50 -237l-685 -619h572l-49 -234h-1147l32 151q-82 -97 -169.5 -141t-203.5 -44q-191 0 -288.5 154.5t-46.5 396.5q60 279 222.5 439t377.5 160q99 0 166.5 -43.5t99.5 -120.5zM956 529q42 200 -40 286q-51 52 -133 52
q-125 0 -203.5 -94.5t-108.5 -234.5q-32 -151 8 -241.5t161 -90.5t203.5 90t112.5 233zM1795 858h-488l-118 -555z" />
    <glyph glyph-name="dezh" unicode="&#x2a4;" horiz-adv-x="2081" 
d="M1801 819h-538l-174 -819h-277l32 151q-82 -97 -169.5 -141t-203.5 -44q-191 0 -288.5 154.5t-46.5 396.5q60 279 222.5 439t377.5 160q99 0 166.5 -43.5t99.5 -120.5l110 520h289l-82 -387h948l-48 -225l-369 -316q82 -39 131 -113q118 -91 58 -372
q-53 -249 -223.5 -374t-433.5 -125t-317 187q-60 116 -42 246h291q-9 -86 6.5 -140t115.5 -54q141 0 211 73.5t96 193.5q26 126 18 217q-37 46 -151 61l-3 -2l-272 2zM920 529q42 200 -40 286q-51 52 -133 52q-125 0 -203.5 -94.5t-108.5 -234.5q-32 -151 8 -241.5
t161 -90.5t203.5 90t112.5 233z" />
    <glyph glyph-name="uni02A6" unicode="&#x2a6;" horiz-adv-x="1612" 
d="M207 877l43 203h152l65 304h282l-65 -304h177l-25 -119q27 27 58 51q142 109 357 109q204 0 315 -81.5t88 -281.5h-285q5 55 -13 87q-35 58 -148 58q-93 0 -138.5 -29t-53.5 -68q-11 -49 27 -71q37 -23 280 -79q161 -40 229 -121q67 -82 41 -205q-35 -162 -177 -264.5
t-394 -102.5q-257 0 -357 108q-7 9 -15 17l-21 -98l-136 -5q-203 -7 -261 70q-37 49 -16 151l143 671h-152zM890 348q-7 -76 17 -108q40 -57 183 -57q84 0 139 25t66 75q10 48 -25 73t-279 86q-175 46 -236 115q-62 68 -34 196q14 66 49 124h-129l-123 -576q-14 -67 0 -84
q12 -14 79 -16q-13 67 4 147h289z" />
    <glyph glyph-name="uni02A7" unicode="&#x2a7;" horiz-adv-x="1243" 
d="M791 -247q-119 -185 -322 -185q-43 0 -97.5 11.5t-104.5 31.5l72 227q34 -21 56 -30t50 -9q73 0 115 80q17 33 39 110l-106 -4q-203 -7 -261 70q-37 49 -16 151l143 671h-152l43 203h152l65 304h282l-65 -304h194q55 197 116 289q115 177 323 177q62 0 138 -19
q76 -20 66 -20l-69 -227q-33 17 -57.5 26t-56.5 9q-76 0 -121 -80q-29 -52 -71 -221l-243 -972q-48 -189 -112 -289zM518 301q-14 -67 -0.5 -83.5t100.5 -16.5h27h9l172 676h-185z" />
    <glyph glyph-name="uni02A9" unicode="&#x2a9;" horiz-adv-x="1712" 
d="M1146 -209q24 -2 33.5 -2.5t17.5 -0.5q42 0 68 20.5t39 79.5l24 112h-7l140 663q19 86 5 132q-24 84 -142 84q-145 0 -225 -123q-42 -65 -63 -166l-125 -590h-284l186 879h-163l-186 -879h-284l186 879h-159l43 201h156l15 70q37 175 110 241q83 98 320 98
q27 0 48.5 -1.5t59.5 -4.5l-50 -232q-23 3 -79 4.5t-83.5 -25t-33.5 -58.5l-20 -92h163l2 8h275l-34 -159q73 84 130 121q102 66 237 66q169 0 257.5 -88.5t45.5 -293.5l-181 -851q-35 -165 -117 -244t-272 -79q-13 0 -38.5 1t-62.5 2z" />
    <glyph glyph-name="uni02AA" unicode="&#x2aa;" horiz-adv-x="1407" 
d="M424 0h-285l313 1474h285l-114 -534q33 38 78 72q142 109 357 109q204 0 315 -81.5t88 -281.5h-285q5 55 -13 87q-35 58 -148 58q-93 0 -138.5 -29t-53.5 -68q-11 -49 27 -71q37 -23 280 -79q161 -40 229 -121q67 -82 41 -205q-35 -162 -177 -264.5t-394 -102.5
q-257 0 -357 108q-15 16 -26 33zM697 348q-7 -76 17 -108q40 -57 183 -57q84 0 139 25t66 75q10 48 -25 73t-279 86q-175 46 -236 115q-9 9 -16 20l-49 -229h200z" />
    <glyph glyph-name="uni02AB" unicode="&#x2ab;" horiz-adv-x="1365" 
d="M452 1474h285l-82 -384h850l-50 -237l-685 -619h572l-49 -234h-1154zM1093 858h-487l-118 -554z" />
    <glyph glyph-name="uni02AC" unicode="&#x2ac;" horiz-adv-x="908" 
d="M500 621h165l-1 -447l192 447h169l-311 -621h-167l-1 453l-195 -453h-169l-43 621h174l3 -445zM682 1474h165l-1 -447l192 447h169l-312 -621h-167l-1 453l-195 -453h-169l-42 621h174l2 -445z" />
    <glyph glyph-name="uni02AD" unicode="&#x2ad;" horiz-adv-x="1205" 
d="M1257 552l-117 -551h-156l74 349h-754l-74 -349h-156l117 551h1066zM1433 1382l-117 -551h-156l74 349h-754l-74 -349h-156l117 551h1066z" />
    <glyph glyph-name="uni02AE" unicode="&#x2ae;" 
d="M300 1423q38 1 64 2t39 1q190 0 238 -79t13 -244l-4 -18h5l-141 -663q-19 -88 0 -142q23 -76 132 -76q113 0 187.5 75.5t104.5 215.5l125 590h284l-312 -1469h-284l111 521q-83 -95 -172.5 -132.5t-179.5 -37.5q-101 0 -176 35t-112 107q-32 61 -28.5 125.5t34.5 210.5
l136 640h1l3 13q12 59 -5 79.5t-59 20.5q-8 0 -18 -0.5t-34 -2.5z" />
    <glyph glyph-name="uni02AF" unicode="&#x2af;" 
d="M1165 -437q-39 -1 -64.5 -2t-38.5 -1q-190 0 -238 79t-13 244l7 33h-3l47 221q-83 -95 -172.5 -132.5t-179.5 -37.5q-101 0 -176 35t-112 107q-32 61 -28.5 125.5t34.5 210.5l136 640h1l3 13q12 59 -5 79.5t-59 20.5q-8 0 -18 -0.5t-34 -2.5l48 228q38 1 64 2t39 1
q190 0 238 -79t13 -244l-4 -18h5l-141 -663q-19 -88 0 -142q23 -76 132 -76q113 0 187.5 75.5t104.5 215.5l125 590h284l-181 -850h4l-73 -347q-13 -59 4 -79.5t59 -20.5q8 0 18.5 0.5t34.5 2.5z" />
    <glyph glyph-name="uni02B0" unicode="&#x2b0;" horiz-adv-x="626" 
d="M785 1218q16 -30 14 -62.5t-17 -105.5l-68 -320h-145l70 332q10 44 0 71q-12 38 -66 38q-57 0 -94 -38t-52 -108l-62 -295h-142l156 735h142l-56 -261q42 48 86 66.5t89 18.5q51 0 88.5 -17.5t56.5 -53.5z" />
    <glyph glyph-name="uni02B1" unicode="&#x2b1;" horiz-adv-x="626" 
d="M577 1406q-11 1 -16 1.5t-9 0.5q-21 0 -34.5 -10.5t-19.5 -39.5l-32 -153q41 47 85 65.5t89 18.5q51 0 88.5 -17.5t56.5 -53.5q16 -30 14 -62.5t-17 -105.5l-68 -320h-145l70 332q10 44 0 71q-12 38 -66 38q-57 0 -94 -38t-52 -108l-62 -295h-142l134 630q17 83 58 122.5
t136 39.5q6 0 19 -0.5t32 -1.5z" />
    <glyph glyph-name="uni02B2" unicode="&#x2b2;" horiz-adv-x="285" 
d="M500 1340h-143l28 132h143zM137 625q12 -1 17 -1h9q21 0 33.5 10t19.5 40l127 599h143l-128 -602q-17 -82 -58 -121.5t-136 -39.5q-7 0 -19.5 0.5t-31.5 0.5z" />
    <glyph glyph-name="uni02B3" unicode="&#x2b3;" horiz-adv-x="399" 
d="M655 1287l-31 -146q-14 2 -24 2.5t-16 0.5q-86 0 -128 -56q-23 -32 -37 -97l-55 -261h-144l116 545h136l-21 -95q45 55 74 75q47 33 111 33h6.5t12.5 -1z" />
    <glyph glyph-name="uni02B4" unicode="&#x2b4;" horiz-adv-x="399" 
d="M220 731l31 146q13 -1 23 -1.5t17 -0.5q86 0 127 56q24 31 38 97l55 260h143l-116 -545h-136l21 95q-45 -54 -73 -74q-47 -34 -111 -34q-4 0 -7 0.5t-12 0.5z" />
    <glyph glyph-name="uni02B5" unicode="&#x2b5;" horiz-adv-x="483" 
d="M559 511q-19 0 -32 -0.5t-19 -0.5q-95 0 -119 39.5t-7 121.5l34 158q-40 -47 -66 -65q-47 -34 -111 -34q-4 0 -7 0.5t-12 0.5l31 146q13 -1 23 -1.5t17 -0.5q86 0 127 56q24 31 38 97l55 260h143l-93 -440h1l-37 -174q-7 -30 2 -40t30 -10h9t17 1z" />
    <glyph glyph-name="Rsmallinvertedsuperior" unicode="&#x2b6;" horiz-adv-x="775" 
d="M549 836q53 0 81 14q52 24 67 94q8 36 -36 58q-24 12 -79 12h-65l-38 -178h70zM827 776q-37 -36 -85 -54.5t-129 -19.5h-379l164 772h217l-58 -272h49q71 0 102.5 25t41.5 68l16 72q7 34 21 66q6 16 19 41h237l-4 -19q-26 -14 -39 -44q-8 -19 -19 -71l-11 -53
q-17 -81 -48 -120.5t-89 -61.5q53 -51 72.5 -89.5t7.5 -93.5q-9 -45 -31 -81t-55 -65z" />
    <glyph glyph-name="uni02B7" unicode="&#x2b7;" horiz-adv-x="797" 
d="M595 1275h144l-1 -392l169 392h149l-274 -545h-147l-1 397l-171 -397h-148l-37 545h153l1 -391z" />
    <glyph glyph-name="uni02B8" unicode="&#x2b8;" horiz-adv-x="570" 
d="M221 625l18 -1q21 -1 40.5 1.5t34.5 11.5q14 9 30.5 36t16.5 33l-79 569h158l33 -402l199 402h151l-301 -536q-87 -155 -126.5 -192.5t-133.5 -37.5q-19 0 -30.5 0.5l-34.5 1.5z" />
    <glyph glyph-name="primemod" unicode="&#x2b9;" horiz-adv-x="682" 
d="M997 1472l-431 -598h-206l319 598h318z" />
    <glyph glyph-name="dblprimemod" unicode="&#x2ba;" horiz-adv-x="1250" 
d="M997 1472l-431 -598h-206l319 598h318zM1507 1472l-431 -598h-206l319 598h318z" />
    <glyph glyph-name="commaturnedmod" unicode="&#x2bb;" horiz-adv-x="569" 
d="M378 1137q33 153 123.5 238.5t231.5 112.5l-22 -104q-110 -30 -161 -112q-28 -44 -33 -83h156l-56 -263h-284z" />
    <glyph glyph-name="apostrophemod" unicode="&#x2bc;" horiz-adv-x="569" 
d="M352 1012q104 31 157 105q29 44 36 89h-157l56 263h285l-45 -211q-32 -151 -124 -238t-231 -113z" />
    <glyph glyph-name="afii64937" unicode="&#x2bd;" horiz-adv-x="569" 
d="M604 907q-127 26 -182 113t-23 238l45 211h285l-56 -263h-157q-13 -45 -2 -89q21 -74 113 -105z" />
    <glyph glyph-name="uni02BE" unicode="&#x2be;" horiz-adv-x="420" 
d="M392 1325q49 0 91 34.5t52 83.5q11 49 -16 84t-76 35l21 99q90 0 140 -64t31 -154t-96.5 -154t-168.5 -66l24 102h-2z" />
    <glyph glyph-name="uni02BF" unicode="&#x2bf;" horiz-adv-x="420" 
d="M608 1325l-20 -102q-89 2 -139.5 66t-31.5 154t97 154t168 64l-21 -99q-49 0 -91 -35t-53 -84q-10 -49 17 -83.5t76 -34.5h-2z" />
    <glyph glyph-name="uni02C0" unicode="&#x2c0;" horiz-adv-x="626" 
d="M466 1437q67 38 153 38q113 0 176.5 -54t41.5 -160q-14 -65 -57 -110q-25 -27 -88 -69l-40 -27q-34 -23 -51 -53q-10 -19 -63 -272h-135q66 298 86 330t83 74l42 29q20 13 35 29q26 28 33 61q8 38 -7.5 69t-74.5 31q-58 0 -90.5 -38.5t-41.5 -79.5h-144q36 142 142 202z
" />
    <glyph glyph-name="uni02C1" unicode="&#x2c1;" horiz-adv-x="626" 
d="M774 1437q81 -60 57 -202h-145q9 41 -7 79.5t-74 38.5q-59 0 -88 -31t-37 -69q-7 -33 7 -61q7 -16 23 -29l31 -29q45 -42 51 -74t-54 -330h-135q52 253 50 272q-2 30 -26 53l-31 27q-45 42 -58 69q-22 45 -8 110q22 106 108 160t199 54q86 0 137 -38z" />
    <glyph glyph-name="uni02C2" unicode="&#x2c2;" horiz-adv-x="598" 
d="M238 1065l636 224l-29 -139l-453 -149l390 -149l-30 -139l-541 224z" />
    <glyph glyph-name="uni02C3" unicode="&#x2c3;" horiz-adv-x="598" 
d="M800 937l-637 -224l30 139l452 149l-389 149l29 139l542 -225z" />
    <glyph glyph-name="uni02C4" unicode="&#x2c4;" horiz-adv-x="598" 
d="M646 1296l99 -589h-139l-60 421l-238 -421h-139l349 589h128z" />
    <glyph glyph-name="uni02C5" unicode="&#x2c5;" horiz-adv-x="598" 
d="M393 707l-99 589h139l59 -421l239 421h139l-350 -589h-127z" />
    <glyph glyph-name="circumflex" unicode="&#x2c6;" horiz-adv-x="682" 
d="M913 1237h-232l-94 168l-167 -168h-232l299 299h256z" />
    <glyph glyph-name="caron" unicode="&#x2c7;" horiz-adv-x="682" 
d="M423 1237l-171 299h232l95 -169l166 169h232l-298 -299h-256z" />
    <glyph glyph-name="uni02C8" unicode="&#x2c8;" horiz-adv-x="682" 
d="M730 1458l-66 -311h-152l66 311h152z" />
    <glyph glyph-name="uni02C9" unicode="&#x2c9;" horiz-adv-x="682" 
d="M298 1453h711l-32 -152h-711z" />
    <glyph glyph-name="uni02CA" unicode="&#x2ca;" horiz-adv-x="682" 
d="M1011 1536l-368 -299h-206l256 299h318z" />
    <glyph glyph-name="uni02CB" unicode="&#x2cb;" horiz-adv-x="682" 
d="M778 1237h-206l-239 299h317z" />
    <glyph glyph-name="uni02CC" unicode="&#x2cc;" horiz-adv-x="682" 
d="M390 -142l-66 -311h-152l66 311h152z" />
    <glyph glyph-name="uni02CD" unicode="&#x2cd;" horiz-adv-x="682" 
d="M-41 -147h710l-32 -152h-710z" />
    <glyph glyph-name="uni02CE" unicode="&#x2ce;" horiz-adv-x="682" 
d="M438 -363h-206l-238 299h316z" />
    <glyph glyph-name="uni02CF" unicode="&#x2cf;" horiz-adv-x="682" 
d="M671 -64l-368 -299h-206l256 299h318z" />
    <glyph glyph-name="colontriangularmod" unicode="&#x2d0;" horiz-adv-x="425" 
d="M26 0l19 93l207 290h93l84 -290l-19 -93h-384zM640 1083l-20 -93l-207 -290h-93l-84 290l20 93h384z" />
    <glyph glyph-name="colontriangularhalfmod" unicode="&#x2d1;" horiz-adv-x="425" 
d="M597 883l-20 -93l-206 -290h-93l-85 290l20 93h384z" />
    <glyph glyph-name="uni02D2" unicode="&#x2d2;" horiz-adv-x="420" 
d="M222 525q49 0 91 34.5t52 83.5q11 49 -16.5 84t-76.5 35l22 99q90 0 140 -64t31 -154t-96.5 -154t-168.5 -66l24 102h-2z" />
    <glyph glyph-name="uni02D3" unicode="&#x2d3;" horiz-adv-x="420" 
d="M438 525l-20 -102q-89 2 -139.5 66t-31.5 154t97 154t168 64l-22 -99q-49 0 -90.5 -35t-52.5 -84q-10 -49 17 -83.5t76 -34.5h-2z" />
    <glyph glyph-name="uni02D4" unicode="&#x2d4;" horiz-adv-x="598" 
d="M37 2l28 130h205l86 409h131l-86 -409h205l-28 -130h-205v-2h-131v2h-205z" />
    <glyph glyph-name="uni02D5" unicode="&#x2d5;" horiz-adv-x="598" 
d="M692 539l-28 -130h-205l-86 -409h-131l86 409h-205l28 130h205v2h131v-2h205z" />
    <glyph glyph-name="uni02D6" unicode="&#x2d6;" horiz-adv-x="598" 
d="M80 206l28 130h205l43 205h131l-43 -205h205l-28 -130h-205l-43 -206h-131l43 206h-205z" />
    <glyph glyph-name="uni02D7" unicode="&#x2d7;" horiz-adv-x="682" 
d="M164 553h574l-29 -135h-574z" />
    <glyph glyph-name="breve" unicode="&#x2d8;" horiz-adv-x="682" 
d="M553 1238q-154 0 -228 72.5t-54 225.5h135q-6 -92 69 -125q42 -19 110 -19t118 19q89 33 123 125h135q-46 -153 -150 -225.5t-258 -72.5z" />
    <glyph glyph-name="dotaccent" unicode="&#x2d9;" horiz-adv-x="682" 
d="M471 1493h260l-51 -237h-260z" />
    <glyph glyph-name="ring" unicode="&#x2da;" horiz-adv-x="682" 
d="M565 1325q49 0 91 34.5t52 83.5q11 49 -16 84t-76 35t-91.5 -35t-53.5 -84q-10 -49 17.5 -83.5t76.5 -34.5zM637 1661q90 0 140 -64t31 -154t-96.5 -154t-167.5 -64t-140.5 64t-31.5 154t97 154t168 64z" />
    <glyph glyph-name="ogonek" unicode="&#x2db;" horiz-adv-x="682" 
d="M488 0l-78 -48q-79 -50 -120 -86t-50 -80q-10 -46 17.5 -72.5t76.5 -26.5q22 0 47.5 6t58.5 17l-31 -144q-48 -17 -80 -24q-57 -13 -125 -13q-105 0 -159 58.5t-38 139.5q20 91 120 168q59 45 181 105h180z" />
    </font>
</defs>
</svg>
