<?xml version="1.0" standalone="no"?>
<!DOCTYPE svg PUBLIC "-//W3C//DTD SVG 1.1//EN" "http://www.w3.org/Graphics/SVG/1.1/DTD/svg11.dtd" >
<svg xmlns="http://www.w3.org/2000/svg" xmlns:xlink="http://www.w3.org/1999/xlink" version="1.1">
<metadata>
Created by FontForge 20170731 at Fri Apr 28 13:40:33 2023
 By Aleksey,,,
Copyright (c) 1988 Adobe Systems Incorporated.  All Rights Reserved.Helvetica is a trademark of Linotype Company.
</metadata>
<defs>
<font id="Helvetica-Compressed" horiz-adv-x="950" >
  <font-face 
    font-family="Helvetica Compressed"
    font-weight="500"
    font-stretch="normal"
    units-per-em="2048"
    panose-1="0 0 0 0 0 0 0 0 0 0"
    ascent="1638"
    descent="-410"
    x-height="1171"
    cap-height="1458"
    bbox="-246 -500 2048 2028"
    underline-thickness="139"
    underline-position="-269"
    unicode-range="U+0020-FB02"
  />
<missing-glyph horiz-adv-x="475" 
 />
    <glyph glyph-name=".notdef" horiz-adv-x="475" 
 />
    <glyph glyph-name=".null" horiz-adv-x="0" 
 />
    <glyph glyph-name="nonmarkingreturn" horiz-adv-x="682" 
 />
    <glyph glyph-name="space" unicode=" " horiz-adv-x="475" 
 />
    <glyph glyph-name="exclam" unicode="!" horiz-adv-x="530" 
d="M424 428h-318v1030h318v-1030zM424 0h-318v344h318v-344z" />
    <glyph glyph-name="quotedbl" unicode="&#x22;" horiz-adv-x="681" 
d="M406 903v555h245v-555h-245zM31 903v555h245v-555h-245z" />
    <glyph glyph-name="numbersign" unicode="#" 
d="M854 608l-6 -198h-150l-47 -410h-174l47 410h-159l-46 -410h-174l48 410h-150l8 198h164l29 242h-148l6 199h164l47 409h174l-47 -409h158l47 409h174l-47 -409h133l-6 -199h-149l-29 -242h133zM575 850h-157l-29 -242h160z" />
    <glyph glyph-name="dollar" unicode="$" 
d="M545 1587v-100q78 -6 141 -26.5t114 -57.5t79 -97.5t28 -140.5v-229h-340v207q0 61 -23 85.5t-69 24.5q-45 0 -67.5 -24t-22.5 -86q0 -45 29 -89.5t75 -85.5t101.5 -85.5t111 -97.5t101.5 -112t75 -139t29 -169q0 -88 -25 -157t-62 -110.5t-88 -70t-95 -40t-92 -16.5
v-123h-154v123q-155 9 -250.5 94t-95.5 236v266h340v-252q0 -62 22.5 -86t67.5 -24q46 0 69 24.5t23 85.5q0 65 -29 122.5t-75 102t-101.5 88.5t-111 92.5t-101.5 103t-75 131.5t-29 167q0 321 346 365v100h154z" />
    <glyph glyph-name="percent" unicode="%" horiz-adv-x="1290" 
d="M848 1487h151l-557 -1516h-153zM727 260v301q0 260 264 260t264 -260v-301q0 -260 -264 -260t-264 260zM1040 217v387q0 70 -49 70t-49 -70v-387q0 -70 49 -70t49 70zM35 897v301q0 260 264 260t264 -260v-301q0 -260 -264 -260t-264 260zM348 854v387q0 70 -49 70
t-49 -70v-387q0 -70 49 -70t49 70z" />
    <glyph glyph-name="ampersand" unicode="&#x26;" horiz-adv-x="1214" 
d="M678 262l-295 340v-180q8 -106 43 -161.5t119 -55.5q114 0 133 57zM508 1253q-25 0 -42 -8.5t-26 -20.5t-13.5 -34t-5.5 -38t-1 -44q0 -51 21.5 -101t56.5 -79q45 0 66.5 51.5t21.5 136.5q0 33 -1.5 52t-8.5 41.5t-24 33t-44 10.5zM813 819h340v-244q0 -202 -70 -272h125
v-303h-141q-153 0 -195 57q-135 -86 -350 -86q-70 0 -135 12t-128.5 42t-110.5 74t-76 114t-29 158v104q0 62 6 108t22.5 90.5t49 77t82.5 52.5q-123 116 -123 309q0 93 26.5 162.5t67.5 109t102 64t118.5 32t127.5 7.5q32 0 63 -2t73 -10t77.5 -20.5t71.5 -35.5t61.5 -53.5
t41.5 -76t16 -101.5v-125q0 -97 -87 -172.5t-206 -93.5q40 -44 92.5 -112t67.5 -85h20v219z" />
    <glyph glyph-name="quotesingle" unicode="'" horiz-adv-x="454" 
d="M104 903v555h246v-555h-246z" />
    <glyph glyph-name="parenleft" unicode="(" horiz-adv-x="606" 
d="M575 -127h-313q-111 170 -172 377t-61 422q0 225 54 417.5t175 397.5h311q-123 -172 -183 -379t-60 -428q0 -212 64.5 -431t184.5 -376z" />
    <glyph glyph-name="parenright" unicode=")" horiz-adv-x="606" 
d="M344 -127h-313q120 157 185 376t65 431q0 220 -60.5 427.5t-183.5 379.5h311q121 -205 175.5 -398t54.5 -417q0 -215 -61.5 -421.5t-172.5 -377.5z" />
    <glyph glyph-name="asterisk" unicode="*" 
d="M389 1245v213h170v-213l199 78l57 -164l-211 -69l148 -181l-138 -106l-141 190l-133 -190l-141 104l141 180l-207 60l57 168z" />
    <glyph glyph-name="plus" unicode="+" horiz-adv-x="1228" 
d="M475 725v381h279v-381h381v-279h-381v-380h-279v380h-381v279h381z" />
    <glyph glyph-name="comma" unicode="," horiz-adv-x="475" 
d="M246 -262h-211l78 606h325z" />
    <glyph glyph-name="hyphen" unicode="-" horiz-adv-x="530" 
d="M37 530v242h455v-242h-455z" />
    <glyph glyph-name="period" unicode="." horiz-adv-x="475" 
d="M395 0h-317v344h317v-344z" />
    <glyph glyph-name="slash" unicode="/" horiz-adv-x="530" 
d="M367 1487h159l-362 -1516h-160z" />
    <glyph glyph-name="zero" unicode="0" 
d="M565 303v852q0 98 -92 98q-90 0 -90 -98v-852q0 -98 90 -98q92 0 92 98zM905 1061v-692q0 -203 -113 -300.5t-317 -97.5q-202 0 -317 98t-115 300v692q0 99 27.5 176t70.5 123t102.5 75.5t116.5 40.5t119 11q74 0 133.5 -11t115.5 -40t94 -76t60.5 -123t22.5 -176z" />
    <glyph glyph-name="one" unicode="1" 
d="M90 1081v213q47 0 91.5 8t88 25.5t74 51t39.5 79.5h287v-1458h-340v1081h-240z" />
    <glyph glyph-name="two" unicode="2" 
d="M373 213h524v-213h-864v180q0 95 29 185.5t75 162t102 138.5t112 127.5t102 117.5t75 118t29 120q0 104 -92 104t-92 -104v-211h-340v160q0 102 28.5 176t70.5 114t105.5 63.5t116.5 29.5t121 6q63 0 119.5 -10t113 -37t97.5 -69.5t66.5 -111t25.5 -157.5
q0 -80 -24.5 -154t-63 -130.5t-90.5 -117.5t-102 -110t-103 -113t-88 -123q-3 -5 -13 -22t-13 -23t-10 -20.5t-9.5 -24t-5 -23.5t-2.5 -28z" />
    <glyph glyph-name="three" unicode="3" 
d="M47 561h340v-246q0 -110 86 -110q88 0 88 110v185q0 31 -5 53.5t-17 36.5t-24 22.5t-33.5 12.5t-38.5 5t-44 1h-114v233h131q63 0 104 30t41 99v170q0 38 -24 64t-64 26q-18 0 -32.5 -5.5t-23.5 -13t-15 -22.5t-9 -25t-4.5 -31t-1.5 -29.5v-30.5v-162h-340v209
q0 80 29 143t72.5 100t102.5 60.5t111.5 32t106.5 8.5q66 0 126 -10t117 -34.5t98 -61t66 -93t25 -127.5v-92q0 -147 -53 -216t-158 -93l-2 2v-12q70 -10 114.5 -35t71.5 -82t27 -148v-161q0 -92 -34 -161t-94 -110.5t-136.5 -61.5t-167.5 -20q-422 0 -422 340v250z" />
    <glyph glyph-name="four" unicode="4" 
d="M6 334v233l397 891h412v-891h113v-233h-113v-334h-317v334h-492zM494 1155l-263 -588h267v588h-4z" />
    <glyph glyph-name="five" unicode="5" 
d="M41 580h340v-263q0 -51 24.5 -81.5t67.5 -30.5t68.5 30.5t25.5 81.5v363q0 51 -25 82t-67 31q-33 0 -63.5 -34.5t-30.5 -68.5h-340v768h856v-213h-532q-2 -46 -7.5 -138t-7.5 -138h4q116 100 254 100t218.5 -86t80.5 -258v-340q0 -114 -36 -197t-99 -129t-137 -67
t-162 -21q-118 0 -215 37.5t-157 114t-60 178.5v279z" />
    <glyph glyph-name="six" unicode="6" 
d="M903 942h-340v182q0 62 -18.5 95.5t-71.5 33.5q-52 0 -70 -33.5t-18 -95.5v-346q59 49 113.5 72.5t124.5 23.5q122 0 201 -74t79 -208v-244q0 -81 -24.5 -146t-65 -107.5t-94 -71t-109.5 -40.5t-114 -12q-451 0 -451 412v752q0 89 38 158.5t101.5 110.5t140.5 62t162 21
q416 0 416 -363v-182zM483 608q-46 0 -72 -23t-26 -59v-258q0 -28 23.5 -45.5t68.5 -17.5q42 0 64 18.5t22 48.5v263q0 73 -80 73z" />
    <glyph glyph-name="seven" unicode="7" 
d="M553 1245h-535v213h897v-207l-479 -1251h-362z" />
    <glyph glyph-name="eight" unicode="8" 
d="M915 465v-125q0 -94 -35.5 -166t-98.5 -115.5t-142.5 -65.5t-173.5 -22q-201 0 -315.5 95.5t-114.5 281.5v158q0 104 65.5 172t161.5 82v8q-94 17 -160.5 84t-66.5 176v111q0 80 29.5 143t75 100.5t107 62t119.5 33.5t119 9q87 0 159.5 -17t135.5 -54.5t99 -107
t36 -165.5v-129q0 -84 -67.5 -155.5t-161.5 -90.5v-8q44 -10 71.5 -19t60.5 -30t52 -50t32 -79t13 -117zM375 545v-262q0 -44 27.5 -61t76.5 -17t72.5 17t23.5 61v260q0 98 -102 98q-98 0 -98 -96zM375 1157v-217q0 -50 24.5 -68t73.5 -18q52 0 77 18.5t25 75.5v207
q0 51 -24 74.5t-76 23.5q-50 0 -75 -26t-25 -70z" />
    <glyph glyph-name="nine" unicode="9" 
d="M45 516h340v-182q0 -62 18.5 -95.5t71.5 -33.5q52 0 70 33.5t18 95.5v346q-60 -49 -113.5 -72.5t-123.5 -23.5q-122 0 -201.5 74t-79.5 208v244q0 81 25 146t65 107.5t94 71t110 40.5t114 12q450 0 450 -412v-751q0 -89 -38 -158.5t-101.5 -111t-140.5 -62.5t-162 -21
q-416 0 -416 363v182zM465 850q46 0 72 23t26 59v258q0 28 -23.5 45.5t-68.5 17.5q-42 0 -64 -18.5t-22 -48.5v-262q0 -74 80 -74z" />
    <glyph glyph-name="colon" unicode=":" horiz-adv-x="475" 
d="M395 0h-317v344h317v-344zM395 827h-317v344h317v-344z" />
    <glyph glyph-name="semicolon" unicode=";" horiz-adv-x="475" 
d="M246 -262h-211l78 606h325zM395 827h-317v344h317v-344z" />
    <glyph glyph-name="less" unicode="&#x3c;" horiz-adv-x="1228" 
d="M1075 319v-208l-921 389v172l921 389v-209l-639 -266z" />
    <glyph glyph-name="equal" unicode="=" horiz-adv-x="1228" 
d="M1135 692h-1041v279h1041v-279zM1135 201h-1041v278h1041v-278z" />
    <glyph glyph-name="greater" unicode="&#x3e;" horiz-adv-x="1228" 
d="M154 111v208l639 267l-639 266v209l921 -389v-172z" />
    <glyph glyph-name="question" unicode="?" 
d="M631 432h-318v184q0 65 11.5 115.5t30.5 81.5t42 55.5t46.5 44.5t43.5 40.5t34.5 50.5t17.5 69v115q0 44 -13 68t-55 24q-40 0 -52.5 -23.5t-12.5 -68.5v-242h-318v234q0 65 22 117.5t59 87t88 58t107.5 34t118.5 10.5q379 0 379 -313v-93q0 -63 -12.5 -112.5t-32 -81
t-43.5 -57.5t-48.5 -48.5t-45 -46.5t-34 -60t-15.5 -81v-162zM631 0h-318v344h318v-344z" />
    <glyph glyph-name="at" unicode="@" horiz-adv-x="1638" 
d="M791 508q90 0 146 63t56 152q0 74 -42.5 119t-114.5 45q-82 0 -138.5 -64t-56.5 -145q0 -73 40 -121.5t110 -48.5zM1051 993l18 99h188l-88 -488q-25 -117 15 -117q71 0 127.5 81.5t56.5 232.5q0 240 -143.5 368.5t-378.5 128.5q-245 0 -392 -160.5t-147 -416.5
q0 -265 158.5 -419.5t415.5 -154.5q217 0 376 123h195q-208 -299 -588 -299q-158 0 -299.5 55.5t-246.5 152.5t-166.5 238t-61.5 304q0 161 60.5 304t163 244t243 159.5t295.5 58.5q105 0 206.5 -27.5t189.5 -81.5t155.5 -128t106 -173.5t38.5 -210.5q0 -96 -22.5 -180
t-59.5 -142.5t-85 -106t-97 -77t-98.5 -49t-87 -27.5t-64.5 -8q-44 0 -74 26.5t-34 76.5q-37 -44 -89.5 -73.5t-101.5 -29.5q-130 0 -229.5 109.5t-99.5 257.5q0 121 48.5 227.5t141.5 174t211 67.5q160 0 244 -119z" />
    <glyph glyph-name="A" unicode="A" 
d="M401 580h123l-59 649h-4zM270 1458h467l189 -1458h-338l-39 358h-184l-56 -358h-286z" />
    <glyph glyph-name="B" unicode="B" 
d="M385 657v-448q65 -6 103.5 6.5t54.5 52t19 72t3 104.5v5q0 40 -1.5 68.5t-7 51t-10 37t-18 25t-23 15.5t-32.5 7.5t-38.5 3t-49.5 0.5zM45 0v1458h344q79 0 121 -1t106 -8t98.5 -20t77 -38.5t63 -63t35.5 -94t15 -129.5q0 -52 -6 -95t-22.5 -84.5t-43 -71t-69.5 -50
t-100 -25.5v-14q63 0 108 -19t70.5 -48.5t40 -77.5t18.5 -93.5t4 -109.5q0 -86 -11 -149.5t-27.5 -108.5t-52.5 -74t-69.5 -46t-97 -25.5t-115.5 -10.5t-143 -2h-344zM385 1249v-383q14 1 37.5 1t35.5 0.5t30 4t27 10t20.5 20t16.5 34t9 51t4 70.5q0 61 -4.5 93t-22.5 59
t-54.5 35.5t-98.5 4.5z" />
    <glyph glyph-name="C" unicode="C" 
d="M567 567h338v-192q0 -404 -432 -404q-71 0 -131 12t-116.5 42t-95 77.5t-62 122.5t-23.5 172v664q0 97 23.5 172t62 122.5t95 77.5t116.5 42t131 12q79 0 140.5 -10t118 -36.5t93.5 -69.5t58.5 -112t21.5 -161v-160h-340v201q0 114 -92 114q-88 0 -88 -114v-820
q0 -114 88 -114q92 0 92 114z" />
    <glyph glyph-name="D" unicode="D" 
d="M45 0v1458h350q76 0 131.5 -3.5t108.5 -13t89 -25.5t68.5 -43t52 -63t34 -87t20.5 -115t6 -147v-521q0 -73 -8 -128.5t-29 -107.5t-58 -88t-92.5 -63t-136 -40t-186.5 -13h-350zM385 1249v-1040q61 0 98 11t54.5 39.5t22.5 61t5 91.5v600q0 56 -1 86t-7.5 61.5t-17 45
t-31.5 25.5t-50 15.5t-73 3.5z" />
    <glyph glyph-name="E" unicode="E" horiz-adv-x="757" 
d="M745 0h-704v1458h704v-221h-364v-319h352v-222h-352v-475h364v-221z" />
    <glyph glyph-name="F" unicode="F" horiz-adv-x="757" 
d="M381 0h-340v1458h704v-221h-364v-319h352v-222h-352v-696z" />
    <glyph glyph-name="G" unicode="G" 
d="M707 0l-19 74q-54 -59 -139 -82q-67 -21 -156 -21q-87 0 -149 20t-108 67.5t-68.5 131.5t-22.5 207v664q0 97 23.5 172t62.5 122.5t95.5 77.5t117 42t131.5 12q212 0 320.5 -94t111.5 -303l-2 -154h-340v203q0 114 -90 114t-90 -114v-820q0 -114 90 -114t90 114v195h-129
v221h469v-735h-198z" />
    <glyph glyph-name="H" unicode="H" 
d="M385 0h-340v1458h340v-540h180v540h340v-1458h-340v696h-180v-696z" />
    <glyph glyph-name="I" unicode="I" horiz-adv-x="417" 
d="M379 0h-340v1458h340v-1458z" />
    <glyph glyph-name="J" unicode="J" 
d="M551 1458h340v-1087q0 -66 -9.5 -119.5t-37.5 -107.5t-74 -90.5t-124.5 -59.5t-184.5 -23q-32 0 -65.5 3t-77 13t-81.5 25.5t-76 43.5t-65 64t-44 89.5t-17 118.5v235h340v-211v-28.5t1.5 -28t4.5 -28.5t9.5 -23.5t15.5 -21t23.5 -12t33.5 -5.5t33.5 5.5t23.5 12t15.5 21
t9.5 23.5t4.5 28.5t1.5 28v28.5v1106z" />
    <glyph glyph-name="K" unicode="K" 
d="M385 0h-340v1458h340v-661h4l215 661h324l-228 -643l230 -815h-336l-205 739h-4v-739z" />
    <glyph glyph-name="L" unicode="L" horiz-adv-x="757" 
d="M750 0h-709v1458h340v-1237h369v-221z" />
    <glyph glyph-name="M" unicode="M" horiz-adv-x="1366" 
d="M315 1245v-1245h-272v1458h500l143 -1036h4l144 1036h489v-1458h-307v1245h-4l-197 -1245h-299l-197 1245h-4z" />
    <glyph glyph-name="N" unicode="N" horiz-adv-x="1024" 
d="M33 0v1458h471l217 -1061h4v1061h266v-1458h-436l-252 1219h-4v-1219h-266z" />
    <glyph glyph-name="O" unicode="O" 
d="M385 1139v-820q0 -114 90 -114t90 114v820q0 114 -90 114t-90 -114zM905 1061v-664q0 -97 -23.5 -172t-62.5 -122.5t-95.5 -77.5t-117 -42t-131.5 -12t-131.5 12t-117 42t-95.5 77.5t-62.5 122.5t-23.5 172v664q0 97 23.5 172t62.5 122.5t95.5 77.5t117 42t131.5 12
t131.5 -12t117 -42t95.5 -77.5t62.5 -122.5t23.5 -172z" />
    <glyph glyph-name="P" unicode="P" 
d="M385 1249v-477h53q36 0 59 9t37 24t20.5 47.5t8.5 65.5t2 92q0 49 -1 78t-5.5 59.5t-12.5 47t-22 30.5t-35 19t-51 5h-53zM385 0h-340v1458h416q108 0 184.5 -14t137.5 -48t91.5 -96.5t30.5 -154.5v-266q0 -79 -33 -141t-89.5 -99.5t-125.5 -56.5t-147 -19h-125v-563z
" />
    <glyph glyph-name="Q" unicode="Q" 
d="M385 1139v-820q0 -114 90 -114t90 114v820q0 114 -90 114t-90 -114zM885 -10v-252q-81 0 -131 4.5t-95.5 17.5t-70 39t-39.5 68.5t-19 105.5q-18 -2 -55 -2q-71 0 -131.5 12t-117 42t-95.5 77.5t-62.5 122.5t-23.5 172v664q0 97 23.5 172t62.5 122.5t95.5 77.5t117 42
t131.5 12t131.5 -12t117 -42t95.5 -77.5t62.5 -122.5t23.5 -172v-664q0 -276 -184 -370v-37h164z" />
    <glyph glyph-name="R" unicode="R" 
d="M381 0h-340v1458h342q76 0 131 -2.5t112.5 -11t96 -23.5t74.5 -40t57 -61t33 -86.5t12 -115.5q0 -288 -260 -332v-4q131 -3 195.5 -64t64.5 -210v-305q0 -130 51 -203h-342q-49 71 -49 203v309q0 72 -36.5 113t-86.5 41h-55v-666zM381 1249v-375q111 0 144.5 40t33.5 149
q0 55 -6 86.5t-24.5 56t-53.5 34t-94 9.5z" />
    <glyph glyph-name="S" unicode="S" 
d="M905 936h-340v205q0 57 -20.5 84.5t-69.5 27.5q-53 0 -71.5 -27t-18.5 -85q0 -49 28.5 -95.5t74.5 -86t101.5 -81.5t111 -91.5t101.5 -106.5t74.5 -136t28.5 -171q0 -402 -432 -402q-87 0 -159.5 16t-135 52t-98 101.5t-35.5 156.5v270h340v-252q0 -63 20.5 -86.5
t69.5 -23.5q44 0 67 24.5t23 85.5q0 67 -28.5 123.5t-74.5 99t-101.5 84.5t-111 89.5t-101.5 102t-74.5 133.5t-28.5 175q0 365 436 365q90 0 163.5 -16.5t133.5 -52.5t93.5 -100.5t33.5 -152.5v-229z" />
    <glyph glyph-name="T" unicode="T" horiz-adv-x="872" 
d="M266 1237h-237v221h815v-221h-238v-1237h-340v1237z" />
    <glyph glyph-name="U" unicode="U" 
d="M905 1458v-1042q-6 -237 -102.5 -341t-329.5 -104q-87 0 -156 18t-113 44t-75.5 69.5t-47.5 80.5t-24.5 92t-10 88.5t-1.5 85.5v1009h340v-1050q0 -38 0.5 -56.5t3 -47.5t8 -42.5t14.5 -29t24.5 -21.5t37.5 -6t38.5 6t26.5 21.5t15.5 29t8 42.5t3 47.5t0.5 56.5v1050h340
z" />
    <glyph glyph-name="V" unicode="V" 
d="M242 0l-226 1458h365l82 -1124h4l147 1124h318l-244 -1458h-446z" />
    <glyph glyph-name="W" unicode="W" horiz-adv-x="1441" 
d="M199 0l-193 1458h348l72 -1038h4l131 1038h369l92 -1038h4l107 1038h301l-191 -1458h-397l-131 1124h-4l-121 -1124h-391z" />
    <glyph glyph-name="X" unicode="X" 
d="M453 584l-127 -584h-310l205 782l-203 676h371l117 -579h4l115 579h309l-203 -723l203 -735h-361l-116 584h-4z" />
    <glyph glyph-name="Y" unicode="Y" 
d="M305 0v537l-289 921h332l125 -579h4l125 579h332l-289 -921v-537h-340z" />
    <glyph glyph-name="Z" unicode="Z" horiz-adv-x="757" 
d="M748 0h-738v250l381 987h-381v221h738v-215l-398 -1022h398v-221z" />
    <glyph glyph-name="bracketleft" unicode="[" horiz-adv-x="606" 
d="M549 -127h-492v1614h490v-230h-207v-1155h209v-229z" />
    <glyph glyph-name="backslash" unicode="\" horiz-adv-x="569" 
d="M-98 1487h159l607 -1516h-160z" />
    <glyph glyph-name="bracketright" unicode="]" horiz-adv-x="606" 
d="M549 -127h-492v229h209v1155h-207v230h490v-1614z" />
    <glyph glyph-name="asciicircum" unicode="^" horiz-adv-x="1228" 
d="M387 711h-237l356 747h217l356 -747h-239l-226 508z" />
    <glyph glyph-name="underscore" unicode="_" horiz-adv-x="1024" 
d="M1024 -201h-1024v140h1024v-140z" />
    <glyph glyph-name="grave" unicode="`" horiz-adv-x="417" 
d="M356 1309h-137l-299 288h236z" />
    <glyph glyph-name="a" unicode="a" horiz-adv-x="872" 
d="M369 428v-127q0 -29 17 -45t42 -16q48 0 62 32t14 117v203q-11 -8 -37.5 -25t-38.5 -26.5t-28.5 -27t-23.5 -38.5t-7 -47zM504 0v137h-4q-33 -71 -85.5 -111t-142.5 -40q-107 0 -167 62.5t-60 176.5v174q0 62 25.5 111.5t66 82t89 59t97.5 49.5t89.5 47.5t66 59.5
t25.5 79q0 86 -68 86q-67 0 -67 -86v-129h-324v108q0 85 33 149t90 100t124 53.5t144 17.5t144 -17.5t124 -53.5t90 -100t33 -149v-866h-323z" />
    <glyph glyph-name="b" unicode="b" horiz-adv-x="872" 
d="M369 840v-508q0 -37 18.5 -58.5t48.5 -21.5t49 21.5t19 58.5v508q0 37 -19 58.5t-49 21.5t-48.5 -21.5t-18.5 -58.5zM45 0v1458h324v-446h4q22 81 81.5 127.5t147.5 46.5q117 0 171 -70t54 -190v-647q0 -57 -11.5 -106t-36.5 -92.5t-72 -69t-111 -25.5q-201 0 -223 161
h-4v-147h-324z" />
    <glyph glyph-name="c" unicode="c" horiz-adv-x="872" 
d="M504 758v133q0 82 -68 82q-67 0 -67 -82v-610q0 -82 67 -82q68 0 68 82v182h323v-172q0 -158 -105 -231.5t-288 -73.5q-187 0 -288 80t-101 245v547q0 147 104 237.5t285 90.5q83 0 150.5 -16.5t123.5 -53.5t87.5 -103t31.5 -157v-98h-323z" />
    <glyph glyph-name="d" unicode="d" horiz-adv-x="872" 
d="M369 840v-508q0 -37 18.5 -58.5t48.5 -21.5t49 21.5t19 58.5v508q0 37 -19 58.5t-49 21.5t-48.5 -21.5t-18.5 -58.5zM504 0v147h-4q-22 -161 -224 -161q-64 0 -111 25.5t-72 69t-36.5 92.5t-11.5 106v647q0 120 54 190t171 70q88 0 148 -46.5t82 -127.5h4v446h323v-1458
h-323z" />
    <glyph glyph-name="e" unicode="e" horiz-adv-x="872" 
d="M827 549h-458v-238q0 -53 17.5 -82.5t49.5 -29.5q68 0 68 112v152h323v-172q0 -158 -105 -231.5t-286 -73.5q-108 0 -194 31.5t-141.5 103.5t-55.5 176v559q0 159 101 244.5t290 85.5q82 0 149 -16.5t123 -53t87.5 -103t31.5 -157.5v-307zM369 743h135v160q0 70 -68 70
q-67 0 -67 -70v-160z" />
    <glyph glyph-name="f" unicode="f" horiz-adv-x="530" 
d="M86 958h-72v213h72v76q0 36 12 71.5t36 67.5t65.5 52t95.5 20h207v-213q-56 0 -74 -17.5t-18 -56.5h92v-213h-92v-958h-324v958z" />
    <glyph glyph-name="g" unicode="g" horiz-adv-x="872" 
d="M369 831v-335q0 -88 67 -88q68 0 68 88v335q0 89 -68 89q-67 0 -67 -89zM827 1171v-1058q0 -93 -28.5 -163.5t-70 -109.5t-99 -63.5t-104.5 -31.5t-97 -7q-177 0 -280 74t-103 174v114h324v-77q0 -72 67 -72q68 0 68 72v290h-6q-7 -75 -63 -123.5t-134 -48.5
q-256 0 -256 295v479q0 132 60.5 201.5t150.5 69.5q94 0 150 -41t92 -125h4v151h325z" />
    <glyph glyph-name="h" unicode="h" horiz-adv-x="872" 
d="M369 0h-324v1458h324v-432h4q52 160 229 160q225 0 225 -279v-907h-323v793q0 30 -1.5 47.5t-7.5 38.5t-20.5 31t-38.5 10q-19 0 -32 -8t-20 -18t-10.5 -29.5t-4 -33.5t-0.5 -38v-793z" />
    <glyph glyph-name="i" unicode="i" horiz-adv-x="417" 
d="M371 0h-324v1171h324v-1171zM371 1251h-324v207h324v-207z" />
    <glyph glyph-name="j" unicode="j" horiz-adv-x="417" 
d="M371 1171v-1198q0 -130 -56.5 -182.5t-187.5 -52.5h-225v213h43q61 0 81.5 24.5t20.5 106.5v1089h324zM47 1458h324v-207h-324v207z" />
    <glyph glyph-name="k" unicode="k" horiz-adv-x="872" 
d="M369 0h-324v1458h324v-821h4l166 534h313l-186 -524l202 -647h-329l-166 612h-4v-612z" />
    <glyph glyph-name="l" unicode="l" horiz-adv-x="417" 
d="M371 0h-324v1458h324v-1458z" />
    <glyph glyph-name="m" unicode="m" horiz-adv-x="1290" 
d="M360 1171v-155h5q51 170 225 170q176 0 211 -170h4q13 77 74.5 123.5t148.5 46.5q213 0 213 -248v-938h-311v813q0 23 -2 39t-8 33t-20 26t-36 9q-18 0 -30 -6.5t-18.5 -16t-10 -25.5t-4 -28t-0.5 -31v-813h-312v813q0 23 -2 38.5t-7.5 33t-19.5 26.5t-36 9t-35.5 -8.5
t-19.5 -26.5t-7.5 -33t-1.5 -39v-813h-311v1171h311z" />
    <glyph glyph-name="n" unicode="n" horiz-adv-x="872" 
d="M369 1171v-145h4q49 160 235 160q107 0 163 -70t56 -198v-918h-323v813q0 23 -2 39t-8 33t-20 26t-36 9q-41 0 -55 -29.5t-14 -77.5v-813h-324v1171h324z" />
    <glyph glyph-name="o" unicode="o" horiz-adv-x="872" 
d="M369 891v-610q0 -82 67 -82q68 0 68 82v610q0 82 -68 82q-67 0 -67 -82zM827 856v-559q0 -104 -55.5 -176t-141.5 -103.5t-194 -31.5t-194 31.5t-141.5 103.5t-55.5 176v559q0 159 101 244.5t290 85.5t290 -85.5t101 -244.5z" />
    <glyph glyph-name="p" unicode="p" horiz-adv-x="872" 
d="M369 840v-508q0 -37 18.5 -58.5t48.5 -21.5t49 21.5t19 58.5v508q0 37 -19 58.5t-49 21.5t-48.5 -21.5t-18.5 -58.5zM369 1171v-153h4q22 168 223 168q64 0 110.5 -25.5t72 -69.5t37 -94.5t11.5 -109.5v-647q0 -116 -54 -185t-171 -69q-89 0 -148 44t-81 124h-4v-416
h-324v1433h324z" />
    <glyph glyph-name="q" unicode="q" horiz-adv-x="872" 
d="M369 840v-508q0 -37 18.5 -58.5t48.5 -21.5t49 21.5t19 58.5v508q0 37 -19 58.5t-49 21.5t-48.5 -21.5t-18.5 -58.5zM827 1171v-1433h-323v416h-4q-22 -80 -81.5 -124t-148.5 -44q-117 0 -171 69t-54 185v647q0 59 11.5 109.5t37 94.5t72 69.5t110.5 25.5q202 0 224 -168
h4v153h323z" />
    <glyph glyph-name="r" unicode="r" horiz-adv-x="872" 
d="M369 1171v-153h6q71 168 233 168q115 0 167 -64.5t52 -165.5v-417h-323v284q0 97 -68 97q-67 0 -67 -97v-823h-324v1171h324z" />
    <glyph glyph-name="s" unicode="s" horiz-adv-x="872" 
d="M827 758h-323v127q0 88 -68 88q-67 0 -67 -88q0 -40 25 -73t65 -57t88 -48.5t96 -56t88 -70.5t65 -101t25 -139q0 -174 -103.5 -264t-305.5 -90q-80 0 -145 16t-115.5 49.5t-78.5 90.5t-28 134v187h324v-176q0 -88 67 -88q68 0 68 88q0 56 -25.5 99t-66 70.5t-89.5 52.5
t-97.5 54t-89 65t-66 95.5t-25.5 136.5q0 166 104 246t275 80q189 0 296 -74.5t107 -218.5v-135z" />
    <glyph glyph-name="t" unicode="t" horiz-adv-x="606" 
d="M125 958h-109v213h109v211h324v-211h141v-213h-141v-639q0 -32 1.5 -47t8.5 -31.5t23 -22t44 -5.5h64v-213h-264q-115 0 -158 60t-43 184v714z" />
    <glyph glyph-name="u" unicode="u" horiz-adv-x="872" 
d="M504 0v145h-4q-48 -159 -236 -159q-107 0 -163 70t-56 198v917h324v-813q0 -18 1 -31t4.5 -28t10 -24.5t19 -16t30.5 -6.5q70 0 70 106v813h323v-1171h-323z" />
    <glyph glyph-name="v" unicode="v" horiz-adv-x="872" 
d="M246 0l-223 1171h327l109 -909h4l108 909h279l-211 -1171h-393z" />
    <glyph glyph-name="w" unicode="w" horiz-adv-x="1366" 
d="M190 0l-180 1171h324l86 -905h4l102 905h359l108 -905h4l72 905h285l-168 -1171h-395l-107 934h-4l-107 -934h-383z" />
    <glyph glyph-name="x" unicode="x" horiz-adv-x="872" 
d="M408 498l-113 -498h-287l197 610l-185 561h334l101 -452h4l100 452h289l-191 -561l207 -610h-340l-112 498h-4z" />
    <glyph glyph-name="y" unicode="y" horiz-adv-x="872" 
d="M25 1171h327l109 -809h4l108 809h273l-262 -1234q-20 -99 -87.5 -149t-174.5 -50h-261v213h168q32 0 45 7.5t13 25.5q0 11 -8 51z" />
    <glyph glyph-name="z" unicode="z" horiz-adv-x="681" 
d="M676 0h-670v213l301 745h-301v213h660v-180l-314 -778h324v-213z" />
    <glyph glyph-name="braceleft" unicode="{" horiz-adv-x="681" 
d="M57 602v170q33 2 53 5.5t44 15t35.5 36.5t11.5 64v356q0 58 30 106.5t74.5 75.5t88.5 41.5t79 14.5h152v-156h-23q-39 0 -65 -10t-36.5 -28.5t-14 -34.5t-3.5 -39v-363q0 -47 -29 -81t-74.5 -51t-82.5 -24.5t-72 -9.5v-4q26 -2 38 -3.5t44 -7t50.5 -12t45.5 -20.5t42 -32
t26.5 -45.5t11.5 -61.5v-365q0 -21 3.5 -37t14 -34.5t36.5 -28.5t65 -10h23v-156h-152q-27 0 -61 8.5t-71.5 28t-68.5 46.5t-51 67.5t-20 87.5v370q0 39 -11.5 64t-35.5 36.5t-44 15t-53 5.5z" />
    <glyph glyph-name="bar" unicode="|" horiz-adv-x="454" 
d="M88 0v1458h279v-1458h-279z" />
    <glyph glyph-name="braceright" unicode="}" horiz-adv-x="681" 
d="M625 772v-170q-33 -2 -53 -5.5t-44 -15t-35.5 -36.5t-11.5 -64v-370q0 -47 -20 -87.5t-51 -67.5t-68.5 -46.5t-71.5 -28t-61 -8.5h-152v156h23q39 0 65 10t36.5 28.5t14 34.5t3.5 37v365q0 34 11.5 61.5t26.5 45.5t42 32t45.5 20.5t50.5 12t44 7t38 3.5v4q-35 2 -72 9.5
t-82.5 24.5t-74.5 51t-29 81v363q0 23 -3.5 39t-14 34.5t-36.5 28.5t-65 10h-23v156h152q35 0 79 -14.5t88.5 -41.5t74.5 -75.5t30 -106.5v-356q0 -39 11.5 -64t35.5 -36.5t44 -15t53 -5.5z" />
    <glyph glyph-name="asciitilde" unicode="~" horiz-adv-x="1228" 
d="M1014 709l73 -197q-23 -32 -38.5 -52t-41 -46.5t-49.5 -41t-57 -25.5t-70 -11q-85 0 -208 67q-128 72 -236 72q-105 0 -172 -147l-74 196q92 176 256 176q83 0 228 -65q14 -6 44.5 -20t47.5 -21t40.5 -16t42 -13t34.5 -4q29 0 55 11.5t49.5 36.5t38 45t37.5 55z" />
    <glyph glyph-name="exclamdown" unicode="&#xa1;" horiz-adv-x="530" 
d="M106 797h318v-1030h-318v1030zM106 1225h318v-344h-318v344z" />
    <glyph glyph-name="cent" unicode="&#xa2;" 
d="M866 463v-172q0 -158 -105 -231.5t-288 -73.5h-14l-56 -248h-192l65 278q-192 69 -192 295v547q0 147 104 237.5t285 90.5q23 0 31 -2l47 196h188l-53 -233q180 -70 180 -291v-98h-323v133q0 82 -68 82q-67 0 -67 -82v-610q0 -82 67 -82q68 0 68 82v182h323z" />
    <glyph glyph-name="sterling" unicode="&#xa3;" 
d="M63 -27l-24 209q135 84 135 303q0 73 -20 158h-136v160h91q-3 12 -15 56t-18 69q-15 84 -15 131q0 229 99 328.5t329 99.5q123 0 203 -27t124.5 -88.5t61.5 -143t17 -206.5h-320v57q0 88 -17 131t-71 43q-79 0 -90 -96q-2 -21 -2 -74q0 -42 7 -88t20 -105.5t18 -86.5h222
v-160h-201q0 -281 -123 -397v-4q88 18 127 18q49 0 139 -19.5t127 -19.5q93 0 176 39l25 -237q-30 -20 -94 -36t-103 -16q-86 0 -221.5 34t-210.5 34q-115 0 -240 -66z" />
    <glyph glyph-name="currency" unicode="&#xa4;" 
d="M27 459l100 98q-37 43 -58.5 106.5t-21.5 133.5q0 73 21 138.5t59 102.5l-100 101l108 108l98 -98q38 34 106 55t140 21q67 0 131.5 -20.5t98.5 -51.5l98 98l117 -116l-97 -97q33 -35 53.5 -100.5t20.5 -136.5t-20.5 -137t-55.5 -109l97 -96l-105 -105l-98 101
q-39 -38 -105 -60t-137 -22q-160 0 -248 78l-96 -97zM477 561q94 0 154.5 70.5t60.5 169.5q0 96 -60 165.5t-153 69.5q-98 0 -160.5 -69t-62.5 -170q0 -99 62.5 -167.5t158.5 -68.5z" />
    <glyph glyph-name="yen" unicode="&#xa5;" 
d="M645 0h-340v371h-164v159h164l-47 162h-178v160h119l-183 606h332l125 -579h4l125 579h332l-182 -606h118v-160h-178l-47 -162h164v-159h-164v-371z" />
    <glyph glyph-name="brokenbar" unicode="&#xa6;" horiz-adv-x="454" 
d="M88 0v545h279v-545h-279zM88 913v545h279v-545h-279z" />
    <glyph glyph-name="section" unicode="&#xa7;" horiz-adv-x="872" 
d="M334 860q-51 -33 -51 -88q0 -36 48 -84t116.5 -98.5t84.5 -67.5q21 14 36.5 38t15.5 48q0 32 -31.5 69.5t-70.5 66t-84.5 62.5t-63.5 54zM774 1190h-242q0 47 -18 74q-20 30 -63 30q-37 0 -64 -21.5t-27 -58.5q0 -34 25 -68t65 -65t88.5 -64.5t97.5 -72.5t89 -82t65 -101
t25 -122q0 -75 -36 -140.5t-99 -109.5q0 -1 9 -8t21.5 -22t25 -37t21.5 -60.5t9 -85.5q0 -146 -95.5 -226.5t-244.5 -80.5q-163 0 -259.5 85.5t-82.5 244.5h235q2 -67 25 -101.5t86 -34.5q36 0 61 26t25 63t-25.5 73t-66 67.5t-89.5 64.5t-97.5 71t-89 79.5t-66 96.5
t-25.5 117q0 98 29.5 160.5t103.5 124.5q-71 48 -71 180q0 142 96.5 221.5t241.5 79.5q134 5 232.5 -79.5t84.5 -217.5z" />
    <glyph glyph-name="dieresis" unicode="&#xa8;" horiz-adv-x="417" 
d="M494 1331h-230v252h230v-252zM154 1331h-230v252h230v-252z" />
    <glyph glyph-name="copyright" unicode="&#xa9;" horiz-adv-x="1638" 
d="M819 -29q-124 0 -240.5 32t-216.5 96.5t-175 154.5t-117.5 212t-42.5 263t42.5 263t117.5 212t175 154.5t216.5 96.5t240.5 32q123 0 239.5 -32t217 -96.5t175.5 -154t118 -212t43 -263.5t-43 -263.5t-118 -212t-175.5 -154t-217 -96.5t-239.5 -32zM1360 729
q0 124 -43.5 231.5t-117 181t-172.5 115t-208 41.5q-111 0 -210 -41.5t-172 -115t-115.5 -180.5t-42.5 -232q0 -124 42.5 -231t115 -180.5t172 -115.5t210.5 -42q109 0 208 42t172.5 115.5t117 180.5t43.5 231zM1022 618h195q-22 -151 -124.5 -234t-242.5 -83
q-188 0 -305 124t-117 310q0 192 114 315.5t304 123.5q142 0 240 -81.5t122 -232.5h-186q-4 65 -51 97t-121 32q-87 -3 -140 -70.5t-53 -179.5q0 -107 54 -178.5t139 -71.5q74 0 121 32t51 97z" />
    <glyph glyph-name="ordfeminine" unicode="&#xaa;" horiz-adv-x="524" 
d="M217 1036v-90q0 -10 12 -18t27 -8q17 0 28 9t15.5 26.5t6 33.5t1.5 39v102l-17.5 -10.5t-17.5 -11l-15 -10.5t-14.5 -12.5t-10.5 -13t-9.5 -16.5t-5.5 -20zM307 776v82h-4q-24 -44 -57 -68t-90 -24q-70 0 -110 38.5t-40 106.5v105q0 50 31 87t75 58.5t88.5 40t75.5 44
t31 59.5q0 53 -47 53q-43 0 -43 -53v-74h-211v65q0 98 75 144.5t185 46.5q45 0 87.5 -10.5t80.5 -32.5t61 -61.5t23 -92.5v-514h-211z" />
    <glyph glyph-name="guillemotleft" unicode="&#xab;" horiz-adv-x="757" 
d="M727 203l-309 311v274l309 312v-295l-154 -154l154 -153v-295zM340 203l-309 311v274l309 312v-295l-154 -154l154 -153v-295z" />
    <glyph glyph-name="logicalnot" unicode="&#xac;" horiz-adv-x="1228" 
d="M887 332v360h-793v248h1041v-608h-248z" />
    <glyph glyph-name="registered" unicode="&#xae;" horiz-adv-x="1638" 
d="M819 -29q-124 0 -240.5 32t-216.5 96.5t-175 154t-117.5 211.5t-42.5 262q0 141 42.5 263.5t117.5 212.5t175 154.5t216.5 97t240.5 32.5q123 0 239.5 -32.5t217 -97t175.5 -154.5t118 -212.5t43 -263.5q0 -174 -66 -319t-177 -239.5t-253 -146t-297 -51.5zM1360 727
q0 124 -43.5 232t-117 181.5t-172.5 115.5t-208 42q-111 0 -210 -42t-172 -115.5t-115.5 -181t-42.5 -232.5q0 -124 42.5 -230.5t115.5 -180t172 -115t210 -41.5q109 0 208 41.5t172.5 114.5t117 180t43.5 231zM696 662v-343h-190v820h311q175 0 261.5 -55t86.5 -195
q0 -110 -58.5 -159.5t-172.5 -55.5l211 -355h-191l-188 343h-70zM696 809h160q58 0 84.5 19.5t26.5 70.5t-26.5 70.5t-84.5 19.5l-160 2v-182z" />
    <glyph glyph-name="macron" unicode="&#xaf;" horiz-adv-x="417" 
d="M498 1384h-576v152h576v-152z" />
    <glyph glyph-name="degree" unicode="&#xb0;" horiz-adv-x="819" 
d="M410 1004q76 0 114.5 42t38.5 119q0 78 -39 120t-114 42q-76 0 -115 -42.5t-39 -119.5t39 -119t115 -42zM410 872q-123 0 -208 85t-85 208t85 208t208 85t207.5 -85t84.5 -208t-84.5 -208t-207.5 -85z" />
    <glyph glyph-name="plusminus" unicode="&#xb1;" horiz-adv-x="1228" 
d="M475 864v242h279v-242h381v-278h-381v-211h-279v211h-381v278h381zM94 66v278h1041v-278h-1041z" />
    <glyph glyph-name="twosuperior" unicode="&#xb2;" horiz-adv-x="567" 
d="M223 721h342v-127h-563v108q0 57 19 111t49 97t66.5 83.5t73 76.5t66.5 70t49 71.5t19 72.5q0 62 -59 62q-62 0 -62 -62v-127h-221v96q0 61 18.5 105.5t46.5 68.5t69 38t76 18t79 4q41 0 77.5 -6.5t73.5 -22.5t63.5 -41.5t43 -67t16.5 -94.5q0 -57 -21.5 -108t-58 -93
t-75.5 -78.5t-82.5 -82t-69.5 -86.5q-3 -6 -11.5 -19.5t-12.5 -21t-7.5 -20t-3.5 -25.5z" />
    <glyph glyph-name="threesuperior" unicode="&#xb3;" horiz-adv-x="567" 
d="M6 930h221v-148q0 -65 56 -65q57 0 57 65v111q0 50 -25 64t-79 14h-74v141h84q40 0 67 18.5t27 59.5v102q0 23 -15 38.5t-42 15.5q-20 0 -32.5 -8t-17 -25.5t-5.5 -28.5t-1 -33v-96h-221v125q0 59 27.5 102.5t72 64.5t88 30.5t87.5 9.5q74 0 134 -17.5t103 -63.5t43 -116
v-55q0 -88 -34.5 -129.5t-102.5 -54.5q-2 -2 -2 0v-7q70 -10 104.5 -44.5t34.5 -114.5v-97q0 -108 -78 -160.5t-202 -52.5q-275 0 -275 205v150z" />
    <glyph glyph-name="acute" unicode="&#xb4;" horiz-adv-x="417" 
d="M199 1309h-138l201 288h236z" />
    <glyph glyph-name="mu" unicode="&#xb5;" horiz-adv-x="872" 
d="M369 -14v-248h-324v1433h324v-813q0 -18 1 -31t4.5 -28t10 -24.5t19 -16t30.5 -6.5q70 0 70 106v813h323v-1171h-323v145h-4q-30 -109 -131 -159z" />
    <glyph glyph-name="paragraph" unicode="&#xb6;" horiz-adv-x="1269" 
d="M1143 1274v-1641h-258v1641h-174v-1641h-258v1110q-217 0 -334 92.5t-117 258.5q0 107 37.5 180.5t109 112.5t157 55t200.5 16h762v-184h-125z" />
    <glyph glyph-name="periodcentered" unicode="&#xb7;" horiz-adv-x="475" 
d="M238 758q70 0 120 -50.5t50 -121.5q0 -69 -50.5 -118.5t-119.5 -49.5q-71 0 -120.5 49t-49.5 119q0 72 49 122t121 50z" />
    <glyph glyph-name="cedilla" unicode="&#xb8;" horiz-adv-x="417" 
d="M129 -8h123l-29 -109q43 0 73.5 -2t69 -11.5t62.5 -26t40.5 -47.5t16.5 -75q0 -221 -344 -221q-75 0 -178 21v145q85 -26 182 -26q144 0 144 63q0 59 -117 59q-54 0 -106 -6z" />
    <glyph glyph-name="onesuperior" unicode="&#xb9;" horiz-adv-x="567" 
d="M10 1241v129q40 -2 79 6t71.5 31.5t40.5 60.5h186v-874h-221v647h-156z" />
    <glyph glyph-name="ordmasculine" unicode="&#xba;" horiz-adv-x="524" 
d="M217 1307v-363q0 -49 43 -49q45 0 45 49v363q0 49 -45 49q-43 0 -43 -49zM516 1288v-336q0 -93 -73 -139.5t-183 -46.5q-70 0 -125.5 18.5t-92 61.5t-36.5 106v336q0 95 66 146t188 51q123 0 189.5 -51t66.5 -146z" />
    <glyph glyph-name="guillemotright" unicode="&#xbb;" horiz-adv-x="757" 
d="M418 203v295l153 153l-153 154v295l309 -312v-274zM31 203v295l153 153l-153 154v295l309 -312v-274z" />
    <glyph glyph-name="onequarter" unicode="&#xbc;" horiz-adv-x="1421" 
d="M776 199v141l258 534h269v-534h73v-141h-73v-199h-207v199h-320zM1092 692l-168 -352h172v352h-4zM330 -29l608 1516h149l-608 -1516h-149zM45 1241v129q40 -2 79 6t71.5 31.5t40.5 60.5h186v-874h-221v647h-156z" />
    <glyph glyph-name="onehalf" unicode="&#xbd;" horiz-adv-x="1421" 
d="M1036 127h342v-127h-563v109q0 57 19 111t49 96.5t66.5 83t73 77t66.5 70.5t49 71t19 72q0 62 -59 62q-62 0 -62 -62v-127h-221v96q0 61 18.5 105.5t46.5 68.5t69 38t76 18t79 4q41 0 77.5 -6t73.5 -22.5t63.5 -41.5t43 -66.5t16.5 -94.5q0 -57 -21.5 -108t-58 -93
t-75.5 -79t-82.5 -82.5t-69.5 -86.5q-3 -6 -11.5 -19.5t-12.5 -21t-7.5 -20t-3.5 -25.5zM268 -29l609 1516h149l-608 -1516h-150zM45 1241v129q40 -2 79 6t71.5 31.5t40.5 60.5h186v-874h-221v647h-156z" />
    <glyph glyph-name="threequarters" unicode="&#xbe;" horiz-adv-x="1421" 
d="M776 199v141l258 534h269v-534h73v-141h-73v-199h-207v199h-320zM1092 692l-168 -352h172v352h-4zM45 930h221v-148q0 -65 56 -65q57 0 57 65v111q0 50 -25.5 64t-79.5 14h-73v141h84q40 0 67 18.5t27 59.5v102q0 23 -15 38.5t-42 15.5q-20 0 -32.5 -8t-17 -25.5
t-5.5 -28.5t-1 -33v-96h-221v125q0 59 27.5 102.5t71.5 64.5t87.5 30.5t87.5 9.5q74 0 134.5 -17.5t103.5 -63.5t43 -116v-55q0 -88 -34.5 -129.5t-102.5 -54.5q-2 -2 -2 0v-7q70 -10 104.5 -44.5t34.5 -114.5v-97q0 -108 -78 -160.5t-203 -52.5q-274 0 -274 205v150z
M381 -29l608 1516h150l-609 -1516h-149z" />
    <glyph glyph-name="questiondown" unicode="&#xbf;" 
d="M319 793h318v-185q0 -75 -15.5 -131t-39 -86t-52 -58t-53 -48t-43 -54t-22.5 -79v-115q0 -29 3.5 -46.5t19 -31.5t44.5 -14q40 0 53 24t13 68v242h317v-234q0 -65 -22 -117.5t-59 -87t-88 -58t-107.5 -34t-118.5 -10.5q-379 0 -379 313v92q0 63 12.5 112.5t32 81
t43.5 57.5t48.5 48.5t45 47t34 60.5t15.5 81v162zM319 1225h318v-344h-318v344z" />
    <glyph glyph-name="Agrave" unicode="&#xc0;" 
d="M401 580h123l-59 649h-4zM270 1458h467l189 -1458h-338l-39 358h-184l-56 -358h-286zM623 1544h-138l-299 289h236z" />
    <glyph glyph-name="Aacute" unicode="&#xc1;" 
d="M401 580h123l-59 649h-4zM270 1458h467l189 -1458h-338l-39 358h-184l-56 -358h-286zM465 1544h-137l200 289h236z" />
    <glyph glyph-name="Acircumflex" unicode="&#xc2;" 
d="M401 580h123l-59 649h-4zM270 1458h467l189 -1458h-338l-39 358h-184l-56 -358h-286zM360 1833h218l202 -289h-121l-190 150l-168 -150h-133z" />
    <glyph glyph-name="Atilde" unicode="&#xc3;" 
d="M401 580h123l-59 649h-4zM270 1458h467l189 -1458h-338l-39 358h-184l-56 -358h-286zM270 1573h-94q-9 83 43.5 146t134.5 63q40 0 117 -25q69 -26 98 -26q46 0 64.5 15t34.5 58h104q5 -89 -56 -155t-149 -66q-35 0 -123 27q-69 26 -92 26q-59 0 -82 -63z" />
    <glyph glyph-name="Adieresis" unicode="&#xc4;" 
d="M401 580h123l-59 649h-4zM270 1458h467l189 -1458h-338l-39 358h-184l-56 -358h-286zM760 1567h-230v252h230v-252zM420 1567h-230v252h230v-252z" />
    <glyph glyph-name="Aring" unicode="&#xc5;" 
d="M401 580h123l-59 649h-4zM270 1458h467l189 -1458h-338l-39 358h-184l-56 -358h-286zM506 1694q51 0 80.5 29t29.5 75t-30 75.5t-82 29.5q-51 0 -81 -29.5t-30 -75.5t30 -75t83 -29zM504 2028q120 0 183 -64t63 -166q0 -103 -63 -167t-183 -64t-183 64t-63 167
q0 102 63 166t183 64z" />
    <glyph glyph-name="AE" unicode="&#xc6;" horiz-adv-x="1366" 
d="M451 580h176v657h-33zM379 1458h958v-221h-370v-319h360v-222h-360v-475h370v-221h-710v358h-228l-80 -358h-305z" />
    <glyph glyph-name="Ccedilla" unicode="&#xc7;" 
d="M567 567h338v-192q0 -404 -432 -404q-71 0 -131 12t-116.5 42t-95 77.5t-62 122.5t-23.5 172v664q0 97 23.5 172t62 122.5t95 77.5t116.5 42t131 12q79 0 140.5 -10t118 -36.5t93.5 -69.5t58.5 -112t21.5 -161v-160h-340v201q0 114 -92 114q-88 0 -88 -114v-820
q0 -114 88 -114q92 0 92 114zM395 -8h123l-29 -109q43 0 74 -2t69.5 -11.5t62 -26t40.5 -47.5t17 -75q0 -221 -344 -221q-76 0 -179 21v145q85 -26 183 -26q143 0 143 63q0 59 -117 59q-54 0 -106 -6z" />
    <glyph glyph-name="Egrave" unicode="&#xc8;" horiz-adv-x="757" 
d="M745 0h-704v1458h704v-221h-364v-319h352v-222h-352v-475h364v-221zM526 1544h-137l-299 289h236z" />
    <glyph glyph-name="Eacute" unicode="&#xc9;" horiz-adv-x="757" 
d="M745 0h-704v1458h704v-221h-364v-319h352v-222h-352v-475h364v-221zM369 1544h-138l201 289h236z" />
    <glyph glyph-name="Ecircumflex" unicode="&#xca;" horiz-adv-x="757" 
d="M745 0h-704v1458h704v-221h-364v-319h352v-222h-352v-475h364v-221zM264 1833h217l203 -289h-121l-190 150l-168 -150h-133z" />
    <glyph glyph-name="Edieresis" unicode="&#xcb;" horiz-adv-x="757" 
d="M745 0h-704v1458h704v-221h-364v-319h352v-222h-352v-475h364v-221zM664 1567h-230v252h230v-252zM324 1567h-230v252h230v-252z" />
    <glyph glyph-name="Igrave" unicode="&#xcc;" horiz-adv-x="417" 
d="M379 0h-340v1458h340v-1458zM356 1544h-137l-299 289h236z" />
    <glyph glyph-name="Iacute" unicode="&#xcd;" horiz-adv-x="417" 
d="M379 0h-340v1458h340v-1458zM199 1544h-138l201 289h236z" />
    <glyph glyph-name="Icircumflex" unicode="&#xce;" horiz-adv-x="417" 
d="M379 0h-340v1458h340v-1458zM94 1833h217l203 -289h-121l-190 150l-168 -150h-133z" />
    <glyph glyph-name="Idieresis" unicode="&#xcf;" horiz-adv-x="417" 
d="M379 0h-340v1458h340v-1458zM494 1567h-230v252h230v-252zM154 1567h-230v252h230v-252z" />
    <glyph glyph-name="Eth" unicode="&#xd0;" 
d="M-29 834h74v624h350q76 0 131.5 -3.5t108.5 -13t89 -25.5t68.5 -43t52 -63t34 -87t20.5 -115t6 -147v-521q0 -73 -8 -128.5t-29 -107.5t-58 -88t-92.5 -63t-136 -40t-186.5 -13h-350v625h-74v209zM385 834h111v-209h-111v-416q61 0 98 11t54.5 39.5t22.5 61t5 91.5v600
q0 56 -1 86t-7.5 61.5t-17 45t-31.5 25.5t-50 15.5t-73 3.5v-415z" />
    <glyph glyph-name="Ntilde" unicode="&#xd1;" horiz-adv-x="1024" 
d="M33 0v1458h471l217 -1061h4v1061h266v-1458h-436l-252 1219h-4v-1219h-266zM307 1573h-94q-9 83 43.5 146t134.5 63q40 0 117 -25q69 -26 98 -26q46 0 64.5 15t34.5 58h104q5 -89 -56 -155t-149 -66q-35 0 -123 27q-69 26 -92 26q-59 0 -82 -63z" />
    <glyph glyph-name="Ograve" unicode="&#xd2;" 
d="M385 1139v-820q0 -114 90 -114t90 114v820q0 114 -90 114t-90 -114zM905 1061v-664q0 -97 -23.5 -172t-62.5 -122.5t-95.5 -77.5t-117 -42t-131.5 -12t-131.5 12t-117 42t-95.5 77.5t-62.5 122.5t-23.5 172v664q0 97 23.5 172t62.5 122.5t95.5 77.5t117 42t131.5 12
t131.5 -12t117 -42t95.5 -77.5t62.5 -122.5t23.5 -172zM623 1544h-138l-299 289h236z" />
    <glyph glyph-name="Oacute" unicode="&#xd3;" 
d="M385 1139v-820q0 -114 90 -114t90 114v820q0 114 -90 114t-90 -114zM905 1061v-664q0 -97 -23.5 -172t-62.5 -122.5t-95.5 -77.5t-117 -42t-131.5 -12t-131.5 12t-117 42t-95.5 77.5t-62.5 122.5t-23.5 172v664q0 97 23.5 172t62.5 122.5t95.5 77.5t117 42t131.5 12
t131.5 -12t117 -42t95.5 -77.5t62.5 -122.5t23.5 -172zM465 1544h-137l200 289h236z" />
    <glyph glyph-name="Ocircumflex" unicode="&#xd4;" 
d="M385 1139v-820q0 -114 90 -114t90 114v820q0 114 -90 114t-90 -114zM905 1061v-664q0 -97 -23.5 -172t-62.5 -122.5t-95.5 -77.5t-117 -42t-131.5 -12t-131.5 12t-117 42t-95.5 77.5t-62.5 122.5t-23.5 172v664q0 97 23.5 172t62.5 122.5t95.5 77.5t117 42t131.5 12
t131.5 -12t117 -42t95.5 -77.5t62.5 -122.5t23.5 -172zM360 1833h218l202 -289h-121l-190 150l-168 -150h-133z" />
    <glyph glyph-name="Otilde" unicode="&#xd5;" 
d="M385 1139v-820q0 -114 90 -114t90 114v820q0 114 -90 114t-90 -114zM905 1061v-664q0 -97 -23.5 -172t-62.5 -122.5t-95.5 -77.5t-117 -42t-131.5 -12t-131.5 12t-117 42t-95.5 77.5t-62.5 122.5t-23.5 172v664q0 97 23.5 172t62.5 122.5t95.5 77.5t117 42t131.5 12
t131.5 -12t117 -42t95.5 -77.5t62.5 -122.5t23.5 -172zM270 1573h-94q-9 83 43.5 146t134.5 63q40 0 117 -25q69 -26 98 -26q46 0 64.5 15t34.5 58h104q5 -89 -56 -155t-149 -66q-35 0 -123 27q-69 26 -92 26q-59 0 -82 -63z" />
    <glyph glyph-name="Odieresis" unicode="&#xd6;" 
d="M385 1139v-820q0 -114 90 -114t90 114v820q0 114 -90 114t-90 -114zM905 1061v-664q0 -97 -23.5 -172t-62.5 -122.5t-95.5 -77.5t-117 -42t-131.5 -12t-131.5 12t-117 42t-95.5 77.5t-62.5 122.5t-23.5 172v664q0 97 23.5 172t62.5 122.5t95.5 77.5t117 42t131.5 12
t131.5 -12t117 -42t95.5 -77.5t62.5 -122.5t23.5 -172zM760 1567h-230v252h230v-252zM420 1567h-230v252h230v-252z" />
    <glyph glyph-name="multiply" unicode="&#xd7;" horiz-adv-x="1228" 
d="M614 725l322 322l199 -199l-324 -320l324 -319l-199 -199l-322 322l-321 -322l-199 199l324 319l-324 320l199 199z" />
    <glyph glyph-name="Oslash" unicode="&#xd8;" 
d="M389 711l174 444q-4 98 -88 98q-90 0 -90 -114v-428h4zM217 -84h-151l71 180q-92 107 -92 301v664q0 97 23.5 172t62.5 122.5t95.5 77.5t117 42t131.5 12q123 0 207 -37l43 104h156l-76 -184q100 -103 100 -309v-664q0 -97 -23.5 -172t-62.5 -122.5t-95.5 -77.5t-117 -42
t-131.5 -12q-136 0 -219 41zM565 319v457h-4l-176 -444v-13q0 -114 90 -114t90 114z" />
    <glyph glyph-name="Ugrave" unicode="&#xd9;" 
d="M905 1458v-1042q-6 -237 -102.5 -341t-329.5 -104q-87 0 -156 18t-113 44t-75.5 69.5t-47.5 80.5t-24.5 92t-10 88.5t-1.5 85.5v1009h340v-1050q0 -38 0.5 -56.5t3 -47.5t8 -42.5t14.5 -29t24.5 -21.5t37.5 -6t38.5 6t26.5 21.5t15.5 29t8 42.5t3 47.5t0.5 56.5v1050h340
zM623 1544h-138l-299 289h236z" />
    <glyph glyph-name="Uacute" unicode="&#xda;" 
d="M905 1458v-1042q-6 -237 -102.5 -341t-329.5 -104q-87 0 -156 18t-113 44t-75.5 69.5t-47.5 80.5t-24.5 92t-10 88.5t-1.5 85.5v1009h340v-1050q0 -38 0.5 -56.5t3 -47.5t8 -42.5t14.5 -29t24.5 -21.5t37.5 -6t38.5 6t26.5 21.5t15.5 29t8 42.5t3 47.5t0.5 56.5v1050h340
zM465 1544h-137l200 289h236z" />
    <glyph glyph-name="Ucircumflex" unicode="&#xdb;" 
d="M905 1458v-1042q-6 -237 -102.5 -341t-329.5 -104q-87 0 -156 18t-113 44t-75.5 69.5t-47.5 80.5t-24.5 92t-10 88.5t-1.5 85.5v1009h340v-1050q0 -38 0.5 -56.5t3 -47.5t8 -42.5t14.5 -29t24.5 -21.5t37.5 -6t38.5 6t26.5 21.5t15.5 29t8 42.5t3 47.5t0.5 56.5v1050h340
zM360 1833h218l202 -289h-121l-190 150l-168 -150h-133z" />
    <glyph glyph-name="Udieresis" unicode="&#xdc;" 
d="M905 1458v-1042q-6 -237 -102.5 -341t-329.5 -104q-87 0 -156 18t-113 44t-75.5 69.5t-47.5 80.5t-24.5 92t-10 88.5t-1.5 85.5v1009h340v-1050q0 -38 0.5 -56.5t3 -47.5t8 -42.5t14.5 -29t24.5 -21.5t37.5 -6t38.5 6t26.5 21.5t15.5 29t8 42.5t3 47.5t0.5 56.5v1050h340
zM760 1567h-230v252h230v-252zM420 1567h-230v252h230v-252z" />
    <glyph glyph-name="Yacute" unicode="&#xdd;" 
d="M305 0v537l-289 921h332l125 -579h4l125 579h332l-289 -921v-537h-340zM465 1544h-137l200 289h236z" />
    <glyph glyph-name="Thorn" unicode="&#xde;" 
d="M385 0h-340v1458h340v-235h76q107 0 184 -14t138 -48t91.5 -97t30.5 -155v-266q0 -105 -58 -178t-145 -105t-192 -32h-125v-328zM385 1014v-477h53q30 0 51 5t35 19t22 30.5t12.5 47t5.5 59.5t1 78q0 59 -2 92t-8.5 65.5t-20.5 47.5t-37 24t-59 9h-53z" />
    <glyph glyph-name="germandbls" unicode="&#xdf;" horiz-adv-x="872" 
d="M45 0v1087q0 198 92 299t295 101q183 0 278 -96t95 -277q0 -218 -139 -268v-4q76 -27 118.5 -107t42.5 -182v-205q0 -70 -15 -131.5t-46 -115t-86 -84.5t-129 -31q-73 0 -125 16v213q12 -8 29 -8t27.5 11t15 32.5t5.5 38.5t1 43v307q0 42 -25 66t-55 24v205q29 -1 43 17
t14 48v211q0 64 -55 64q-57 0 -57 -64v-1210h-324z" />
    <glyph glyph-name="agrave" unicode="&#xe0;" horiz-adv-x="872" 
d="M369 428v-127q0 -29 17 -45t42 -16q48 0 62 32t14 117v203q-11 -8 -37.5 -25t-38.5 -26.5t-28.5 -27t-23.5 -38.5t-7 -47zM504 0v137h-4q-33 -71 -85.5 -111t-142.5 -40q-107 0 -167 62.5t-60 176.5v174q0 62 25.5 111.5t66 82t89 59t97.5 49.5t89.5 47.5t66 59.5
t25.5 79q0 86 -68 86q-67 0 -67 -86v-129h-324v108q0 85 33 149t90 100t124 53.5t144 17.5t144 -17.5t124 -53.5t90 -100t33 -149v-866h-323zM584 1309h-138l-299 288h236z" />
    <glyph glyph-name="aacute" unicode="&#xe1;" horiz-adv-x="872" 
d="M369 428v-127q0 -29 17 -45t42 -16q48 0 62 32t14 117v203q-11 -8 -37.5 -25t-38.5 -26.5t-28.5 -27t-23.5 -38.5t-7 -47zM504 0v137h-4q-33 -71 -85.5 -111t-142.5 -40q-107 0 -167 62.5t-60 176.5v174q0 62 25.5 111.5t66 82t89 59t97.5 49.5t89.5 47.5t66 59.5
t25.5 79q0 86 -68 86q-67 0 -67 -86v-129h-324v108q0 85 33 149t90 100t124 53.5t144 17.5t144 -17.5t124 -53.5t90 -100t33 -149v-866h-323zM426 1309h-137l200 288h236z" />
    <glyph glyph-name="acircumflex" unicode="&#xe2;" horiz-adv-x="872" 
d="M369 428v-127q0 -29 17 -45t42 -16q48 0 62 32t14 117v203q-11 -8 -37.5 -25t-38.5 -26.5t-28.5 -27t-23.5 -38.5t-7 -47zM504 0v137h-4q-33 -71 -85.5 -111t-142.5 -40q-107 0 -167 62.5t-60 176.5v174q0 62 25.5 111.5t66 82t89 59t97.5 49.5t89.5 47.5t66 59.5
t25.5 79q0 86 -68 86q-67 0 -67 -86v-129h-324v108q0 85 33 149t90 100t124 53.5t144 17.5t144 -17.5t124 -53.5t90 -100t33 -149v-866h-323zM322 1597h217l202 -288h-120l-191 149l-168 -149h-133z" />
    <glyph glyph-name="atilde" unicode="&#xe3;" horiz-adv-x="872" 
d="M369 428v-127q0 -29 17 -45t42 -16q48 0 62 32t14 117v203q-11 -8 -37.5 -25t-38.5 -26.5t-28.5 -27t-23.5 -38.5t-7 -47zM504 0v137h-4q-33 -71 -85.5 -111t-142.5 -40q-107 0 -167 62.5t-60 176.5v174q0 62 25.5 111.5t66 82t89 59t97.5 49.5t89.5 47.5t66 59.5
t25.5 79q0 86 -68 86q-67 0 -67 -86v-129h-324v108q0 85 33 149t90 100t124 53.5t144 17.5t144 -17.5t124 -53.5t90 -100t33 -149v-866h-323zM231 1337h-94q-9 83 43.5 146t134.5 63q43 0 117 -24q71 -27 98 -27q45 0 64 15.5t35 58.5h104q5 -89 -56 -155t-149 -66
q-38 0 -122 26q-71 27 -93 27q-59 0 -82 -64z" />
    <glyph glyph-name="adieresis" unicode="&#xe4;" horiz-adv-x="872" 
d="M369 428v-127q0 -29 17 -45t42 -16q48 0 62 32t14 117v203q-11 -8 -37.5 -25t-38.5 -26.5t-28.5 -27t-23.5 -38.5t-7 -47zM504 0v137h-4q-33 -71 -85.5 -111t-142.5 -40q-107 0 -167 62.5t-60 176.5v174q0 62 25.5 111.5t66 82t89 59t97.5 49.5t89.5 47.5t66 59.5
t25.5 79q0 86 -68 86q-67 0 -67 -86v-129h-324v108q0 85 33 149t90 100t124 53.5t144 17.5t144 -17.5t124 -53.5t90 -100t33 -149v-866h-323zM721 1331h-229v252h229v-252zM381 1331h-229v252h229v-252z" />
    <glyph glyph-name="aring" unicode="&#xe5;" horiz-adv-x="872" 
d="M369 428v-127q0 -29 17 -45t42 -16q48 0 62 32t14 117v203q-11 -8 -37.5 -25t-38.5 -26.5t-28.5 -27t-23.5 -38.5t-7 -47zM504 0v137h-4q-33 -71 -85.5 -111t-142.5 -40q-107 0 -167 62.5t-60 176.5v174q0 62 25.5 111.5t66 82t89 59t97.5 49.5t89.5 47.5t66 59.5
t25.5 79q0 86 -68 86q-67 0 -67 -86v-129h-324v108q0 85 33 149t90 100t124 53.5t144 17.5t144 -17.5t124 -53.5t90 -100t33 -149v-866h-323zM467 1458q51 0 81 29.5t30 75.5t-30 75t-83 29q-51 0 -81 -29.5t-30 -74.5q0 -46 30 -75.5t83 -29.5zM465 1792q120 0 183 -63.5
t63 -165.5q0 -103 -63 -167.5t-183 -64.5t-183 64.5t-63 167.5q0 102 63 165.5t183 63.5z" />
    <glyph glyph-name="ae" unicode="&#xe6;" horiz-adv-x="1290" 
d="M807 743h135v160q0 70 -68 70q-67 0 -67 -70v-160zM31 758v121q0 147 90.5 227t257.5 80q106 0 165.5 -29t98.5 -84q40 59 107.5 86t142.5 27q179 0 273 -93.5t94 -279.5v-264h-453v-238q0 -112 61 -112q68 0 68 112v152h324v-148q0 -158 -86 -243.5t-250 -85.5
q-208 0 -277 106q-18 -29 -45.5 -49.5t-54.5 -31t-64.5 -16.5t-65 -7.5t-67.5 -1.5q-44 0 -84.5 6.5t-84.5 24.5t-76 46t-53 76.5t-21 110.5v141q0 63 25 112t65 81t88 58t96 49.5t88 48.5t65 61.5t25 83.5q0 88 -59 88q-70 0 -70 -88v-127h-323zM354 387v-127
q0 -29 17.5 -45t42.5 -16q43 0 56 32.5t13 116.5v203q-11 -9 -34.5 -25t-36.5 -26.5t-28.5 -27.5t-22.5 -38t-7 -47z" />
    <glyph glyph-name="ccedilla" unicode="&#xe7;" horiz-adv-x="872" 
d="M504 758v133q0 82 -68 82q-67 0 -67 -82v-610q0 -82 67 -82q68 0 68 82v182h323v-172q0 -158 -105 -231.5t-288 -73.5q-187 0 -288 80t-101 245v547q0 147 104 237.5t285 90.5q83 0 150.5 -16.5t123.5 -53.5t87.5 -103t31.5 -157v-98h-323zM356 -8h123l-28 -109
q43 0 73.5 -2t69 -11.5t62.5 -26t40.5 -47.5t16.5 -75q0 -221 -344 -221q-76 0 -179 21v145q85 -26 183 -26q143 0 143 63q0 59 -117 59q-53 0 -106 -6z" />
    <glyph glyph-name="egrave" unicode="&#xe8;" horiz-adv-x="872" 
d="M827 549h-458v-238q0 -53 17.5 -82.5t49.5 -29.5q68 0 68 112v152h323v-172q0 -158 -105 -231.5t-286 -73.5q-108 0 -194 31.5t-141.5 103.5t-55.5 176v559q0 159 101 244.5t290 85.5q82 0 149 -16.5t123 -53t87.5 -103t31.5 -157.5v-307zM369 743h135v160q0 70 -68 70
q-67 0 -67 -70v-160zM584 1309h-138l-299 288h236z" />
    <glyph glyph-name="eacute" unicode="&#xe9;" horiz-adv-x="872" 
d="M827 549h-458v-238q0 -53 17.5 -82.5t49.5 -29.5q68 0 68 112v152h323v-172q0 -158 -105 -231.5t-286 -73.5q-108 0 -194 31.5t-141.5 103.5t-55.5 176v559q0 159 101 244.5t290 85.5q82 0 149 -16.5t123 -53t87.5 -103t31.5 -157.5v-307zM369 743h135v160q0 70 -68 70
q-67 0 -67 -70v-160zM426 1309h-137l200 288h236z" />
    <glyph glyph-name="ecircumflex" unicode="&#xea;" horiz-adv-x="872" 
d="M827 549h-458v-238q0 -53 17.5 -82.5t49.5 -29.5q68 0 68 112v152h323v-172q0 -158 -105 -231.5t-286 -73.5q-108 0 -194 31.5t-141.5 103.5t-55.5 176v559q0 159 101 244.5t290 85.5q82 0 149 -16.5t123 -53t87.5 -103t31.5 -157.5v-307zM369 743h135v160q0 70 -68 70
q-67 0 -67 -70v-160zM322 1597h217l202 -288h-120l-191 149l-168 -149h-133z" />
    <glyph glyph-name="edieresis" unicode="&#xeb;" horiz-adv-x="872" 
d="M827 549h-458v-238q0 -53 17.5 -82.5t49.5 -29.5q68 0 68 112v152h323v-172q0 -158 -105 -231.5t-286 -73.5q-108 0 -194 31.5t-141.5 103.5t-55.5 176v559q0 159 101 244.5t290 85.5q82 0 149 -16.5t123 -53t87.5 -103t31.5 -157.5v-307zM369 743h135v160q0 70 -68 70
q-67 0 -67 -70v-160zM721 1331h-229v252h229v-252zM381 1331h-229v252h229v-252z" />
    <glyph glyph-name="igrave" unicode="&#xec;" horiz-adv-x="417" 
d="M371 0h-324v1171h324v-1171zM356 1309h-137l-299 288h236z" />
    <glyph glyph-name="iacute" unicode="&#xed;" horiz-adv-x="417" 
d="M371 0h-324v1171h324v-1171zM199 1309h-138l201 288h236z" />
    <glyph glyph-name="icircumflex" unicode="&#xee;" horiz-adv-x="417" 
d="M371 0h-324v1171h324v-1171zM94 1597h217l203 -288h-121l-190 149l-168 -149h-133z" />
    <glyph glyph-name="idieresis" unicode="&#xef;" horiz-adv-x="417" 
d="M371 0h-324v1171h324v-1171zM494 1331h-230v252h230v-252zM154 1331h-230v252h230v-252z" />
    <glyph glyph-name="eth" unicode="&#xf0;" horiz-adv-x="872" 
d="M369 891v-610q0 -82 67 -82q68 0 68 82v610q0 82 -68 82q-67 0 -67 -82zM45 307v549q0 149 91.5 239.5t260.5 90.5l-61 67l-207 -49v113l102 24l-125 117h304l73 -61l209 47v-111l-92 -20q63 -66 94.5 -103t67.5 -94.5t50.5 -119t14.5 -140.5v-559q0 -63 -21 -115.5
t-57.5 -88t-87 -60t-108.5 -36t-123 -11.5q-83 0 -150.5 18t-121.5 55t-83.5 100t-29.5 148z" />
    <glyph glyph-name="ntilde" unicode="&#xf1;" horiz-adv-x="872" 
d="M369 1171v-145h4q49 160 235 160q107 0 163 -70t56 -198v-918h-323v813q0 23 -2 39t-8 33t-20 26t-36 9q-41 0 -55 -29.5t-14 -77.5v-813h-324v1171h324zM231 1337h-94q-9 83 43.5 146t134.5 63q43 0 117 -24q71 -27 98 -27q45 0 64 15.5t35 58.5h104q5 -89 -56 -155
t-149 -66q-38 0 -122 26q-71 27 -93 27q-59 0 -82 -64z" />
    <glyph glyph-name="ograve" unicode="&#xf2;" horiz-adv-x="872" 
d="M369 891v-610q0 -82 67 -82q68 0 68 82v610q0 82 -68 82q-67 0 -67 -82zM827 856v-559q0 -104 -55.5 -176t-141.5 -103.5t-194 -31.5t-194 31.5t-141.5 103.5t-55.5 176v559q0 159 101 244.5t290 85.5t290 -85.5t101 -244.5zM584 1309h-138l-299 288h236z" />
    <glyph glyph-name="oacute" unicode="&#xf3;" horiz-adv-x="872" 
d="M369 891v-610q0 -82 67 -82q68 0 68 82v610q0 82 -68 82q-67 0 -67 -82zM827 856v-559q0 -104 -55.5 -176t-141.5 -103.5t-194 -31.5t-194 31.5t-141.5 103.5t-55.5 176v559q0 159 101 244.5t290 85.5t290 -85.5t101 -244.5zM426 1309h-137l200 288h236z" />
    <glyph glyph-name="ocircumflex" unicode="&#xf4;" horiz-adv-x="872" 
d="M369 891v-610q0 -82 67 -82q68 0 68 82v610q0 82 -68 82q-67 0 -67 -82zM827 856v-559q0 -104 -55.5 -176t-141.5 -103.5t-194 -31.5t-194 31.5t-141.5 103.5t-55.5 176v559q0 159 101 244.5t290 85.5t290 -85.5t101 -244.5zM322 1597h217l202 -288h-120l-191 149
l-168 -149h-133z" />
    <glyph glyph-name="otilde" unicode="&#xf5;" horiz-adv-x="872" 
d="M369 891v-610q0 -82 67 -82q68 0 68 82v610q0 82 -68 82q-67 0 -67 -82zM827 856v-559q0 -104 -55.5 -176t-141.5 -103.5t-194 -31.5t-194 31.5t-141.5 103.5t-55.5 176v559q0 159 101 244.5t290 85.5t290 -85.5t101 -244.5zM231 1337h-94q-9 83 43.5 146t134.5 63
q43 0 117 -24q71 -27 98 -27q45 0 64 15.5t35 58.5h104q5 -89 -56 -155t-149 -66q-38 0 -122 26q-71 27 -93 27q-59 0 -82 -64z" />
    <glyph glyph-name="odieresis" unicode="&#xf6;" horiz-adv-x="872" 
d="M369 891v-610q0 -82 67 -82q68 0 68 82v610q0 82 -68 82q-67 0 -67 -82zM827 856v-559q0 -104 -55.5 -176t-141.5 -103.5t-194 -31.5t-194 31.5t-141.5 103.5t-55.5 176v559q0 159 101 244.5t290 85.5t290 -85.5t101 -244.5zM721 1331h-229v252h229v-252zM381 1331h-229
v252h229v-252z" />
    <glyph glyph-name="divide" unicode="&#xf7;" horiz-adv-x="1228" 
d="M1135 446h-1041v279h1041v-279zM426 1010q0 78 56.5 134t133.5 56q75 0 132 -57t57 -133q0 -71 -57 -130t-130 -59q-78 0 -135 56t-57 133zM426 162q0 77 56.5 132.5t133.5 55.5q75 0 132 -56t57 -132q0 -72 -57 -131.5t-130 -59.5q-78 0 -135 57t-57 134z" />
    <glyph glyph-name="oslash" unicode="&#xf8;" horiz-adv-x="872" 
d="M373 625l121 313q-14 35 -58 35q-67 0 -67 -82v-266h4zM78 -106l72 178q-105 81 -105 225v559q0 159 101 244.5t290 85.5q82 0 150 -19l37 95h159l-63 -158q108 -80 108 -248v-559q0 -104 -55.5 -176t-141.5 -103.5t-194 -31.5q-87 0 -157 20l-46 -112h-155zM500 567
l-125 -323q11 -45 61 -45q68 0 68 82v286h-4z" />
    <glyph glyph-name="ugrave" unicode="&#xf9;" horiz-adv-x="872" 
d="M504 0v145h-4q-48 -159 -236 -159q-107 0 -163 70t-56 198v917h324v-813q0 -18 1 -31t4.5 -28t10 -24.5t19 -16t30.5 -6.5q70 0 70 106v813h323v-1171h-323zM584 1309h-138l-299 288h236z" />
    <glyph glyph-name="uacute" unicode="&#xfa;" horiz-adv-x="872" 
d="M504 0v145h-4q-48 -159 -236 -159q-107 0 -163 70t-56 198v917h324v-813q0 -18 1 -31t4.5 -28t10 -24.5t19 -16t30.5 -6.5q70 0 70 106v813h323v-1171h-323zM426 1309h-137l200 288h236z" />
    <glyph glyph-name="ucircumflex" unicode="&#xfb;" horiz-adv-x="872" 
d="M504 0v145h-4q-48 -159 -236 -159q-107 0 -163 70t-56 198v917h324v-813q0 -18 1 -31t4.5 -28t10 -24.5t19 -16t30.5 -6.5q70 0 70 106v813h323v-1171h-323zM322 1597h217l202 -288h-120l-191 149l-168 -149h-133z" />
    <glyph glyph-name="udieresis" unicode="&#xfc;" horiz-adv-x="872" 
d="M504 0v145h-4q-48 -159 -236 -159q-107 0 -163 70t-56 198v917h324v-813q0 -18 1 -31t4.5 -28t10 -24.5t19 -16t30.5 -6.5q70 0 70 106v813h323v-1171h-323zM721 1331h-229v252h229v-252zM381 1331h-229v252h229v-252z" />
    <glyph glyph-name="yacute" unicode="&#xfd;" horiz-adv-x="872" 
d="M25 1171h327l109 -809h4l108 809h273l-262 -1234q-20 -99 -87.5 -149t-174.5 -50h-261v213h168q32 0 45 7.5t13 25.5q0 11 -8 51zM426 1309h-137l200 288h236z" />
    <glyph glyph-name="thorn" unicode="&#xfe;" horiz-adv-x="872" 
d="M369 840v-508q0 -37 18.5 -58.5t48.5 -21.5t49 21.5t19 58.5v508q0 37 -19 58.5t-49 21.5t-48.5 -21.5t-18.5 -58.5zM369 1458v-440h4q22 168 223 168q64 0 110.5 -25.5t72 -69.5t37 -94.5t11.5 -109.5v-647q0 -116 -54 -185t-171 -69q-89 0 -148 44t-81 124h-4v-416
h-324v1720h324z" />
    <glyph glyph-name="ydieresis" unicode="&#xff;" horiz-adv-x="872" 
d="M25 1171h327l109 -809h4l108 809h273l-262 -1234q-20 -99 -87.5 -149t-174.5 -50h-261v213h168q32 0 45 7.5t13 25.5q0 11 -8 51zM721 1331h-229v252h229v-252zM381 1331h-229v252h229v-252z" />
    <glyph glyph-name="dotlessi" unicode="&#x131;" horiz-adv-x="417" 
d="M371 0h-324v1171h324v-1171z" />
    <glyph glyph-name="Lslash" unicode="&#x141;" horiz-adv-x="757" 
d="M750 0h-709v598l-64 -27v222l64 26v639h340v-508l141 56v-222l-141 -55v-508h369v-221z" />
    <glyph glyph-name="lslash" unicode="&#x142;" horiz-adv-x="417" 
d="M371 0h-324v602l-72 -29v222l72 28v635h324v-508l73 29v-221l-73 -29v-729z" />
    <glyph glyph-name="OE" unicode="&#x152;" horiz-adv-x="1290" 
d="M385 1139v-820q0 -114 92 -114t92 114v820q0 114 -92 114t-92 -114zM909 1237v-319h357v-222h-357v-475h369v-221h-549q-43 0 -125 -12q-13 -2 -38.5 -7t-46 -7.5t-38.5 -2.5q-71 0 -132 12t-118.5 42t-97.5 77.5t-64 122.5t-24 172v664q0 97 24 172t64 122.5t97.5 77.5
t118.5 42t132 12q46 0 132 -14.5t173 -14.5h492v-221h-369z" />
    <glyph glyph-name="oe" unicode="&#x153;" horiz-adv-x="1290" 
d="M936 463h324v-113q0 -184 -94.5 -274t-252.5 -90q-198 0 -264 106q-73 -106 -252 -106q-190 0 -278 83.5t-88 290.5v469q0 173 97 265t257 92q185 0 262 -111q49 62 110.5 86.5t147.5 24.5q76 0 138.5 -20.5t112 -62.5t77 -113.5t27.5 -166.5v-274h-453v-238
q0 -112 61 -112q68 0 68 112v152zM807 743h135v160q0 70 -68 70q-67 0 -67 -70v-160zM354 891v-610q0 -82 68 -82q32 0 46.5 23t14.5 59v610q0 36 -14.5 59t-46.5 23q-68 0 -68 -82z" />
    <glyph glyph-name="Scaron" unicode="&#x160;" 
d="M905 936h-340v205q0 57 -20.5 84.5t-69.5 27.5q-53 0 -71.5 -27t-18.5 -85q0 -49 28.5 -95.5t74.5 -86t101.5 -81.5t111 -91.5t101.5 -106.5t74.5 -136t28.5 -171q0 -402 -432 -402q-87 0 -159.5 16t-135 52t-98 101.5t-35.5 156.5v270h340v-252q0 -63 20.5 -86.5
t69.5 -23.5q44 0 67 24.5t23 85.5q0 67 -28.5 123.5t-74.5 99t-101.5 84.5t-111 89.5t-101.5 102t-74.5 133.5t-28.5 175q0 365 436 365q90 0 163.5 -16.5t133.5 -52.5t93.5 -100.5t33.5 -152.5v-229zM362 1544l-192 289h133l168 -150l191 150h120l-202 -289h-218z" />
    <glyph glyph-name="scaron" unicode="&#x161;" horiz-adv-x="872" 
d="M827 758h-323v127q0 88 -68 88q-67 0 -67 -88q0 -40 25 -73t65 -57t88 -48.5t96 -56t88 -70.5t65 -101t25 -139q0 -174 -103.5 -264t-305.5 -90q-80 0 -145 16t-115.5 49.5t-78.5 90.5t-28 134v187h324v-176q0 -88 67 -88q68 0 68 88q0 56 -25.5 99t-66 70.5t-89.5 52.5
t-97.5 54t-89 65t-66 95.5t-25.5 136.5q0 166 104 246t275 80q189 0 296 -74.5t107 -218.5v-135zM324 1309l-193 288h133l168 -149l191 149h120l-202 -288h-217z" />
    <glyph glyph-name="Ydieresis" unicode="&#x178;" 
d="M305 0v537l-289 921h332l125 -579h4l125 579h332l-289 -921v-537h-340zM760 1567h-230v252h230v-252zM420 1567h-230v252h230v-252z" />
    <glyph glyph-name="Zcaron" unicode="&#x17d;" horiz-adv-x="757" 
d="M748 0h-738v250l381 987h-381v221h738v-215l-398 -1022h398v-221zM266 1544l-192 289h133l168 -150l190 150h121l-203 -289h-217z" />
    <glyph glyph-name="zcaron" unicode="&#x17e;" horiz-adv-x="681" 
d="M676 0h-670v213l301 745h-301v213h660v-180l-314 -778h324v-213zM229 1309l-192 288h133l168 -149l190 149h121l-203 -288h-217z" />
    <glyph glyph-name="florin" unicode="&#x192;" 
d="M322 823h-197v213h219q8 82 21 142.5t39.5 121.5t66 100t103 63t147.5 24q81 0 209 -33l-37 -233q-3 2 -16.5 8.5t-19.5 9t-17 7t-20.5 6t-18.5 1.5q-23 0 -41 -7.5t-30.5 -25t-20.5 -33.5t-14.5 -46.5t-9 -49l-7.5 -55.5h201v-213h-220q-10 -71 -32.5 -354.5
t-57.5 -431.5q-34 -144 -124.5 -221.5t-235.5 -77.5q-90 0 -191 43l33 231q9 -14 38.5 -27.5t47.5 -13.5q32 0 54 11t34 33.5t17 44t10 55.5q14 105 25.5 224.5t24 262.5t20.5 221z" />
    <glyph glyph-name="circumflex" unicode="&#x2c6;" horiz-adv-x="417" 
d="M94 1597h217l203 -288h-121l-190 149l-168 -149h-133z" />
    <glyph glyph-name="caron" unicode="&#x2c7;" horiz-adv-x="417" 
d="M96 1309l-192 288h133l168 -149l190 149h121l-203 -288h-217z" />
    <glyph glyph-name="breve" unicode="&#x2d8;" horiz-adv-x="417" 
d="M-90 1583h115q19 -113 194 -113q65 0 113 27t59 86h119q0 -134 -86 -203t-225 -69q-125 0 -207 73t-82 199z" />
    <glyph glyph-name="dotaccent" unicode="&#x2d9;" horiz-adv-x="417" 
d="M324 1331h-230v252h230v-252z" />
    <glyph glyph-name="ring" unicode="&#x2da;" horiz-adv-x="417" 
d="M240 1458q51 0 80.5 29.5t29.5 75.5t-29.5 75t-82.5 29q-51 0 -81 -29.5t-30 -74.5q0 -46 30 -75.5t83 -29.5zM238 1792q120 0 182.5 -63.5t62.5 -165.5q0 -103 -62.5 -167.5t-182.5 -64.5t-183 64.5t-63 167.5q0 102 63 165.5t183 63.5z" />
    <glyph glyph-name="ogonek" unicode="&#x2db;" horiz-adv-x="417" 
d="M469 -334v-143q-113 -23 -180 -23q-169 0 -251.5 54.5t-82.5 166.5q0 61 25.5 111.5t68 84.5t93.5 55t106 28h151q-50 -20 -89 -41t-77.5 -51t-59.5 -69.5t-21 -84.5q0 -61 41 -87.5t94 -26.5q97 0 182 26z" />
    <glyph glyph-name="tilde" unicode="&#x2dc;" horiz-adv-x="417" 
d="M4 1337h-94q-9 83 43.5 146t134.5 63q43 0 117 -24q71 -27 98 -27q45 0 63.5 15t34.5 59h105q5 -89 -56 -155t-149 -66q-39 0 -123 26q-71 27 -92 27q-59 0 -82 -64z" />
    <glyph glyph-name="hungarumlaut" unicode="&#x2dd;" horiz-adv-x="417" 
d="M-4 1309h-129l149 288h236zM297 1309h-137l200 288h236z" />
    <glyph glyph-name="endash" unicode="&#x2013;" horiz-adv-x="1024" 
d="M0 766h1024v-229h-1024v229z" />
    <glyph glyph-name="emdash" unicode="&#x2014;" horiz-adv-x="2048" 
d="M2048 537h-2048v229h2048v-229z" />
    <glyph glyph-name="quoteleft" unicode="&#x2018;" horiz-adv-x="417" 
d="M25 1458h301l67 -514h-207z" />
    <glyph glyph-name="quoteright" unicode="&#x2019;" horiz-adv-x="417" 
d="M92 1458h301l-162 -514h-206z" />
    <glyph glyph-name="quotesinglbase" unicode="&#x201a;" horiz-adv-x="417" 
d="M92 319h301l-162 -514h-206z" />
    <glyph glyph-name="quotedblleft" unicode="&#x201c;" horiz-adv-x="872" 
d="M485 1458h301l68 -514h-207zM68 1458h301l67 -514h-207z" />
    <glyph glyph-name="quotedblright" unicode="&#x201d;" horiz-adv-x="872" 
d="M504 1458h301l-162 -514h-207zM86 1458h301l-162 -514h-207z" />
    <glyph glyph-name="quotedblbase" unicode="&#x201e;" horiz-adv-x="872" 
d="M504 319h301l-162 -514h-207zM86 319h301l-162 -514h-207z" />
    <glyph glyph-name="dagger" unicode="&#x2020;" horiz-adv-x="872" 
d="M299 809h-258v246h258v403h276v-403h256v-246h-256v-940h-276v940z" />
    <glyph glyph-name="daggerdbl" unicode="&#x2021;" horiz-adv-x="872" 
d="M299 240h-258v245h258v353h-258v245h258v375h276v-375h256v-245h-256v-353h256v-245h-256v-371h-276v371z" />
    <glyph glyph-name="bullet" unicode="&#x2022;" horiz-adv-x="1024" 
d="M877 729q0 -152 -106.5 -258t-258.5 -106q-153 0 -259 105.5t-106 258.5q-1 152 105 258.5t260 106.5q152 0 258.5 -106.5t106.5 -258.5z" />
    <glyph glyph-name="ellipsis" unicode="&#x2026;" horiz-adv-x="2048" 
d="M500 0h-318v344h318v-344zM1182 0h-318v344h318v-344zM1864 0h-318v344h318v-344z" />
    <glyph glyph-name="perthousand" unicode="&#x2030;" horiz-adv-x="1554" 
d="M154 -29l598 1516h127l-596 -1516h-129zM211 1280v-342q0 -22 11.5 -36.5t31.5 -14.5q21 0 33 14.5t12 36.5v342q0 22 -12 36.5t-33 14.5q-20 0 -31.5 -14.5t-11.5 -36.5zM29 946v326q0 89 58 137.5t167 48.5t168 -48.5t59 -137.5v-326q0 -89 -59 -137.5t-168 -48.5
t-167 48.5t-58 137.5zM737 520v-342q0 -22 11.5 -36.5t31.5 -14.5q21 0 33 14.5t12 36.5v342q0 22 -12 36.5t-33 14.5q-20 0 -31.5 -14.5t-11.5 -36.5zM555 186v326q0 89 58 137.5t167 48.5t168.5 -48.5t59.5 -137.5v-326q0 -89 -59.5 -137.5t-168.5 -48.5t-167 48.5
t-58 137.5zM1255 520v-342q0 -22 11.5 -36.5t31.5 -14.5q21 0 33 14.5t12 36.5v342q0 22 -12 36.5t-33 14.5q-20 0 -31.5 -14.5t-11.5 -36.5zM1073 186v326q0 89 58 137.5t167 48.5t168.5 -48.5t59.5 -137.5v-326q0 -89 -59.5 -137.5t-168.5 -48.5t-167 48.5t-58 137.5z" />
    <glyph glyph-name="guilsinglleft" unicode="&#x2039;" horiz-adv-x="417" 
d="M387 203l-309 311v274l309 312v-295l-154 -154l154 -153v-295z" />
    <glyph glyph-name="guilsinglright" unicode="&#x203a;" horiz-adv-x="417" 
d="M31 203v295l153 153l-153 154v295l309 -312v-274z" />
    <glyph glyph-name="fraction" unicode="&#x2044;" horiz-adv-x="266" 
d="M-246 -29l608 1516h150l-608 -1516h-150z" />
    <glyph glyph-name="trademark" unicode="&#x2122;" horiz-adv-x="2048" 
d="M778 1458v-184h-229v-660h-246v660h-229v184h704zM1290 1458l183 -489l182 489h319v-844h-221v553h-4l-186 -553h-181l-186 553h-4v-553h-221v844h319z" />
    <glyph glyph-name="minus" unicode="&#x2212;" horiz-adv-x="1228" 
d="M1135 446h-1041v279h1041v-279z" />
    <glyph glyph-name="fi" unicode="&#xfb01;" horiz-adv-x="948" 
d="M895 0h-324v1171h324v-1171zM895 1251h-324v207h324v-207zM86 958h-72v213h72v76q0 36 12 71.5t36 67.5t65.5 52t95.5 20h207v-213q-56 0 -74 -17.5t-18 -56.5h92v-213h-92v-958h-324v958z" />
    <glyph glyph-name="fl" unicode="&#xfb02;" horiz-adv-x="948" 
d="M895 0h-324v1458h324v-1458zM86 958h-72v213h72v76q0 36 12 71.5t36 67.5t65.5 52t95.5 20h207v-213q-56 0 -74 -17.5t-18 -56.5h92v-213h-92v-958h-324v958z" />
    </font>
</defs>
</svg>
