<?xml version="1.0" standalone="no"?>
<!DOCTYPE svg PUBLIC "-//W3C//DTD SVG 1.1//EN" "http://www.w3.org/Graphics/SVG/1.1/DTD/svg11.dtd" >
<svg xmlns="http://www.w3.org/2000/svg" xmlns:xlink="http://www.w3.org/1999/xlink" version="1.1">
<metadata>
Created by FontForge 20170731 at Fri Apr 28 13:40:34 2023
 By Aleksey,,,
Copyright (c) 1990 Adobe Systems Incorporated.  All Rights Reserved.Helvetica is a trademark of Linotype AG and/or its subsidiaries.
</metadata>
<defs>
<font id="HelveticaRounded-Bold" horiz-adv-x="1251" >
  <font-face 
    font-family="Helvetica Rounded"
    font-weight="700"
    font-stretch="normal"
    units-per-em="2048"
    panose-1="0 0 0 0 0 0 0 0 0 0"
    ascent="1638"
    descent="-410"
    x-height="1071"
    cap-height="1501"
    bbox="-289 -438 2028 1972"
    underline-thickness="102"
    underline-position="-307"
    unicode-range="U+0020-FB02"
  />
<missing-glyph horiz-adv-x="626" 
 />
    <glyph glyph-name=".notdef" horiz-adv-x="626" 
 />
    <glyph glyph-name=".null" horiz-adv-x="0" 
 />
    <glyph glyph-name="nonmarkingreturn" horiz-adv-x="682" 
 />
    <glyph glyph-name="space" unicode=" " horiz-adv-x="626" 
 />
    <glyph glyph-name="exclam" unicode="!" horiz-adv-x="647" 
d="M485 1343v-237q0 -30 -8 -96l-63 -480q-6 -43 -27 -59t-63 -16t-63.5 16.5t-27.5 58.5l-63 480q-8 66 -8 96v237q0 77 42.5 117.5t119.5 40.5t119 -40.5t42 -117.5zM156 154q0 69 49.5 118.5t118.5 49.5t118.5 -49.5t49.5 -118.5t-49.5 -118.5t-118.5 -49.5t-118.5 49.5
t-49.5 118.5z" />
    <glyph glyph-name="quotedbl" unicode="&#x22;" horiz-adv-x="1099" 
d="M612 1024v334q0 63 37.5 103t98.5 40t98 -39.5t37 -103.5v-334q0 -64 -37 -103.5t-98 -39.5t-98.5 40t-37.5 103zM217 1024v334q0 64 37 103.5t98 39.5t98 -39.5t37 -103.5v-334q0 -64 -37 -103.5t-98 -39.5t-98 39.5t-37 103.5z" />
    <glyph glyph-name="numbersign" unicode="#" horiz-adv-x="1253" 
d="M311 592l33 246h-78q-50 0 -74 28.5t-24 69.5t24 69.5t74 28.5h107l43 316q7 50 32 78t82 28q39 0 67 -23.5t28 -60.5q0 -4 -7 -72l-36 -266h180l43 316q7 50 32.5 78t82.5 28q39 0 66.5 -23.5t27.5 -60.5q0 -13 -6 -72l-37 -266h78q50 0 74 -28.5t24 -69.5t-24 -69.5
t-74 -28.5h-107l-33 -246h78q50 0 74 -28.5t24 -69.5t-24 -70t-74 -29h-106l-43 -315q-7 -50 -32.5 -78.5t-82.5 -28.5q-39 0 -66.5 23.5t-27.5 60.5q0 13 6 72l37 266h-180l-43 -315q-7 -50 -32.5 -78.5t-82.5 -28.5q-39 0 -66.5 23.5t-27.5 60.5q0 13 6 72l37 266h-78
q-50 0 -74.5 29t-24.5 70t24.5 69.5t74.5 28.5h106zM700 592l33 246h-180l-33 -246h180z" />
    <glyph glyph-name="dollar" unicode="$" horiz-adv-x="1253" 
d="M569 182v428q-234 42 -360.5 146t-126.5 270q0 101 40 183t108 134t154.5 81t184.5 32v47q0 27 18 48.5t44 21.5q25 0 43 -21.5t18 -48.5v-47q64 -2 144.5 -22t159 -56t131.5 -96t53 -131q0 -58 -37 -92.5t-92 -34.5q-36 0 -65.5 22.5t-54 55t-52.5 65t-76 56t-111 24.5
v-389q65 -14 113.5 -26.5t105 -33t96.5 -43.5t79 -57t63 -74.5t38.5 -96t14.5 -121.5q0 -200 -136.5 -309.5t-373.5 -123.5v-127q0 -27 -17.5 -48t-43.5 -21t-44 21t-18 48v127q-100 2 -186.5 26.5t-146 63t-102.5 87t-63 99.5t-20 101q0 61 34 95t93 34q41 0 69 -12t41 -32
t24.5 -46t19 -53t24.5 -53.5t40.5 -48t67.5 -35.5t105 -17zM569 881v366q-101 -3 -165 -54.5t-64 -119.5q0 -76 56 -122.5t173 -69.5zM692 588v-406q66 4 120.5 25t93 66.5t38.5 109.5q0 40 -16.5 72.5t-39.5 52.5t-60 37t-66 25.5t-70 17.5z" />
    <glyph glyph-name="percent" unicode="%" horiz-adv-x="2048" 
d="M162 1065q0 85 19.5 154.5t59.5 123.5t107.5 83.5t157.5 29.5t157.5 -29.5t107.5 -83.5t59.5 -123.5t19.5 -154.5t-19.5 -154.5t-59.5 -123.5t-107.5 -83.5t-157.5 -29.5t-157.5 29.5t-107.5 83.5t-59.5 123.5t-19.5 154.5zM383 1065q0 -231 123 -231t123 231t-123 231
t-123 -231zM1198 365q0 85 19.5 154.5t59.5 123.5t107.5 83.5t157.5 29.5t157.5 -29.5t107.5 -83.5t59.5 -123.5t19.5 -154.5t-19.5 -154.5t-59.5 -124t-107.5 -84t-157.5 -29.5t-157.5 29.5t-107.5 84t-59.5 124t-19.5 154.5zM1419 365q0 -232 123 -232t123 232
q0 231 -123 231t-123 -231zM588 59l737 1393q30 57 80 57q33 0 56.5 -21t23.5 -48q0 -26 -23 -70l-737 -1393q-30 -57 -80 -57q-33 0 -56.5 21.5t-23.5 48.5q0 25 23 69z" />
    <glyph glyph-name="ampersand" unicode="&#x26;" horiz-adv-x="1441" 
d="M848 764l205 -240q4 8 34 67t46 81q47 63 106 63q51 0 92 -34.5t41 -82.5q0 -53 -47 -136.5t-104 -137.5l122 -147q29 -37 29 -82q0 -51 -42.5 -90t-110.5 -39q-32 0 -53.5 14t-47.5 43l-94 109q-185 -179 -475 -179q-93 0 -171 23.5t-130 63t-88.5 92.5t-53 110.5
t-16.5 118.5q0 155 87.5 266.5t234.5 183.5q-69 79 -105.5 144.5t-36.5 148.5q0 114 57.5 198.5t149 125.5t203.5 41q93 0 168 -22.5t121.5 -58.5t78 -83.5t44 -95t12.5 -96.5q0 -118 -70.5 -215.5t-185.5 -153.5zM860 332l-268 317q-98 -54 -150.5 -112t-52.5 -131
q0 -89 54 -144t147 -55q59 0 114.5 22t85 44t70.5 59zM541 1149q0 -37 9.5 -67t32 -57.5t41 -45t54.5 -47.5q31 19 44.5 27.5t42.5 31.5t43 42t26 49t12 63q0 56 -44.5 95.5t-109.5 39.5q-66 0 -108.5 -37.5t-42.5 -93.5z" />
    <glyph glyph-name="quotesingle" unicode="'" horiz-adv-x="647" 
d="M188 1024v334q0 63 37.5 103t98.5 40t98 -39.5t37 -103.5v-334q0 -64 -37 -103.5t-98 -39.5t-98.5 40t-37.5 103z" />
    <glyph glyph-name="parenleft" unicode="(" horiz-adv-x="681" 
d="M137 549q0 305 146 653q60 142 95 206t60 82.5t64 18.5q45 0 75.5 -27.5t30.5 -66.5q0 -30 -29 -117t-63 -186.5t-63 -255t-29 -307.5t29 -307.5t63 -255t63 -186.5t29 -117q0 -39 -30.5 -67t-75.5 -28q-39 0 -64 19t-60 82.5t-95 206.5q-146 348 -146 653z" />
    <glyph glyph-name="parenright" unicode=")" horiz-adv-x="681" 
d="M545 549q0 -305 -146 -653q-60 -143 -95 -206.5t-60 -82.5t-64 -19q-45 0 -75.5 28t-30.5 67q0 30 29 117t63 186.5t63 255t29 307.5t-29 307.5t-63 255t-63 186.5t-29 117q0 39 30.5 66.5t75.5 27.5q39 0 64 -18.5t60 -82.5t95 -206q146 -348 146 -653z" />
    <glyph glyph-name="asterisk" unicode="*" horiz-adv-x="950" 
d="M389 1227v182q0 44 22.5 68t63.5 24t63.5 -24t22.5 -68v-182l160 57q32 12 53 12q27 0 55.5 -24.5t28.5 -67.5q0 -59 -72 -80l-180 -53l123 -160q25 -32 25 -59q0 -46 -31.5 -66t-60.5 -20q-50 0 -70 33l-117 174l-117 -174q-20 -33 -69 -33q-29 0 -60.5 20t-31.5 66
q0 28 24 59l123 160l-180 53q-72 21 -72 80q0 43 28.5 67.5t55.5 24.5q21 0 53 -12z" />
    <glyph glyph-name="plus" unicode="+" horiz-adv-x="1228" 
d="M492 702v314q0 64 33 103.5t89 39.5t89.5 -39.5t33.5 -103.5v-314h314q65 0 104 -33.5t39 -88.5t-39 -89t-104 -34h-314v-314q0 -64 -33.5 -103.5t-89.5 -39.5t-89 39.5t-33 103.5v314h-314q-62 0 -102.5 37.5t-40.5 85.5q0 55 39 88.5t104 33.5h314z" />
    <glyph glyph-name="comma" unicode="," horiz-adv-x="626" 
d="M145 154q0 69 49.5 118.5t118.5 49.5q95 0 144 -73.5t49 -185.5q0 -97 -26 -158t-79 -116q-30 -28 -87 -58t-99 -30q-33 0 -51.5 17.5t-18.5 43.5q0 24 21.5 40t52.5 28.5t62 30t54.5 56.5t26.5 97q-32 -18 -69 -18q-68 0 -108 46.5t-40 111.5z" />
    <glyph glyph-name="hyphen" unicode="-" horiz-adv-x="833" 
d="M248 707h338q75 0 120.5 -34t45.5 -108t-45.5 -107.5t-120.5 -33.5h-338q-75 0 -120.5 33.5t-45.5 107.5t45.5 108t120.5 34z" />
    <glyph glyph-name="period" unicode="." horiz-adv-x="626" 
d="M145 154q0 69 49.5 118.5t118.5 49.5t118.5 -49.5t49.5 -118.5t-49.5 -118.5t-118.5 -49.5t-118.5 49.5t-49.5 118.5z" />
    <glyph glyph-name="slash" unicode="/" horiz-adv-x="757" 
d="M33 137l489 1288q6 17 12 28t18.5 25.5t33.5 22.5t49 8q39 0 72.5 -29t33.5 -75q0 -22 -16 -68l-489 -1288q-6 -17 -12 -28t-18.5 -25.5t-33.5 -22.5t-49 -8q-39 0 -73 29.5t-34 75.5q0 18 17 67z" />
    <glyph glyph-name="zero" unicode="0" horiz-adv-x="1253" 
d="M379 715q0 -266 62 -381t186 -115q82 0 135 46.5t82.5 158t29.5 291.5q0 241 -58.5 368t-188.5 127t-189 -127t-59 -368zM80 733q0 354 146 538.5t401 184.5t401 -184.5t146 -538.5q0 -95 -11 -182.5t-34.5 -175t-66 -158.5t-101 -127t-144 -86.5t-190.5 -30.5
t-190.5 30.5t-144 86.5t-101 127t-66 158.5t-34.5 175t-11 182.5z" />
    <glyph glyph-name="one" unicode="1" horiz-adv-x="833" 
d="M350 154v778h-264q-54 0 -79 23.5t-25 84.5q0 55 31.5 78t115.5 39l76 17q46 10 81 31t55.5 46.5t37 54t30.5 55t30.5 48t42.5 34.5t61 13q56 0 87.5 -31t31.5 -108v-1163q0 -181 -156 -181t-156 181z" />
    <glyph glyph-name="two" unicode="2" horiz-adv-x="1214" 
d="M401 258h615q62 0 98.5 -31.5t36.5 -97.5q0 -129 -152 -129h-768q-83 0 -125.5 45.5t-42.5 106.5q0 110 97.5 229t288.5 240q33 21 79.5 49.5t70 43.5t58 37t50.5 35t39 31.5t33 32t22.5 32t17.5 36.5t8.5 39.5t3.5 46.5q0 96 -62.5 151t-152.5 55q-103 0 -167.5 -49.5
t-96.5 -167.5q-16 -61 -43 -87.5t-86 -26.5q-149 0 -149 137q0 123 73.5 224t199 158.5t274.5 57.5q118 0 219 -36.5t166 -95t101 -129.5t36 -142q0 -100 -21.5 -175t-69.5 -133.5t-104.5 -100.5t-146.5 -93q-202 -115 -291.5 -177t-108.5 -116z" />
    <glyph glyph-name="three" unicode="3" horiz-adv-x="1214" 
d="M63 328q0 63 41.5 103t104.5 40q37 0 62.5 -14t40.5 -36t28 -49t30 -54t40.5 -49t65.5 -36t99 -14q112 0 174 61.5t62 159.5q0 80 -42 127.5t-142 57.5q-19 2 -28 3t-30.5 5t-33 8.5t-29 13t-26.5 19t-16 26.5t-7 35q0 75 41.5 102.5t136.5 32.5q76 4 116 46.5t40 113.5
q0 88 -58.5 134t-146.5 46q-58 0 -101 -17.5t-65 -43t-42.5 -56t-36 -56t-43 -43t-65.5 -17.5q-59 0 -98 29.5t-39 93.5q0 89 49 160.5t125.5 112t159.5 62t162 21.5q128 0 224.5 -33.5t151.5 -91t82 -126t27 -146.5q0 -195 -174 -287q111 -31 165 -114.5t54 -204.5
q0 -118 -43.5 -211t-119.5 -151t-175.5 -88t-214.5 -30q-110 0 -200 26t-145 65.5t-93 89t-53 93t-15 81.5z" />
    <glyph glyph-name="four" unicode="4" 
d="M696 561v531h-4l-395 -531h399zM696 117v211h-514q-74 0 -114.5 43t-40.5 98q0 70 39 121l630 809q43 57 133 57q154 0 154 -147v-748h102q52 0 83.5 -32.5t31.5 -84.5q0 -51 -31.5 -83.5t-83.5 -32.5h-102v-211q0 -144 -143 -144q-144 0 -144 144z" />
    <glyph glyph-name="five" unicode="5" horiz-adv-x="1214" 
d="M96 864l74 436q9 55 45.5 92.5t85.5 37.5h614q62 0 99 -32t37 -98t-36 -97.5t-95 -31.5h-523l-55 -307l4 -4q54 46 129.5 70t155.5 24q98 0 184 -30t154 -87t107.5 -148.5t39.5 -205.5q0 -161 -73.5 -277.5t-199.5 -174.5t-292 -58q-101 0 -185.5 20t-138.5 51.5
t-91.5 71.5t-53.5 77t-16 71q0 62 41 102t106 40q34 0 62 -20.5t51 -50t50 -58.5t73 -49.5t106 -20.5q113 0 187.5 79t74.5 183q0 125 -77 188.5t-199 63.5q-55 0 -103 -15.5t-76.5 -34.5t-65 -34.5t-69.5 -15.5q-61 0 -101 33.5t-40 101.5q0 50 10 108z" />
    <glyph glyph-name="six" unicode="6" horiz-adv-x="1253" 
d="M379 840v-37q69 66 144.5 98.5t174.5 32.5q222 0 349 -129.5t127 -323.5q0 -244 -148.5 -376t-382.5 -132q-105 0 -192 26t-147.5 74t-104.5 109.5t-69.5 137.5t-37.5 153t-12 162q0 223 42 383t124 255.5t192.5 139t257.5 43.5q175 0 292.5 -82.5t117.5 -181.5
q0 -56 -37.5 -94.5t-91.5 -38.5q-37 0 -67 18t-52.5 44t-46 52t-59.5 44t-82 18q-76 0 -134.5 -34.5t-91.5 -93t-49 -126t-16 -141.5zM397 461q0 -118 64.5 -186t175.5 -68q110 0 173.5 68t63.5 186q0 125 -65 188.5t-172 63.5q-104 0 -172 -67t-68 -185z" />
    <glyph glyph-name="seven" unicode="7" horiz-adv-x="1175" 
d="M156 1430h831q141 0 141 -148q0 -33 -19 -66t-53 -72.5t-77 -90t-94.5 -132t-102.5 -183t-104.5 -258.5t-95.5 -345q-21 -94 -51.5 -128t-100.5 -34q-83 0 -116 41t-33 115q0 102 77 301.5t204.5 412.5t250.5 328h-661q-59 0 -95.5 31.5t-36.5 97.5t37 98t99 32z" />
    <glyph glyph-name="eight" unicode="8" horiz-adv-x="1253" 
d="M80 432q0 121 59 209.5t172 124.5q-88 41 -139 122.5t-51 178.5q0 172 137 280.5t369 108.5t369 -108.5t137 -280.5q0 -97 -51.5 -178.5t-139.5 -122.5q113 -36 172.5 -124.5t59.5 -209.5q0 -100 -33 -180t-86.5 -131.5t-126 -85.5t-147.5 -48t-154 -14t-154 14
t-147.5 48t-126 85.5t-86.5 131.5t-33 180zM379 430q0 -104 68.5 -163.5t179.5 -59.5t179 59.5t68 163.5q0 36 -13 74t-40 74.5t-77.5 60t-116.5 23.5t-116.5 -23.5t-78 -60t-40.5 -74.5t-13 -74zM408 1047q0 -93 61 -141t158 -48t158 48t61 141q0 88 -61.5 138t-157.5 50
t-157.5 -50t-61.5 -138z" />
    <glyph glyph-name="nine" unicode="9" horiz-adv-x="1253" 
d="M874 590v37q-69 -66 -144.5 -98.5t-174.5 -32.5q-222 0 -348.5 129t-126.5 323q0 124 40.5 221.5t112.5 159.5t168 94.5t209 32.5q126 0 225 -38t161.5 -101t103.5 -150t57.5 -178.5t16.5 -193.5q0 -223 -42 -383.5t-124 -255.5t-193 -139t-258 -44q-175 0 -292.5 82.5
t-117.5 182.5q0 56 37.5 94.5t91.5 38.5q37 0 67 -18t52.5 -44t46.5 -52t60 -44t82 -18q62 0 112 23t82.5 61.5t54.5 90.5t31.5 106.5t9.5 113.5zM856 969q0 118 -64.5 186t-175.5 68q-110 0 -173.5 -68t-63.5 -186q0 -125 65 -188.5t172 -63.5q104 0 172 67t68 185z" />
    <glyph glyph-name="colon" unicode=":" horiz-adv-x="626" 
d="M145 903q0 69 49.5 118.5t118.5 49.5t118.5 -49.5t49.5 -118.5t-49.5 -118.5t-118.5 -49.5t-118.5 49.5t-49.5 118.5zM145 154q0 69 49.5 118.5t118.5 49.5t118.5 -49.5t49.5 -118.5t-49.5 -118.5t-118.5 -49.5t-118.5 49.5t-49.5 118.5z" />
    <glyph glyph-name="semicolon" unicode=";" horiz-adv-x="626" 
d="M145 154q0 69 49.5 118.5t118.5 49.5q95 0 144 -73.5t49 -185.5q0 -97 -26 -158t-79 -116q-30 -28 -87 -58t-99 -30q-33 0 -51.5 17.5t-18.5 43.5q0 24 21.5 40t52.5 28.5t62 30t54.5 56.5t26.5 97q-32 -18 -69 -18q-68 0 -108 46.5t-40 111.5zM145 903q0 69 49.5 118.5
t118.5 49.5t118.5 -49.5t49.5 -118.5t-49.5 -118.5t-118.5 -49.5t-118.5 49.5t-49.5 118.5z" />
    <glyph glyph-name="less" unicode="&#x3c;" horiz-adv-x="1228" 
d="M1085 868l-659 -288l659 -289q59 -25 78 -56t19 -73q0 -49 -31.5 -80t-81.5 -31q-54 0 -113 29l-833 383q-33 15 -54.5 47.5t-21.5 69.5t21.5 69t54.5 47l833 383q59 29 113 29q50 0 81.5 -31t31.5 -80q0 -42 -19 -73t-78 -56z" />
    <glyph glyph-name="equal" unicode="=" horiz-adv-x="1228" 
d="M178 944h873q65 0 104 -34t39 -89t-39 -89t-104 -34h-873q-62 0 -102.5 37.5t-40.5 85.5q0 55 39 89t104 34zM178 461h873q65 0 104 -34t39 -89t-39 -89t-104 -34h-873q-62 0 -102.5 37.5t-40.5 85.5q0 55 39 89t104 34z" />
    <glyph glyph-name="greater" unicode="&#x3e;" horiz-adv-x="1228" 
d="M143 291l660 289l-660 288q-59 25 -77.5 56t-18.5 73q0 49 31.5 80t81.5 31q53 0 112 -29l834 -383q33 -15 54.5 -47t21.5 -69t-21.5 -69.5t-54.5 -47.5l-834 -383q-59 -29 -112 -29q-50 0 -81.5 31t-31.5 80q0 42 18.5 73t77.5 56z" />
    <glyph glyph-name="question" unicode="?" horiz-adv-x="1175" 
d="M88 1122q0 98 67 186t178 140.5t234 52.5q102 0 192.5 -24t165 -71.5t118.5 -128.5t44 -185q0 -63 -23 -120t-58 -97.5t-79.5 -79t-84 -64.5t-75.5 -54.5t-50 -49.5q-12 -18 -23 -45t-19 -47t-22 -39.5t-40 -30t-64 -10.5q-62 0 -96.5 41.5t-34.5 95.5q0 67 37 125
t89.5 99.5t105 81.5t89.5 89.5t37 104.5q0 83 -52 129.5t-144 46.5q-53 0 -91.5 -15t-60 -39t-37 -53t-28.5 -57.5t-29 -52.5t-44.5 -39t-68.5 -15q-57 0 -95 33t-38 92zM389 154q0 69 49.5 118.5t118.5 49.5t118.5 -49.5t49.5 -118.5t-49.5 -118.5t-118.5 -49.5
t-118.5 49.5t-49.5 118.5z" />
    <glyph glyph-name="at" unicode="@" horiz-adv-x="1638" 
d="M639 688q0 -86 45.5 -134t118.5 -48q87 0 142.5 66t55.5 165q0 80 -41 128t-116 48q-88 0 -146.5 -66.5t-58.5 -158.5zM1249 971l-63 -357q-12 -54 -12 -73q0 -41 38 -41q66 0 123.5 82t57.5 233q0 243 -150 376.5t-393 133.5q-155 0 -285.5 -79t-206 -215t-75.5 -296
q0 -134 45 -245t123 -185t185.5 -114.5t231.5 -40.5q86 0 156 14t112.5 33.5t74.5 39.5t56 34t42 14q31 0 54 -24t23 -56q0 -53 -86 -110t-208 -93.5t-224 -36.5q-164 0 -312 57.5t-257.5 158t-173.5 245t-64 309.5q0 217 107 395t289 278.5t399 100.5q146 0 277.5 -45
t230 -125.5t156 -201t57.5 -263.5q0 -96 -22.5 -179t-58.5 -141.5t-84 -106t-97.5 -77t-99.5 -49.5t-88.5 -28t-67.5 -8q-120 0 -123 104h-4q-89 -104 -213 -104q-130 0 -215.5 103.5t-85.5 256.5q0 137 55 251t144 176.5t190 62.5q91 0 149.5 -30.5t104.5 -96.5l8 36
q16 74 98 74q38 0 64 -23.5t26 -64.5q0 -20 -8 -59z" />
    <glyph glyph-name="A" unicode="A" horiz-adv-x="1366" 
d="M51 250l434 1149q21 55 60.5 78.5t103.5 23.5h80q65 0 109.5 -25.5t70.5 -97.5l406 -1128q33 -91 33 -129q0 -61 -46.5 -104.5t-111.5 -43.5q-117 0 -152 93l-86 245h-540l-88 -245q-32 -93 -150 -93q-70 0 -113 40.5t-43 107.5q0 38 33 129zM879 545l-191 592h-4
l-199 -592h394z" />
    <glyph glyph-name="B" unicode="B" horiz-adv-x="1478" 
d="M156 197v1081q0 107 50.5 152t145.5 45h447q538 0 538 -381q0 -98 -53 -178.5t-154 -120.5v-4q122 -32 190.5 -120t68.5 -235q0 -112 -43.5 -198t-119.5 -136.5t-172 -76t-208 -25.5h-494q-95 0 -145.5 45t-50.5 152zM492 655v-397h282q56 0 100 7.5t87.5 27t67.5 60.5
t24 102q0 52 -18.5 89t-46.5 58.5t-72.5 33.5t-85.5 15.5t-97 3.5h-241zM492 1229v-361h276q233 0 233 181q0 67 -36 109t-87.5 56.5t-119.5 14.5h-266z" />
    <glyph glyph-name="C" unicode="C" horiz-adv-x="1478" 
d="M109 737q0 158 46.5 296.5t134.5 245t227 168.5t312 62q110 0 209 -26.5t168 -68t119.5 -93t75 -102.5t24.5 -95q0 -72 -38.5 -111.5t-112.5 -39.5q-39 0 -69.5 14.5t-51 38t-39.5 52t-42.5 57t-53.5 52t-78.5 38t-110.5 14.5q-164 0 -274.5 -135t-110.5 -367
q0 -105 22 -192.5t67.5 -158t124.5 -110.5t184 -40q62 0 111.5 21t79 52t58 68t49.5 68t52.5 52t69.5 21q65 0 114 -35t49 -94q0 -79 -46 -156t-123 -136t-186 -95.5t-228 -36.5q-350 0 -541.5 197.5t-191.5 574.5z" />
    <glyph glyph-name="D" unicode="D" horiz-adv-x="1554" 
d="M156 197v1081q0 107 50.5 152t145.5 45h410q116 0 214.5 -20.5t190.5 -73t156 -134.5t102.5 -212t38.5 -298q0 -350 -185.5 -543.5t-522.5 -193.5h-404q-95 0 -145.5 45t-50.5 152zM492 1204v-934h282q78 0 139.5 27t101 71.5t65.5 106t37 126.5t11 136q0 224 -88 345.5
t-268 121.5h-280z" />
    <glyph glyph-name="E" unicode="E" horiz-adv-x="1402" 
d="M164 197v1081q0 107 50.5 152t145.5 45h789q81 0 125.5 -30.5t44.5 -105.5t-44.5 -105t-125.5 -30h-649v-319h569q74 0 116 -28.5t42 -100.5t-42 -100.5t-116 -28.5h-569v-357h665q81 0 125.5 -30t44.5 -105t-44.5 -105t-125.5 -30h-805q-95 0 -145.5 45t-50.5 152z" />
    <glyph glyph-name="F" unicode="F" horiz-adv-x="1290" 
d="M164 141v1137q0 107 50.5 152t145.5 45h740q81 0 125.5 -30.5t44.5 -105.5t-44.5 -105t-125.5 -30h-600v-344h508q74 0 115.5 -28.5t41.5 -100.5t-41.5 -100.5t-115.5 -28.5h-508v-461q0 -75 -46 -121.5t-122 -46.5t-122 46.5t-46 121.5z" />
    <glyph glyph-name="G" unicode="G" horiz-adv-x="1669" 
d="M1524 641v-555q0 -47 -32.5 -80t-82.5 -33q-69 0 -98 43t-45 148q-158 -199 -439 -199q-152 0 -274 41t-204 111.5t-136.5 169.5t-79 210.5t-24.5 239.5q0 184 55.5 330.5t157 243t242.5 147.5t313 51q132 0 245 -36.5t181.5 -91.5t106.5 -115t38 -111q0 -55 -25.5 -89.5
t-58.5 -46t-74 -11.5q-45 0 -76 24t-54.5 58t-54.5 67.5t-93.5 57.5t-153.5 24q-89 0 -162.5 -30t-130.5 -91.5t-89 -164t-32 -238.5q0 -224 108.5 -358t309.5 -134q136 0 237 84t113 217h-219q-64 0 -107.5 29.5t-43.5 99.5q0 62 34 95.5t97 33.5h413q72 0 105 -35t33 -106
z" />
    <glyph glyph-name="H" unicode="H" horiz-adv-x="1593" 
d="M156 141v1192q0 75 46 121.5t122 46.5t122 -46.5t46 -121.5v-418h610v418q0 75 46 121.5t122 46.5t122 -46.5t46 -121.5v-1192q0 -75 -46 -121.5t-122 -46.5t-122 46.5t-46 121.5v492h-610v-492q0 -75 -46 -121.5t-122 -46.5t-122 46.5t-46 121.5z" />
    <glyph glyph-name="I" unicode="I" horiz-adv-x="647" 
d="M156 141v1192q0 75 46 121.5t122 46.5t122 -46.5t46 -121.5v-1192q0 -75 -46 -121.5t-122 -46.5t-122 46.5t-46 121.5z" />
    <glyph glyph-name="J" unicode="J" horiz-adv-x="1175" 
d="M1020 1333v-872q0 -235 -129 -365.5t-375 -130.5q-83 0 -153 15.5t-118.5 41t-86 61t-60 72.5t-37 78.5t-19.5 76.5t-5 69q0 95 42 150t118 55q151 0 151 -195q0 -77 39.5 -121.5t124.5 -44.5q84 0 128 61.5t44 180.5v868q0 75 46 121.5t122 46.5t122 -46.5t46 -121.5z
" />
    <glyph glyph-name="K" unicode="K" horiz-adv-x="1402" 
d="M156 141v1192q0 75 46 121.5t122 46.5t122 -46.5t46 -121.5v-487l528 581q36 38 64.5 56t68.5 18q64 0 112 -37t48 -98q0 -59 -56 -115l-344 -362l408 -621q2 -2 13 -19t13.5 -21t11 -18t11 -20t7 -17t6 -20t1.5 -18q0 -45 -15 -78t-41 -50.5t-55 -25.5t-61 -8
q-53 0 -84.5 18t-64.5 70l-387 598l-184 -184v-334q0 -75 -46 -121.5t-122 -46.5t-122 46.5t-46 121.5z" />
    <glyph glyph-name="L" unicode="L" 
d="M156 197v1136q0 75 46 121.5t122 46.5t122 -46.5t46 -121.5v-1050h561q75 0 124.5 -37.5t49.5 -104.5t-49.5 -104t-124.5 -37h-701q-95 0 -145.5 45t-50.5 152z" />
    <glyph glyph-name="M" unicode="M" horiz-adv-x="1818" 
d="M150 137v1198q0 166 182 166h98q78 0 120 -34t68 -119l293 -947h4l289 947q26 85 68.5 119t120.5 34h94q182 0 182 -166v-1198q0 -70 -36.5 -117t-112.5 -47t-113 47t-37 117v914h-4l-313 -979q-33 -99 -144 -99q-110 0 -143 99l-313 979h-4v-914q0 -70 -37 -117
t-113 -47t-112.5 47t-36.5 117z" />
    <glyph glyph-name="N" unicode="N" horiz-adv-x="1593" 
d="M150 135v1170q0 103 51 149.5t159 46.5q115 0 168 -88l588 -948h4v874q0 80 42.5 121t119.5 41t119.5 -41t42.5 -121v-1157q0 -209 -199 -209q-77 0 -114 18.5t-70 71.5l-584 922h-4v-850q0 -80 -42.5 -121t-119.5 -41t-119 41t-42 121z" />
    <glyph glyph-name="O" unicode="O" horiz-adv-x="1671" 
d="M90 756q0 218 84.5 386.5t255 267.5t406.5 99q177 0 319.5 -57t235 -158t141.5 -238t49 -300q0 -126 -28.5 -242t-89 -216.5t-147 -174t-210 -116t-270.5 -42.5q-155 0 -280 39.5t-211 110t-144 170.5t-84.5 217.5t-26.5 253.5zM426 756q0 -112 20.5 -201.5t66 -163.5
t127.5 -114.5t196 -40.5q89 0 159.5 27t116.5 74t76.5 114t43.5 142t13 163q0 220 -105 351.5t-304 131.5q-134 0 -227.5 -62.5t-138 -169.5t-44.5 -251z" />
    <glyph glyph-name="P" unicode="P" horiz-adv-x="1441" 
d="M156 141v1137q0 107 50.5 152t145.5 45h514q109 0 199.5 -27.5t161 -82.5t110 -146t39.5 -211q0 -206 -136.5 -336.5t-375.5 -130.5h-372v-400q0 -75 -46 -121.5t-122 -46.5t-122 46.5t-46 121.5zM492 1217v-418h313q103 0 169 57.5t66 151.5q0 209 -270 209h-278z" />
    <glyph glyph-name="Q" unicode="Q" horiz-adv-x="1671" 
d="M90 756q0 218 84.5 386.5t255 267.5t406.5 99q177 0 319.5 -57t235 -158t141.5 -238t49 -300q0 -167 -51.5 -316t-151.5 -254l129 -120q27 -24 27 -58q0 -44 -36 -84.5t-79 -40.5q-34 0 -52 9.5t-44 33.5l-129 121q-155 -82 -358 -82q-155 0 -280 39.5t-211 110
t-144 170.5t-84.5 217.5t-26.5 253.5zM426 756q0 -112 20.5 -201.5t66 -163.5t127.5 -114.5t196 -40.5q76 0 135 18l-115 106q-27 24 -27 58q0 44 36 84.5t79 40.5q34 0 52 -9.5t44 -33.5l117 -107q88 133 88 363q0 220 -105 351.5t-304 131.5q-134 0 -227.5 -62.5
t-138 -169.5t-44.5 -251z" />
    <glyph glyph-name="R" unicode="R" horiz-adv-x="1517" 
d="M156 141v1137q0 107 50.5 152t145.5 45h559q115 0 205.5 -25t145.5 -64.5t91 -94.5t50 -110t14 -116q0 -125 -69 -226t-185 -128v-4q50 -7 87 -26.5t59 -46t35 -64t17.5 -75.5t4.5 -87q0 -98 22.5 -190t22.5 -114q0 -56 -48.5 -93.5t-109.5 -37.5q-52 0 -91 19.5
t-58.5 46.5t-31.5 63.5t-14.5 60.5t-2.5 48q0 200 -49 281t-183 81h-331v-432q0 -75 -46 -121.5t-122 -46.5t-122 46.5t-46 121.5zM492 1217v-398h335q41 0 75.5 4.5t68.5 18t57.5 35t38 57.5t14.5 84q0 112 -61.5 155.5t-181.5 43.5h-346z" />
    <glyph glyph-name="S" unicode="S" horiz-adv-x="1402" 
d="M647 918l281 -64q385 -88 385 -424q0 -208 -156 -336.5t-450 -128.5q-123 0 -227 23.5t-174.5 61.5t-120.5 87.5t-72.5 100.5t-22.5 100q0 61 39.5 100t101.5 39q37 0 65.5 -14.5t49.5 -38t41.5 -52t47 -57t60.5 -52t88.5 -38t123.5 -14.5q124 0 197 58t73 137
q0 117 -143 153l-379 96q-88 23 -154 57.5t-105 72.5t-62.5 86.5t-31.5 92t-8 95.5q0 95 34 172.5t90.5 128t133.5 85t159 49.5t171 15q132 0 263 -44t219.5 -125t88.5 -175q0 -61 -44.5 -97t-108.5 -36q-31 0 -56.5 12t-44.5 31.5t-39 43t-45.5 46.5t-58 42.5t-83 31.5
t-114.5 12q-114 0 -177.5 -48t-63.5 -126q0 -29 14.5 -53.5t34.5 -39.5t54.5 -29t59.5 -20.5t66 -16.5z" />
    <glyph glyph-name="T" unicode="T" horiz-adv-x="1368" 
d="M516 141v1051h-317q-75 0 -124.5 37t-49.5 104t49.5 104.5t124.5 37.5h970q75 0 124.5 -37.5t49.5 -104.5t-49.5 -104t-124.5 -37h-317v-1051q0 -75 -46 -121.5t-122 -46.5t-122 46.5t-46 121.5z" />
    <glyph glyph-name="U" unicode="U" horiz-adv-x="1593" 
d="M156 553v780q0 75 46 121.5t122 46.5t122 -46.5t46 -121.5v-807q0 -290 305 -290t305 290v807q0 75 46 121.5t122 46.5t122 -46.5t46 -121.5v-780q0 -296 -169 -442t-472 -146t-472 146t-169 442z" />
    <glyph glyph-name="V" unicode="V" horiz-adv-x="1327" 
d="M1288 1253l-426 -1163q-25 -68 -73 -92.5t-132 -24.5t-131.5 24.5t-72.5 92.5l-414 1163q-21 59 -21 99q0 78 49 113.5t121 35.5q66 0 106 -35.5t64 -111.5l304 -1004h4l315 1004q23 75 61.5 111t96.5 36q72 0 121 -35.5t49 -113.5q0 -40 -21 -99z" />
    <glyph glyph-name="W" unicode="W" horiz-adv-x="1896" 
d="M1862 1253l-289 -1120q-24 -89 -68 -124.5t-135 -35.5q-92 0 -135 38.5t-66 127.5l-219 899h-4l-219 -899q-21 -88 -65 -127t-136 -39q-91 0 -134.5 35.5t-67.5 124.5l-289 1120q-17 66 -17 97q0 72 49 111.5t113 39.5q66 0 104.5 -32.5t53.5 -104.5l199 -979h4l229 991
q15 67 51 96t125 29q51 0 86 -11t55.5 -35t30.5 -49.5t19 -64.5l223 -956h4l201 979q28 137 151 137q64 0 113 -39.5t49 -111.5q0 -35 -16 -97z" />
    <glyph glyph-name="X" unicode="X" horiz-adv-x="1212" 
d="M68 246l352 514l-322 481q-35 54 -35 102q0 66 48 112t120 46q93 0 140 -82l243 -420l260 420q28 45 57 63.5t81 18.5q68 0 115 -38t47 -113q0 -45 -31 -90l-342 -500l334 -502q44 -67 51 -89q4 -15 4 -30q0 -79 -49 -122.5t-123 -43.5q-47 0 -80.5 16t-60.5 62l-271 453
l-291 -465q-41 -66 -131 -66q-72 0 -116.5 40.5t-44.5 103.5t45 129z" />
    <glyph glyph-name="Y" unicode="Y" horiz-adv-x="1253" 
d="M459 141v434l-412 685q-29 49 -29 88q0 41 17 72t43.5 48t54.5 25t55 8q58 0 91 -23t61 -75l293 -539l291 539q29 55 60.5 76.5t84.5 21.5q35 0 70.5 -13t65.5 -50t30 -90q0 -39 -29 -88l-411 -685v-434q0 -75 -46 -121.5t-122 -46.5t-122 46.5t-46 121.5z" />
    <glyph glyph-name="Z" unicode="Z" horiz-adv-x="1402" 
d="M117 295l760 897h-586q-75 0 -124.5 37t-49.5 104t49.5 104.5t124.5 37.5h885q155 0 155 -154q0 -68 -47 -121l-772 -917h655q75 0 124.5 -37.5t49.5 -104.5t-49.5 -104t-124.5 -37h-911q-97 0 -146 38t-49 128q0 62 56 129z" />
    <glyph glyph-name="bracketleft" unicode="[" horiz-adv-x="720" 
d="M449 1253v-1409h143q125 0 125 -110q0 -111 -125 -111h-248q-166 0 -166 172v1508q0 172 166 172h248q125 0 125 -111t-125 -111h-143z" />
    <glyph glyph-name="backslash" unicode="\" horiz-adv-x="757" 
d="M236 1425l489 -1288q16 -46 16 -67q0 -46 -33.5 -75.5t-72.5 -29.5q-28 0 -49 8t-33.5 22.5t-18.5 25.5t-12 28l-489 1288q-17 49 -17 68q0 46 34 75t73 29q28 0 49 -8t33.5 -22.5t18.5 -25.5t12 -28z" />
    <glyph glyph-name="bracketright" unicode="]" horiz-adv-x="720" 
d="M272 -156v1409h-143q-125 0 -125 111t125 111h248q166 0 166 -172v-1508q0 -172 -166 -172h-248q-125 0 -125 111q0 110 125 110h143z" />
    <glyph glyph-name="asciicircum" unicode="^" horiz-adv-x="1228" 
d="M846 686l-232 424l-231 -424q-26 -48 -58 -65t-83 -17q-58 0 -81.5 22t-23.5 52q0 38 27 90l315 573q28 51 60 70t75 19q44 0 76.5 -19t59.5 -70l315 -573q27 -52 27 -90q0 -30 -23.5 -52t-81.5 -22q-51 0 -83 17t-58 65z" />
    <glyph glyph-name="underscore" unicode="_" horiz-adv-x="1024" 
d="M1024 -256h-1024q-26 0 -42.5 13.5t-16.5 37.5t16.5 37.5t42.5 13.5h1024q26 0 42.5 -13.5t16.5 -37.5t-16.5 -37.5t-42.5 -13.5z" />
    <glyph glyph-name="grave" unicode="`" horiz-adv-x="569" 
d="M248 1489l151 -117q34 -28 47 -49t13 -49q0 -48 -32.5 -74t-72.5 -26q-42 0 -94 36l-184 125q-76 51 -76 111q0 39 28 76t83 37q23 0 49.5 -12t43.5 -24t44 -34z" />
    <glyph glyph-name="a" unicode="a" 
d="M1112 791v-502q0 -72 15.5 -129.5t15.5 -71.5q0 -50 -40 -82.5t-95 -32.5q-90 0 -132 48.5t-45 125.5q-85 -93 -185 -133.5t-224 -40.5q-134 0 -236 85.5t-102 220.5q0 72 22 128t58.5 92.5t92 62t113.5 39t132 22.5l182 20q64 7 96.5 29.5t32.5 81.5q0 61 -53.5 92
t-134.5 31q-61 0 -108.5 -17t-75.5 -41t-51.5 -48t-51 -41t-59.5 -17q-56 0 -91.5 33.5t-35.5 80.5q0 46 32 93t89.5 87t150.5 65.5t203 25.5q225 0 355 -76t130 -231zM813 387v117q-32 -30 -129 -47l-109 -17q-98 -14 -145 -48t-47 -99q0 -52 45.5 -87.5t120.5 -35.5
q118 0 191 64.5t73 152.5z" />
    <glyph glyph-name="b" unicode="b" 
d="M119 115v1237q0 72 40 110.5t109 38.5t109.5 -38.5t40.5 -110.5v-406h4q45 73 120.5 112.5t174.5 39.5q114 0 204 -46t145 -124.5t83.5 -176.5t28.5 -208q0 -141 -38 -252t-103 -179t-148.5 -103.5t-179.5 -35.5q-112 0 -196 48t-120 141h-4v-47q0 -69 -34.5 -105.5
t-100.5 -36.5q-135 0 -135 142zM879 532q0 58 -11 111.5t-36 105.5t-74 83.5t-117 31.5q-65 1 -113.5 -28.5t-75 -79.5t-39 -106t-12.5 -118q0 -140 59 -232.5t181 -92.5q115 3 176.5 94.5t61.5 230.5z" />
    <glyph glyph-name="c" unicode="c" horiz-adv-x="1099" 
d="M61 514q0 265 146.5 424.5t415.5 159.5q182 0 309 -86.5t127 -194.5q0 -62 -39.5 -95.5t-99.5 -33.5q-38 0 -64 18t-43.5 44t-38 52t-61 44t-99.5 18q-47 0 -89.5 -17.5t-81 -55.5t-61 -109t-22.5 -168q0 -142 65.5 -224.5t186.5 -82.5q42 0 75 10.5t53 27.5t36.5 37.5
t30.5 41t30 37.5t40.5 27.5t56.5 10.5q55 0 90 -34t35 -80q0 -51 -29 -104.5t-82.5 -100.5t-143.5 -77t-200 -30q-135 0 -240 40t-170.5 113t-99 171t-33.5 217z" />
    <glyph glyph-name="d" unicode="d" 
d="M1133 1352v-1237q0 -142 -136 -142q-66 0 -100.5 36.5t-34.5 105.5v47h-4q-36 -93 -119.5 -141t-195.5 -48q-96 0 -179.5 35.5t-148.5 103.5t-103 179t-38 252q0 110 28.5 208t83.5 176.5t145 124.5t204 46q99 0 174 -39.5t120 -112.5h5v406q0 72 40 110.5t109 38.5
t109.5 -38.5t40.5 -110.5zM373 532q0 -139 61 -230.5t176 -94.5q122 0 181 92.5t59 232.5q0 62 -12.5 118t-39 106t-75 79.5t-113.5 28.5q-55 0 -97.5 -21.5t-68 -55t-42.5 -79t-23 -88.5t-6 -88z" />
    <glyph glyph-name="e" unicode="e" horiz-adv-x="1253" 
d="M1049 479h-676q0 -121 74 -196.5t202 -75.5q62 0 109.5 15t75.5 37t51 43.5t50 36.5t60 15q52 0 87.5 -36t35.5 -80q0 -52 -31.5 -96.5t-81.5 -75t-113 -52t-125 -31.5t-118 -10q-121 0 -220 31.5t-163.5 84.5t-109 124t-63.5 146.5t-19 156.5q0 264 151 423t414 159
q125 0 229 -42t171 -111t104 -156.5t37 -180.5q0 -76 -27.5 -102.5t-103.5 -26.5zM373 651h524q-12 103 -82.5 170.5t-169.5 67.5q-109 0 -177.5 -63t-94.5 -175z" />
    <glyph glyph-name="f" unicode="f" horiz-adv-x="757" 
d="M213 123v751h-68q-62 0 -90 24.5t-28 74.5t28 74t90 24h68v150q0 135 96 211.5t234 76.5q87 0 141.5 -36t54.5 -107q0 -41 -28 -71.5t-68 -30.5q-11 0 -32 3t-33 3q-31 0 -48.5 -19t-17.5 -51v-129h92q68 0 101.5 -23t33.5 -75q0 -53 -33.5 -76t-101.5 -23h-92v-751
q0 -72 -40.5 -111t-109.5 -39t-109 39t-40 111z" />
    <glyph glyph-name="g" unicode="g" 
d="M373 539q0 -54 13.5 -103.5t40.5 -92t74.5 -68t108.5 -25.5q106 0 171 74.5t65 226.5q0 313 -221 313q-252 0 -252 -325zM1133 956v-868q0 -132 -39.5 -233.5t-111 -165t-168 -95.5t-214.5 -32q-114 0 -216.5 31t-168 89t-65.5 128q0 55 36 91t86 36q34 0 64 -16
t54.5 -38.5t50.5 -45t64.5 -38.5t84.5 -16q137 0 196.5 76t59.5 252v61h-4q-41 -60 -121.5 -101.5t-167.5 -41.5q-231 0 -355 136t-124 363q0 141 37.5 251.5t103 179t149 104t179.5 35.5q108 0 190.5 -47t124.5 -131h4v36q0 69 34.5 105.5t100.5 36.5q136 0 136 -142z" />
    <glyph glyph-name="h" unicode="h" 
d="M119 123v1229q0 72 40 110.5t109 38.5t109.5 -38.5t40.5 -110.5v-412h4q120 158 334 158q72 0 135.5 -19.5t119.5 -62.5t89 -122.5t33 -188.5v-582q0 -150 -150 -150q-149 0 -149 150v522q0 95 -48 151t-141 56q-85 0 -156 -65t-71 -171v-493q0 -150 -150 -150
q-149 0 -149 150z" />
    <glyph glyph-name="i" unicode="i" horiz-adv-x="569" 
d="M135 123v825q0 150 150 150q149 0 149 -150v-825q0 -150 -149 -150q-150 0 -150 150zM129 1354q0 64 45.5 109.5t110.5 45.5t110 -45.5t45 -109.5q0 -65 -45.5 -110.5t-109.5 -45.5q-65 0 -110.5 46t-45.5 110z" />
    <glyph glyph-name="j" unicode="j" horiz-adv-x="569" 
d="M135 -137v1085q0 150 150 150q149 0 149 -150v-1054q0 -165 -70.5 -241.5t-234.5 -76.5q-85 0 -124.5 32t-39.5 97q0 56 23 80.5t71 24.5h33q21 0 32 15t11 38zM129 1354q0 64 45.5 109.5t110.5 45.5t110 -45.5t45 -109.5q0 -65 -45.5 -110.5t-109.5 -45.5
q-65 0 -110.5 46t-45.5 110z" />
    <glyph glyph-name="k" unicode="k" horiz-adv-x="1099" 
d="M119 123v1229q0 72 40 110.5t109 38.5t109.5 -38.5t40.5 -110.5v-680l332 368q54 58 114 58q53 0 97.5 -40t44.5 -95q0 -25 -7 -44t-13.5 -27.5t-24.5 -27.5l-222 -231l312 -418q30 -42 30 -96q0 -58 -41 -102t-100 -44q-86 0 -135 70l-283 399l-104 -92v-227
q0 -72 -40.5 -111t-109.5 -39t-109 39t-40 111z" />
    <glyph glyph-name="l" unicode="l" horiz-adv-x="569" 
d="M135 123v1229q0 72 40.5 110.5t109.5 38.5t109 -38.5t40 -110.5v-1229q0 -72 -40 -111t-109 -39t-109.5 39t-40.5 111z" />
    <glyph glyph-name="m" unicode="m" horiz-adv-x="1896" 
d="M119 123v825q0 68 38 109t103 41t103 -41t38 -109v-39h5q59 90 153 139.5t207 49.5q88 0 168.5 -46t118.5 -143q67 93 151.5 141t200.5 48q81 0 146.5 -19.5t117.5 -61t80.5 -113.5t28.5 -169v-612q0 -150 -150 -150q-149 0 -149 150v536q0 86 -40.5 139.5t-123.5 53.5
q-89 0 -153 -65t-64 -166v-498q0 -150 -150 -150q-149 0 -149 150v536q0 86 -40.5 139.5t-123.5 53.5q-89 0 -153 -65t-64 -166v-498q0 -150 -150 -150q-149 0 -149 150z" />
    <glyph glyph-name="n" unicode="n" 
d="M119 123v825q0 70 33.5 110t101.5 40t101.5 -40t33.5 -110v-39h4q143 189 363 189q72 0 135.5 -19.5t119.5 -62.5t89 -122.5t33 -188.5v-582q0 -150 -150 -150q-149 0 -149 150v522q0 95 -48 151t-141 56q-85 0 -156 -65t-71 -171v-493q0 -150 -150 -150q-149 0 -149 150
z" />
    <glyph glyph-name="o" unicode="o" horiz-adv-x="1253" 
d="M373 537q0 -95 25.5 -170t84.5 -123.5t144 -48.5t144 48.5t84.5 123.5t25.5 170q0 153 -64 246.5t-190 93.5t-190 -93.5t-64 -246.5zM74 537q0 119 36.5 220.5t104.5 178t174 119.5t238 43t238 -43t174 -119.5t104.5 -178t36.5 -220.5q0 -93 -18 -174t-59.5 -153.5
t-104 -124.5t-157.5 -82t-214 -30t-214 30t-157.5 82t-104 124.5t-59.5 153.5t-18 174z" />
    <glyph glyph-name="p" unicode="p" 
d="M119 -274v1230q0 142 135 142q66 0 100.5 -36.5t34.5 -105.5v-47h4q36 93 120 141t196 48q96 0 179.5 -35.5t148.5 -103.5t103 -179t38 -252q0 -110 -28.5 -208t-83.5 -176.5t-145 -124.5t-204 -46q-102 0 -177.5 39.5t-117.5 112.5h-4v-399q0 -72 -40.5 -111t-109.5 -39
t-109 39t-40 111zM879 539q0 139 -61.5 230.5t-176.5 94.5q-122 0 -181 -92.5t-59 -232.5q0 -62 12.5 -118t39 -106t75 -79.5t113.5 -28.5q68 0 117 31.5t74 83.5t36 105.5t11 111.5z" />
    <glyph glyph-name="q" unicode="q" 
d="M1133 956v-1230q0 -72 -40.5 -111t-109.5 -39t-109 39t-40 111v399h-5q-42 -73 -117 -112.5t-177 -39.5q-114 0 -204 46t-145 124.5t-83.5 176.5t-28.5 208q0 141 38 252t103 179t148.5 103.5t179.5 35.5q112 0 195.5 -48t119.5 -141h4v47q0 69 34.5 105.5t100.5 36.5
q136 0 136 -142zM373 539q0 -45 6 -88t23 -88.5t42.5 -79t68 -55t97.5 -21.5q65 -1 113.5 28.5t75 79.5t39 106t12.5 118q0 140 -59 232.5t-181 92.5q-115 -3 -176 -94.5t-61 -230.5z" />
    <glyph glyph-name="r" unicode="r" horiz-adv-x="833" 
d="M135 123v835q0 66 38 103t97 37t97.5 -37.5t38.5 -102.5v-114h4q71 254 247 254q71 0 117.5 -41.5t46.5 -104.5q0 -77 -42 -113t-105 -36h-53q-94 0 -140.5 -76t-46.5 -256v-348q0 -150 -149 -150q-150 0 -150 150z" />
    <glyph glyph-name="s" unicode="s" horiz-adv-x="1099" 
d="M72 764q0 87 40 154t107 105t143 56.5t158 18.5q115 0 218.5 -28t171 -81t67.5 -119q0 -55 -34 -93t-91 -38q-32 0 -58.5 14t-47.5 34.5t-45.5 41t-65 34.5t-92.5 14q-80 0 -126 -23.5t-46 -69.5q0 -47 37 -67.5t122 -38.5l125 -29q59 -13 105 -28t99 -41t87.5 -58.5
t58 -82t23.5 -109.5q0 -88 -40 -158t-106.5 -112.5t-147 -64.5t-167.5 -22q-133 0 -247 36.5t-181 98.5t-67 134q0 53 30.5 89t90.5 36q35 0 65 -19t55.5 -46.5t55 -54.5t77.5 -46t109 -19q78 0 126 31t48 78q0 34 -22.5 56t-45.5 30t-86 24q-4 1 -6 2t-5.5 1.5t-6.5 1.5
l-176 43q-71 18 -122.5 40t-96 57.5t-67.5 90t-23 127.5z" />
    <glyph glyph-name="t" unicode="t" horiz-adv-x="757" 
d="M197 240v634h-52q-62 0 -90 24.5t-28 74.5t28 74t90 24h52v182q0 72 40 111t109 39t109.5 -39t40.5 -111v-182h90q68 0 101.5 -23t33.5 -75q0 -53 -33.5 -76t-101.5 -23h-90v-598q0 -69 77 -69h43q49 0 77 -27t28 -74q0 -65 -55 -99t-162 -34q-160 0 -233.5 66.5
t-73.5 200.5z" />
    <glyph glyph-name="u" unicode="u" 
d="M1133 948v-825q0 -70 -34 -110t-102 -40t-101.5 40t-33.5 110v39h-4q-69 -91 -155.5 -140t-206.5 -49q-57 0 -108.5 11.5t-101.5 40t-86.5 72.5t-58.5 113t-22 157v581q0 150 149 150q150 0 150 -150v-522q0 -95 47.5 -151t140.5 -56q85 0 156.5 65t71.5 171v493
q0 150 149 150q150 0 150 -150z" />
    <glyph glyph-name="v" unicode="v" horiz-adv-x="1024" 
d="M315 80l-282 786q-19 59 -19 76q0 75 43.5 115.5t102.5 40.5q117 0 149 -125l201 -676h4l201 676q32 125 149 125q59 0 102.5 -40.5t43.5 -115.5q0 -17 -19 -76l-282 -786q-12 -34 -22 -51t-31 -32t-54.5 -19.5t-89.5 -4.5t-89.5 4.5t-54.5 19.5t-31 32t-22 51z" />
    <glyph glyph-name="w" unicode="w" horiz-adv-x="1593" 
d="M266 135l-219 713q-20 66 -20 110q0 58 43.5 99t101.5 41q40 0 66.5 -9.5t42 -32.5t22.5 -43.5t16 -60.5l158 -655h4l127 596q9 43 16 67.5t21 55t32.5 46.5t49 26.5t70.5 9.5q41 1 72 -9.5t50 -26t34 -45.5t22.5 -55.5t17.5 -68.5l129 -596h4l148 655q16 77 43.5 111.5
t103.5 34.5q58 0 102 -41t44 -99q0 -41 -21 -110l-219 -713q-32 -104 -67.5 -133t-126.5 -29t-127 32t-60 124l-147 588h-4l-148 -588q-24 -93 -59.5 -124.5t-126.5 -31.5t-127 29t-68 133z" />
    <glyph glyph-name="x" unicode="x" horiz-adv-x="985" 
d="M492 346l-197 -313q-16 -25 -47 -42.5t-70 -17.5q-56 0 -100.5 40.5t-44.5 99.5q0 37 41 96l229 338l-215 323q-31 45 -31 78q0 55 42.5 102.5t117.5 47.5q74 0 121 -76l168 -277l162 265q31 52 63.5 70t73.5 18q53 0 94 -39t41 -90q0 -55 -31 -101l-217 -321l232 -344
q28 -40 28 -90q0 -57 -41 -98.5t-110 -41.5q-43 0 -74 24.5t-63 74.5z" />
    <glyph glyph-name="y" unicode="y" horiz-adv-x="1024" 
d="M324 985l192 -698h4l182 678q35 133 144 133q42 0 74 -15.5t48 -38.5t23.5 -44t7.5 -37q0 -34 -22 -95l-346 -981q-57 -163 -132 -237t-210 -74q-94 0 -141.5 39t-47.5 98q0 58 38 89.5t100 31.5h30q15 0 24 1t23 6t23 14t18.5 27.5t16.5 45.5l-312 887q-36 104 -36 139
q0 61 42.5 102.5t102.5 41.5q59 0 99.5 -30.5t54.5 -82.5z" />
    <glyph glyph-name="z" unicode="z" horiz-adv-x="1138" 
d="M100 225l564 613h-433q-48 0 -84 28.5t-36 87.5t36 88t84 29h711q59 0 91 -35.5t32 -95.5q0 -50 -47 -100l-553 -607h491q48 0 84.5 -28.5t36.5 -87.5t-36.5 -88t-84.5 -29h-761q-63 0 -98.5 34.5t-35.5 82.5q0 66 39 108z" />
    <glyph glyph-name="braceleft" unicode="{" horiz-adv-x="720" 
d="M477 1167v-409q0 -53 -16.5 -92t-37.5 -59.5t-55 -33.5t-55 -16t-51 -6v-4q30 -3 51 -6t55 -16t55 -33.5t37.5 -59.5t16.5 -92v-410q0 -62 25.5 -92.5t70.5 -30.5h52q42 0 67 -23.5t25 -68.5q0 -43 -25.5 -67.5t-66.5 -24.5h-152q-134 0 -200 66.5t-66 206.5v417
q0 84 -28.5 111t-76.5 27t-73 29t-25 69t25 69t73 29q23 0 38.5 4t32.5 17t25.5 42t8.5 74v418q0 140 66 206.5t200 66.5h152q41 0 66.5 -25t25.5 -68q0 -45 -25 -68.5t-67 -23.5h-52q-45 0 -70.5 -30.5t-25.5 -92.5z" />
    <glyph glyph-name="bar" unicode="|" horiz-adv-x="454" 
d="M104 98v1278q0 58 32 95.5t91 37.5t91 -37.5t32 -95.5v-1278q0 -58 -32 -95.5t-91 -37.5t-91 37.5t-32 95.5z" />
    <glyph glyph-name="braceright" unicode="}" horiz-adv-x="720" 
d="M244 -70v410q0 53 16.5 92t37.5 59.5t55 33.5t55 16t51 6v4q-30 3 -51 6t-55 16t-55 33.5t-37.5 59.5t-16.5 92v409q0 62 -26 92.5t-71 30.5h-51q-42 0 -67 23.5t-25 68.5q0 43 25.5 68t66.5 25h152q134 0 200 -66.5t66 -206.5v-418q0 -84 28 -110.5t76 -26.5t73.5 -29
t25.5 -69t-25.5 -69t-73.5 -29q-23 0 -38.5 -4.5t-32 -17.5t-25 -42t-8.5 -74v-417q0 -140 -66 -206.5t-200 -66.5h-152q-41 0 -66.5 24.5t-25.5 67.5q0 45 25 68.5t67 23.5h51q45 0 71 30.5t26 92.5z" />
    <glyph glyph-name="asciitilde" unicode="~" horiz-adv-x="1228" 
d="M1145 657q0 -47 -21 -94.5t-58.5 -86.5t-95.5 -64t-126 -25q-55 0 -123 21.5t-121 48t-110 48t-91 21.5q-31 0 -58 -12.5t-46.5 -31t-37.5 -36.5t-39.5 -30.5t-45.5 -12.5q-46 0 -67 29t-21 70q0 63 34.5 124t102.5 103.5t152 42.5q59 0 130 -21.5t124.5 -48t110.5 -48
t91 -21.5q31 0 58 12.5t46.5 30.5t38 36.5t40 31t45.5 12.5q46 0 67 -29t21 -70z" />
    <glyph glyph-name="exclamdown" unicode="&#xa1;" horiz-adv-x="647" 
d="M162 -266v237q0 31 8 97l63 479q6 43 27.5 59.5t63.5 16.5t63 -16.5t27 -59.5l63 -479q8 -66 8 -97v-237q0 -77 -42 -117.5t-119 -40.5t-119.5 40.5t-42.5 117.5zM492 924q0 -69 -49.5 -118.5t-118.5 -49.5t-118.5 49.5t-49.5 118.5t49.5 118.5t118.5 49.5t118.5 -49.5
t49.5 -118.5z" />
    <glyph glyph-name="cent" unicode="&#xa2;" horiz-adv-x="1253" 
d="M618 217v635q-79 -23 -130.5 -105t-51.5 -233q0 -120 47 -197.5t135 -99.5zM618 -166v143q-238 17 -359.5 162t-121.5 375q0 243 125 399t356 179v135q0 27 18 48t44 21t43.5 -21t17.5 -48v-131q168 -12 281 -95t113 -184q0 -62 -40 -95.5t-100 -33.5q-35 0 -59.5 15
t-40.5 37.5t-33 46t-47.5 44t-73.5 27.5v-645q41 8 71.5 31t48.5 48.5t36 50t46 40.5t67 16q55 0 90 -34t35 -80q0 -47 -25 -96.5t-71.5 -94t-124.5 -77t-173 -40.5v-143q0 -27 -17.5 -48.5t-43.5 -21.5t-44 21.5t-18 48.5z" />
    <glyph glyph-name="sterling" unicode="&#xa3;" horiz-adv-x="1253" 
d="M535 805h223q127 0 127 -98q0 -99 -127 -99h-162q10 -27 10 -49q0 -85 -59 -169t-150 -152l4 -5q9 4 49.5 21t57.5 23t51.5 13t69.5 7q70 0 166.5 -20.5t144.5 -20.5q18 0 77 11.5t75 11.5q55 0 86.5 -37t31.5 -95q0 -87 -69 -130.5t-166 -43.5q-64 0 -220 39t-251 39
q-96 0 -164 -39q-9 -5 -25 -13.5t-25 -13t-23.5 -8.5t-28.5 -4q-62 0 -97 40t-35 102q0 36 22 71t53 66.5t62.5 65.5t53.5 83t22 105q0 45 -22 102h-109q-51 0 -80.5 25.5t-29.5 73.5q0 45 25 71.5t71 26.5h43q-61 87 -61 219q0 125 68 224t185.5 153.5t260.5 54.5
q104 0 192.5 -21.5t150 -56.5t105 -81t64 -95t20.5 -98q0 -68 -42 -105.5t-111 -37.5q-36 0 -61 13.5t-38.5 35.5t-25 49t-27 53.5t-37 48.5t-62 35.5t-96.5 13.5q-97 0 -166 -54.5t-69 -149.5q0 -75 68 -201z" />
    <glyph glyph-name="currency" unicode="&#xa4;" horiz-adv-x="1253" 
d="M137 373l56 53q-89 133 -89 289t86 289l-55 51q-31 34 -31 73q0 41 33 75t74 34q51 0 86 -35l47 -49q133 84 283 84q152 0 282 -84l47 49q35 35 86 35q42 0 74.5 -33.5t32.5 -75.5q0 -40 -31 -71l-55 -53q86 -134 86 -289t-86 -289l55 -53q31 -31 31 -72q0 -42 -32.5 -75
t-74.5 -33q-52 0 -86 34l-49 49q-128 -83 -280 -83q-153 0 -281 83l-49 -49q-34 -34 -86 -34q-41 0 -74 33.5t-33 74.5q0 42 33 72zM350 715q0 -120 81 -204.5t196 -84.5t195.5 84.5t80.5 204.5t-80.5 204.5t-195.5 84.5t-196 -84.5t-81 -204.5z" />
    <glyph glyph-name="yen" unicode="&#xa5;" horiz-adv-x="1253" 
d="M465 137v203h-254q-34 0 -57 23t-23 57t23 57t57 23h254v59l-35 59h-219q-34 0 -57 23t-23 57t23 57t57 23h125l-270 445q-29 52 -29 84q0 40 17 70.5t44.5 46.5t56.5 24t58 8q93 0 139 -96l275 -522l274 522q46 96 139 96q41 0 78.5 -12.5t68 -48t30.5 -88.5
q0 -32 -29 -84l-270 -445h124q34 0 57 -23t23 -57t-23 -57t-57 -23h-219l-35 -59v-59h254q34 0 57 -23t23 -57t-23 -57t-57 -23h-254v-203q0 -75 -43 -119.5t-118 -44.5q-76 0 -119 45t-43 119z" />
    <glyph glyph-name="brokenbar" unicode="&#xa6;" horiz-adv-x="454" 
d="M104 92v387q0 55 32 91t91 36t91 -36t32 -91v-387q0 -55 -32 -91t-91 -36t-91 36t-32 91zM104 995v387q0 55 32 91t91 36t91 -36t32 -91v-387q0 -55 -32 -91t-91 -36t-91 36t-32 91z" />
    <glyph glyph-name="section" unicode="&#xa7;" 
d="M655 993l174 -90q160 -79 234 -163.5t74 -209.5q0 -110 -55 -191.5t-152 -123.5q60 -34 92.5 -97.5t32.5 -137.5q0 -113 -60.5 -196.5t-153.5 -123t-204 -39.5q-93 0 -170 20.5t-126.5 53t-84 73.5t-49 79t-14.5 73q0 49 32 83t84 34q38 0 65 -22.5t46 -54.5t41.5 -64.5
t64 -55t101.5 -22.5q65 0 117.5 32.5t52.5 100.5q0 16 -3.5 31t-13 28.5t-19 24.5t-27.5 24t-32 22t-40 23t-43 22.5l-50 25l-53 26.5q-158 79 -208 111q-150 96 -183 222q-10 40 -10 85q0 78 29 139t74 101t116 79q-58 36 -91.5 96t-33.5 124q0 92 34.5 164.5t94.5 117.5
t136 68.5t163 23.5q94 0 174.5 -29t130.5 -74t77.5 -96t27.5 -98q0 -50 -33 -85t-82 -35q-29 0 -50.5 12t-34.5 31.5t-25 43t-26.5 47.5t-34 43.5t-53 31.5t-77.5 12q-79 0 -121.5 -40.5t-42.5 -92.5q0 -17 3.5 -32.5t12 -29.5t15.5 -25t23 -23t24 -18.5t28 -17.5t27 -14.5
t29.5 -14t25.5 -12.5zM428 508l348 -189q49 12 88 58t39 110q0 54 -29 90.5t-100 73.5l-301 160q-27 -18 -35.5 -24t-31 -25t-31.5 -33t-18 -37.5t-9 -48.5q0 -37 22.5 -76t57.5 -59z" />
    <glyph glyph-name="dieresis" unicode="&#xa8;" horiz-adv-x="569" 
d="M-74 1356q0 61 44 105t106 44t105.5 -43.5t43.5 -105.5t-44 -106t-105 -44q-62 0 -106 44t-44 106zM344 1356q0 61 44 105t106 44t105.5 -43.5t43.5 -105.5t-44 -106t-105 -44q-62 0 -106 44t-44 106z" />
    <glyph glyph-name="copyright" unicode="&#xa9;" horiz-adv-x="1638" 
d="M47 737q0 178 64 326t171.5 244t246.5 149t290 53t289.5 -53t246 -149t172 -244t64.5 -326t-64.5 -326t-172 -244t-246 -149t-289.5 -53t-290 53t-246.5 149t-171.5 244t-64 326zM281 737q0 -170 71.5 -305t194 -208.5t272.5 -73.5q110 0 209 43t172 119.5t115.5 186.5
t42.5 238t-42.5 238.5t-115.5 186.5t-172 119.5t-209 43.5q-112 0 -211 -43.5t-171 -119.5t-114 -186.5t-42 -238.5zM438 743q0 194 111.5 320.5t296.5 126.5q77 0 143.5 -23.5t108.5 -60.5t66 -80.5t24 -85.5q0 -51 -28.5 -76.5t-57.5 -25.5q-31 0 -52 12.5t-30.5 31
t-22.5 40.5t-27 40.5t-46 31t-78 12.5q-85 0 -136 -69.5t-51 -188.5q0 -117 52 -191t139 -74q49 0 82 18t50 43.5t31.5 51t38 43.5t58.5 18q39 0 62.5 -24.5t23.5 -65.5q0 -32 -24 -76t-65.5 -87.5t-110 -74t-146.5 -30.5q-183 0 -297.5 126.5t-114.5 317.5z" />
    <glyph glyph-name="ordfeminine" unicode="&#xaa;" horiz-adv-x="813" 
d="M727 1272v-301q0 -44 10.5 -78t10.5 -43q0 -30 -28 -50t-65 -20q-59 0 -85.5 29.5t-28.5 75.5q-102 -105 -267 -105q-88 0 -154.5 51t-66.5 134q0 53 20.5 91t61 60t85 34t106.5 19l118 15q38 5 56 17.5t18 47.5q0 36 -31.5 54t-80.5 18q-39 0 -68.5 -10t-48 -24t-34 -28
t-34.5 -24t-41 -10q-39 0 -62.5 19t-23.5 48q0 61 85.5 112.5t228.5 51.5q147 0 233 -45.5t86 -138.5zM518 1036v64q-22 -20 -74 -29l-69 -10q-59 -9 -86 -28t-27 -52q0 -31 24.5 -48.5t69.5 -17.5q76 0 119 34.5t43 86.5z" />
    <glyph glyph-name="guillemotleft" unicode="&#xab;" horiz-adv-x="1214" 
d="M526 680l-168 -115l168 -114q66 -45 66 -107q0 -42 -28 -74t-68 -32q-34 0 -80 32l-201 146q-70 49 -70 149q0 101 70 150l201 145q47 33 80 33q40 0 68 -32.5t28 -74.5q0 -61 -66 -106zM1004 680l-168 -115l168 -114q65 -44 65 -107q0 -42 -28 -74t-68 -32q-34 0 -80 32
l-201 146q-69 48 -69 149q0 102 69 150l201 145q47 33 80 33q40 0 68 -32.5t28 -74.5q0 -62 -65 -106z" />
    <glyph glyph-name="logicalnot" unicode="&#xac;" horiz-adv-x="1228" 
d="M948 377v321h-770q-62 0 -102.5 37.5t-40.5 85.5q0 55 39 89t104 34h852q91 0 127.5 -34t36.5 -117v-416q0 -64 -33.5 -104t-89.5 -40t-89.5 40t-33.5 104z" />
    <glyph glyph-name="registered" unicode="&#xae;" horiz-adv-x="1638" 
d="M47 737q0 178 64.5 326t172 244t246 149t289.5 53t289.5 -53t246 -149t172 -244t64.5 -326t-64.5 -326t-172 -244t-246 -149t-289.5 -53t-289.5 53t-246 149t-172 244t-64.5 326zM281 737q0 -170 71.5 -305t194 -208.5t272.5 -73.5q110 0 209 43t172 119.5t115.5 186.5
t42.5 238t-42.5 238.5t-115.5 186.5t-172 119.5t-209 43.5q-112 0 -211 -43.5t-171 -119.5t-114 -186.5t-42 -238.5zM514 430v629q0 43 27 67.5t65 24.5h260q148 0 222.5 -55t74.5 -193q0 -107 -55.5 -167.5t-134.5 -65.5l135 -181q27 -36 27 -81q0 -27 -25.5 -49.5
t-62.5 -22.5q-61 0 -107 65l-188 269h-54v-240q0 -45 -26 -69.5t-66 -24.5q-39 0 -65.5 24.5t-26.5 69.5zM698 1004v-187h158q51 0 81 20t30 74q0 93 -111 93h-158z" />
    <glyph glyph-name="macron" unicode="&#xaf;" horiz-adv-x="569" 
d="M12 1448h545q46 0 74 -25t28 -67t-28 -67t-74 -25h-545q-46 0 -74 25t-28 67t28 67t74 25z" />
    <glyph glyph-name="degree" unicode="&#xb0;" horiz-adv-x="819" 
d="M264 1163q0 -58 43.5 -101.5t102.5 -43.5q58 0 101.5 43t43.5 102t-43.5 102.5t-101.5 43.5t-102 -43.5t-44 -102.5zM117 1163q0 123 85 208t208 85t207.5 -85t84.5 -208t-84.5 -208t-207.5 -85t-208 85t-85 208z" />
    <glyph glyph-name="plusminus" unicode="&#xb1;" horiz-adv-x="1228" 
d="M492 868v148q0 64 33 103.5t89 39.5t89.5 -39.5t33.5 -103.5v-148h314q65 0 104 -34t39 -89q0 -48 -40.5 -85t-102.5 -37h-314v-148q0 -64 -33.5 -103.5t-89.5 -39.5t-89 39.5t-33 103.5v148h-314q-62 0 -102.5 37t-40.5 85q0 55 39 89t104 34h314zM178 246h873
q65 0 104 -34t39 -89q0 -48 -40.5 -85.5t-102.5 -37.5h-873q-62 0 -102.5 37.5t-40.5 85.5q0 55 39 89t104 34z" />
    <glyph glyph-name="twosuperior" unicode="&#xb2;" horiz-adv-x="788" 
d="M289 764h360q47 0 73 -23.5t26 -68.5q0 -50 -25 -71t-74 -21h-499q-54 0 -81.5 29.5t-27.5 74.5q0 132 238 270q20 12 51.5 30t45.5 26.5t37 22.5t32 20.5t24.5 18.5t21 19.5t14 19t11 22t4.5 23.5t2 28q0 45 -38.5 72.5t-94.5 27.5q-121 0 -160 -106q-13 -38 -30 -54
t-54 -16q-98 0 -98 84q0 112 103.5 188t252.5 76q156 0 248 -68.5t92 -175.5q0 -116 -46.5 -179t-159.5 -122q-19 -10 -47 -24.5t-43 -22t-36.5 -19t-33 -18t-26.5 -15t-23.5 -14t-17 -12t-13.5 -12t-8 -10.5z" />
    <glyph glyph-name="threesuperior" unicode="&#xb3;" horiz-adv-x="788" 
d="M31 778q0 39 27.5 62.5t72.5 23.5q32 0 51.5 -13t30.5 -32t24.5 -37.5t44.5 -31.5t80 -13q71 0 109.5 31.5t38.5 77.5q0 44 -25 70.5t-90 33.5q-17 2 -26.5 3t-27.5 6.5t-28.5 12t-19 20t-8.5 30.5q0 51 26.5 68t89.5 20q43 3 65.5 27t22.5 63q0 40 -34 62t-86 22
q-43 0 -72 -12t-43.5 -29.5t-27.5 -34.5t-32.5 -29t-48.5 -12q-94 0 -94 74q0 53 32 96t82 68t105.5 38t108.5 13q87 0 153.5 -20.5t104 -55t56 -75.5t18.5 -88q0 -116 -127 -170v-5q147 -33 147 -188q0 -140 -102.5 -214.5t-263.5 -74.5q-90 0 -159 23t-105 58t-53 68.5
t-17 63.5z" />
    <glyph glyph-name="acute" unicode="&#xb4;" horiz-adv-x="569" 
d="M170 1372l152 117q27 22 44 34t43.5 24t49.5 12q55 0 82.5 -37t27.5 -76q0 -60 -75 -111l-185 -125q-52 -36 -94 -36q-40 0 -72 26t-32 74q0 28 12.5 49t46.5 49z" />
    <glyph glyph-name="mu" unicode="&#xb5;" 
d="M1133 948v-825q0 -70 -34 -110t-102 -40t-101.5 40t-33.5 110v39h-4q-64 -85 -151 -137t-170 -52q-40 0 -73.5 8.5t-45.5 18.5v-274q0 -72 -40.5 -111t-109.5 -39t-109 39t-40 111v1222q0 150 149 150q150 0 150 -150v-522q0 -95 47.5 -151t140.5 -56q85 0 156.5 65
t71.5 171v493q0 150 149 150q150 0 150 -150z" />
    <glyph glyph-name="paragraph" unicode="&#xb6;" horiz-adv-x="1269" 
d="M477 -229v989q-221 0 -339 92t-118 258q0 86 25.5 151t69 105t109.5 65t137.5 34.5t162.5 9.5h520q57 0 90 -33.5t33 -89.5v-1581q0 -56 -33 -89.5t-90 -33.5t-89.5 33.5t-32.5 89.5v1519h-199v-1519q0 -56 -33 -89.5t-90 -33.5t-90 33.5t-33 89.5z" />
    <glyph glyph-name="periodcentered" unicode="&#xb7;" horiz-adv-x="626" 
d="M133 594q0 75 52.5 127.5t127.5 52.5t128 -52.5t53 -127.5t-53 -127.5t-128 -52.5t-127.5 52.5t-52.5 127.5z" />
    <glyph glyph-name="cedilla" unicode="&#xb8;" horiz-adv-x="569" 
d="M156 -121l80 121h114l-76 -113h15q87 0 139.5 -35t52.5 -108q0 -83 -73 -132.5t-175 -49.5q-85 0 -127.5 25t-42.5 59q0 21 14.5 37t35.5 16q9 0 49 -11.5t63 -11.5q33 0 52.5 18t19.5 48q0 53 -51 53q-16 0 -38 -3t-28 -3q-47 0 -47 41q0 12 23 49z" />
    <glyph glyph-name="onesuperior" unicode="&#xb9;" horiz-adv-x="542" 
d="M209 682v436h-162q-33 0 -52.5 19.5t-19.5 56.5q0 41 20.5 55.5t76.5 24.5l49 8q39 7 65.5 27.5t40 44.5t26 47.5t33.5 39t54 15.5q44 0 67 -18.5t23 -65.5v-690q0 -53 -25.5 -81t-85.5 -28q-110 0 -110 109z" />
    <glyph glyph-name="ordmasculine" unicode="&#xba;" horiz-adv-x="815" 
d="M256 1118q0 -87 37.5 -145t114.5 -58t114 58t37 145q0 92 -37.5 147.5t-113.5 55.5t-114 -56t-38 -147zM47 1118q0 148 95.5 243t265.5 95q169 0 264.5 -95t95.5 -243q0 -70 -19.5 -128.5t-60.5 -106.5t-112.5 -75.5t-167.5 -27.5t-167.5 27.5t-112.5 75.5t-61 106.5
t-20 128.5z" />
    <glyph glyph-name="guillemotright" unicode="&#xbb;" horiz-adv-x="1214" 
d="M688 451l168 114l-168 115q-65 44 -65 106q0 42 28 74.5t68 32.5q33 0 80 -33l200 -145q70 -49 70 -150q0 -100 -70 -149l-200 -146q-46 -32 -80 -32q-40 0 -68 32t-28 74q0 63 65 107zM211 451l168 114l-168 115q-66 45 -66 106q0 42 28.5 74.5t68.5 32.5q33 0 80 -33
l200 -145q70 -49 70 -150q0 -100 -70 -149l-200 -146q-46 -32 -80 -32q-40 0 -68.5 32t-28.5 74q0 62 66 107z" />
    <glyph glyph-name="onequarter" unicode="&#xbc;" horiz-adv-x="1875" 
d="M1479 346v297h-4l-234 -297h238zM1479 78v108h-330q-49 0 -75.5 27.5t-26.5 60.5q0 51 20 74l385 469q24 29 50.5 43t72.5 14q50 0 81.5 -26t31.5 -68v-434h49q33 0 53 -22t20 -58t-20 -58t-53 -22h-49v-108q0 -86 -105 -86q-104 0 -104 86zM377 59l737 1393q30 57 80 57
q33 0 56.5 -21t23.5 -48q0 -26 -23 -70l-737 -1393q-30 -57 -80 -57q-33 0 -56.5 21.5t-23.5 48.5q0 25 23 69zM209 682v436h-162q-33 0 -52.5 19.5t-19.5 56.5q0 41 20.5 55.5t76.5 24.5l49 8q39 7 65.5 27.5t40 44.5t26 47.5t33.5 39t54 15.5q44 0 67 -18.5t23 -65.5v-690
q0 -53 -25.5 -81t-85.5 -28q-110 0 -110 109z" />
    <glyph glyph-name="onehalf" unicode="&#xbd;" horiz-adv-x="1875" 
d="M377 59l737 1393q30 57 80 57q33 0 56.5 -21t23.5 -48q0 -26 -23 -70l-737 -1393q-30 -57 -80 -57q-33 0 -56.5 21.5t-23.5 48.5q0 25 23 69zM1352 184h360q46 0 72 -23.5t26 -68.5q0 -50 -25 -71t-73 -21h-500q-54 0 -81 29.5t-27 74.5q0 134 237 271q22 13 57 33
t49.5 28.5t39 23.5t33.5 22.5t24 20.5t19.5 22t11.5 22t8.5 26.5t1.5 30.5q0 45 -39 73t-94 28q-121 0 -160 -107q-13 -38 -30 -54t-54 -16q-98 0 -98 84q0 112 103.5 188.5t252.5 76.5q156 0 248 -68.5t92 -175.5q0 -116 -47 -179t-160 -122q-186 -96 -218 -120
q-22 -16 -29 -28zM209 682v436h-162q-33 0 -52.5 19.5t-19.5 56.5q0 41 20.5 55.5t76.5 24.5l49 8q39 7 65.5 27.5t40 44.5t26 47.5t33.5 39t54 15.5q44 0 67 -18.5t23 -65.5v-690q0 -53 -25.5 -81t-85.5 -28q-110 0 -110 109z" />
    <glyph glyph-name="threequarters" unicode="&#xbe;" horiz-adv-x="1875" 
d="M1479 346v297h-4l-234 -297h238zM1479 78v108h-330q-49 0 -75.5 27.5t-26.5 60.5q0 51 20 74l385 469q24 29 50.5 43t72.5 14q50 0 81.5 -26t31.5 -68v-434h49q33 0 53 -22t20 -58t-20 -58t-53 -22h-49v-108q0 -86 -105 -86q-104 0 -104 86zM522 59l738 1393q30 57 79 57
q33 0 56.5 -21t23.5 -48q0 -28 -22 -70l-738 -1393q-30 -57 -79 -57q-33 0 -56.5 21.5t-23.5 48.5t22 69zM31 778q0 39 27.5 62.5t72.5 23.5q32 0 51.5 -13t30.5 -32t24.5 -37.5t44.5 -31.5t80 -13q71 0 109.5 31.5t38.5 77.5q0 44 -25 70.5t-90 33.5q-17 2 -26.5 3
t-27.5 6.5t-28.5 12t-19 20t-8.5 30.5q0 51 26.5 68t89.5 20q43 3 65.5 27t22.5 63q0 40 -34 62t-86 22q-43 0 -72 -12t-43.5 -29.5t-27.5 -34.5t-32.5 -29t-48.5 -12q-94 0 -94 74q0 53 32 96t82 68t105.5 38t108.5 13q87 0 153.5 -20.5t104 -55t56 -75.5t18.5 -88
q0 -116 -127 -170v-5q147 -33 147 -188q0 -140 -102.5 -214.5t-263.5 -74.5q-90 0 -159 23t-105 58t-53 68.5t-17 63.5z" />
    <glyph glyph-name="questiondown" unicode="&#xbf;" horiz-adv-x="1175" 
d="M1087 -45q0 -98 -67 -186t-178 -140.5t-234 -52.5q-102 0 -192.5 24t-165 72t-118.5 129t-44 185q0 63 23 120t58 97.5t79.5 79t84.5 64.5t76 54.5t50 49.5q12 18 23 45t19 47t22 39.5t40 30t64 10.5q62 0 96.5 -41.5t34.5 -96.5q0 -57 -26.5 -107.5t-66.5 -85.5
t-86.5 -72.5t-86.5 -69t-66.5 -74.5t-26.5 -90q0 -83 52.5 -129.5t144.5 -46.5q53 0 91.5 15t59.5 38.5t36.5 52.5t28.5 58t29 52.5t44.5 38.5t68.5 15q57 0 95 -33t38 -92zM786 924q0 -69 -49.5 -118.5t-118.5 -49.5t-118 49.5t-49 118.5t49 118.5t118 49.5t118.5 -49.5
t49.5 -118.5z" />
    <glyph glyph-name="Agrave" unicode="&#xc0;" horiz-adv-x="1366" 
d="M51 250l434 1149q21 55 60.5 78.5t103.5 23.5h80q65 0 109.5 -25.5t70.5 -97.5l406 -1128q33 -91 33 -129q0 -61 -46.5 -104.5t-111.5 -43.5q-117 0 -152 93l-86 245h-540l-88 -245q-32 -93 -150 -93q-70 0 -113 40.5t-43 107.5q0 38 33 129zM879 545l-191 592h-4
l-199 -592h394zM647 1862l152 -117q34 -28 46.5 -49t12.5 -49q0 -49 -32 -75t-72 -26q-41 0 -95 37l-184 125q-76 51 -76 111q0 39 28 75.5t83 36.5q51 0 137 -69z" />
    <glyph glyph-name="Aacute" unicode="&#xc1;" horiz-adv-x="1366" 
d="M51 250l434 1149q21 55 60.5 78.5t103.5 23.5h80q65 0 109.5 -25.5t70.5 -97.5l406 -1128q33 -91 33 -129q0 -61 -46.5 -104.5t-111.5 -43.5q-117 0 -152 93l-86 245h-540l-88 -245q-32 -93 -150 -93q-70 0 -113 40.5t-43 107.5q0 38 33 129zM879 545l-191 592h-4
l-199 -592h394zM569 1745l152 117q86 69 137 69q55 0 83 -36.5t28 -75.5q0 -60 -76 -111l-184 -125q-54 -37 -95 -37q-40 0 -72 26t-32 75q0 28 12.5 49t46.5 49z" />
    <glyph glyph-name="Acircumflex" unicode="&#xc2;" horiz-adv-x="1366" 
d="M51 250l434 1149q21 55 60.5 78.5t103.5 23.5h80q65 0 109.5 -25.5t70.5 -97.5l406 -1128q33 -91 33 -129q0 -61 -46.5 -104.5t-111.5 -43.5q-117 0 -152 93l-86 245h-540l-88 -245q-32 -93 -150 -93q-70 0 -113 40.5t-43 107.5q0 38 33 129zM879 545l-191 592h-4
l-199 -592h394zM684 1737l-131 -131q-34 -35 -56 -47.5t-53 -12.5q-32 0 -62 30.5t-30 76.5q0 14 13.5 35t42 50.5t46 46.5t50.5 48q55 51 91 66.5t89 15.5t89 -15.5t91 -66.5q33 -31 50.5 -48t46 -46.5t42 -50.5t13.5 -35q0 -46 -30 -76.5t-62 -30.5q-31 0 -53 12.5
t-56 47.5z" />
    <glyph glyph-name="Atilde" unicode="&#xc3;" horiz-adv-x="1366" 
d="M51 250l434 1149q21 55 60.5 78.5t103.5 23.5h80q65 0 109.5 -25.5t70.5 -97.5l406 -1128q33 -91 33 -129q0 -61 -46.5 -104.5t-111.5 -43.5q-117 0 -152 93l-86 245h-540l-88 -245q-32 -93 -150 -93q-70 0 -113 40.5t-43 107.5q0 38 33 129zM879 545l-191 592h-4
l-199 -592h394zM319 1702q0 70 61.5 122t131.5 52q49 0 147 -35q92 -37 125 -37q9 0 17 1.5t17 6.5t13 7.5t15.5 11t13.5 10.5q50 35 86 35q103 0 103 -92q0 -70 -73 -130.5t-145 -60.5q-54 0 -144 37t-107 37q-35 0 -84.5 -37t-77.5 -37q-38 0 -68.5 27t-30.5 82z" />
    <glyph glyph-name="Adieresis" unicode="&#xc4;" horiz-adv-x="1366" 
d="M51 250l434 1149q21 55 60.5 78.5t103.5 23.5h80q65 0 109.5 -25.5t70.5 -97.5l406 -1128q33 -91 33 -129q0 -61 -46.5 -104.5t-111.5 -43.5q-117 0 -152 93l-86 245h-540l-88 -245q-32 -93 -150 -93q-70 0 -113 40.5t-43 107.5q0 38 33 129zM879 545l-191 592h-4
l-199 -592h394zM326 1729q0 61 44 105t105 44q62 0 106 -44t44 -105t-44.5 -105.5t-105.5 -44.5t-105 44t-44 106zM743 1729q0 61 44 105t106 44q61 0 105 -44t44 -105q0 -62 -44 -106t-105 -44t-105.5 44.5t-44.5 105.5z" />
    <glyph glyph-name="Aring" unicode="&#xc5;" horiz-adv-x="1366" 
d="M51 250l434 1149q21 55 60.5 78.5t103.5 23.5h80q65 0 109.5 -25.5t70.5 -97.5l406 -1128q33 -91 33 -129q0 -61 -46.5 -104.5t-111.5 -43.5q-117 0 -152 93l-86 245h-540l-88 -245q-32 -93 -150 -93q-70 0 -113 40.5t-43 107.5q0 38 33 129zM879 545l-191 592h-4
l-199 -592h394zM463 1751q0 92 64.5 156.5t156.5 64.5t156.5 -64.5t64.5 -156.5t-64.5 -156.5t-156.5 -64.5t-156.5 64.5t-64.5 156.5zM578 1751q0 -44 31 -75t75 -31t75.5 31t31.5 75t-31.5 75.5t-75.5 31.5t-75 -31.5t-31 -75.5z" />
    <glyph glyph-name="AE" unicode="&#xc6;" horiz-adv-x="1972" 
d="M852 197v131h-457l-84 -248q-36 -107 -155 -107q-59 0 -105.5 36t-46.5 100q0 49 25 118l397 1123q25 69 60.5 97t101.5 28h1130q81 0 125.5 -30.5t44.5 -105.5t-44.5 -105t-125.5 -30h-530v-319h483q74 0 116 -28.5t42 -100.5t-42 -100.5t-116 -28.5h-483v-357h547
q81 0 125.5 -30t44.5 -105t-44.5 -105t-125.5 -30h-686q-96 0 -146.5 45t-50.5 152zM852 561v656h-158l-223 -656h381z" />
    <glyph glyph-name="Ccedilla" unicode="&#xc7;" horiz-adv-x="1478" 
d="M676 -121l61 92q-301 28 -464.5 223t-163.5 543q0 158 46.5 296.5t134.5 245t227 168.5t312 62q110 0 209 -26.5t168 -68t119.5 -93t75 -102.5t24.5 -95q0 -72 -38.5 -111.5t-112.5 -39.5q-39 0 -69.5 14.5t-51 38t-39.5 52t-42.5 57t-53.5 52t-78.5 38t-110.5 14.5
q-164 0 -274.5 -135t-110.5 -367q0 -105 22 -192.5t67.5 -158t124.5 -110.5t184 -40q62 0 111.5 21t79 52t58 68t49.5 68t52.5 52t69.5 21q65 0 114 -35t49 -94q0 -105 -75.5 -201.5t-210 -158.5t-291.5 -64l-53 -78h14q87 0 139.5 -35t52.5 -108q0 -83 -72.5 -132.5
t-174.5 -49.5q-85 0 -127.5 25t-42.5 59q0 21 14 37t35 16q9 0 49 -11.5t63 -11.5q33 0 52.5 18t19.5 48q0 53 -51 53q-16 0 -38 -3t-28 -3q-47 0 -47 41q0 12 23 49z" />
    <glyph glyph-name="Egrave" unicode="&#xc8;" horiz-adv-x="1402" 
d="M164 197v1081q0 107 50.5 152t145.5 45h789q81 0 125.5 -30.5t44.5 -105.5t-44.5 -105t-125.5 -30h-649v-319h569q74 0 116 -28.5t42 -100.5t-42 -100.5t-116 -28.5h-569v-357h665q81 0 125.5 -30t44.5 -105t-44.5 -105t-125.5 -30h-805q-95 0 -145.5 45t-50.5 152z
M707 1862l151 -117q34 -28 47 -49t13 -49q0 -49 -32.5 -75t-72.5 -26t-94 37l-184 125q-76 51 -76 111q0 39 27.5 75.5t82.5 36.5q52 0 138 -69z" />
    <glyph glyph-name="Eacute" unicode="&#xc9;" horiz-adv-x="1402" 
d="M164 197v1081q0 107 50.5 152t145.5 45h789q81 0 125.5 -30.5t44.5 -105.5t-44.5 -105t-125.5 -30h-649v-319h569q74 0 116 -28.5t42 -100.5t-42 -100.5t-116 -28.5h-569v-357h665q81 0 125.5 -30t44.5 -105t-44.5 -105t-125.5 -30h-805q-95 0 -145.5 45t-50.5 152z
M629 1745l151 117q86 69 138 69q55 0 82.5 -36.5t27.5 -75.5q0 -60 -76 -111l-184 -125q-54 -37 -94 -37t-72.5 26t-32.5 75q0 28 13 49t47 49z" />
    <glyph glyph-name="Ecircumflex" unicode="&#xca;" horiz-adv-x="1402" 
d="M164 197v1081q0 107 50.5 152t145.5 45h789q81 0 125.5 -30.5t44.5 -105.5t-44.5 -105t-125.5 -30h-649v-319h569q74 0 116 -28.5t42 -100.5t-42 -100.5t-116 -28.5h-569v-357h665q81 0 125.5 -30t44.5 -105t-44.5 -105t-125.5 -30h-805q-95 0 -145.5 45t-50.5 152z
M743 1737l-131 -131q-34 -36 -56 -48t-52 -12q-32 0 -62 30.5t-30 76.5q0 39 151 180q55 51 91 66.5t89 15.5t89.5 -15.5t91.5 -66.5q151 -141 151 -180q0 -46 -30 -76.5t-62 -30.5q-31 0 -53 12.5t-56 47.5z" />
    <glyph glyph-name="Edieresis" unicode="&#xcb;" horiz-adv-x="1402" 
d="M164 197v1081q0 107 50.5 152t145.5 45h789q81 0 125.5 -30.5t44.5 -105.5t-44.5 -105t-125.5 -30h-649v-319h569q74 0 116 -28.5t42 -100.5t-42 -100.5t-116 -28.5h-569v-357h665q81 0 125.5 -30t44.5 -105t-44.5 -105t-125.5 -30h-805q-95 0 -145.5 45t-50.5 152z
M385 1729q0 61 44 105t106 44q61 0 105 -44t44 -105q0 -62 -44 -106t-105 -44t-105.5 44.5t-44.5 105.5zM803 1729q0 61 43.5 105t105.5 44t106 -44t44 -105t-44 -105.5t-106 -44.5q-61 0 -105 44t-44 106z" />
    <glyph glyph-name="Igrave" unicode="&#xcc;" horiz-adv-x="647" 
d="M156 141v1192q0 75 46 121.5t122 46.5t122 -46.5t46 -121.5v-1192q0 -75 -46 -121.5t-122 -46.5t-122 46.5t-46 121.5zM287 1862l151 -117q34 -28 47 -49t13 -49q0 -49 -32.5 -75t-72.5 -26t-94 37l-184 125q-76 51 -76 111q0 39 28 75.5t83 36.5q51 0 137 -69z" />
    <glyph glyph-name="Iacute" unicode="&#xcd;" horiz-adv-x="647" 
d="M156 141v1192q0 75 46 121.5t122 46.5t122 -46.5t46 -121.5v-1192q0 -75 -46 -121.5t-122 -46.5t-122 46.5t-46 121.5zM209 1745l151 117q86 69 138 69q55 0 82.5 -36.5t27.5 -75.5q0 -60 -76 -111l-184 -125q-54 -37 -94 -37t-72 26t-32 75q0 28 12.5 49t46.5 49z" />
    <glyph glyph-name="Icircumflex" unicode="&#xce;" horiz-adv-x="647" 
d="M156 141v1192q0 75 46 121.5t122 46.5t122 -46.5t46 -121.5v-1192q0 -75 -46 -121.5t-122 -46.5t-122 46.5t-46 121.5zM324 1737l-131 -131q-34 -35 -56 -47.5t-53 -12.5q-32 0 -62 30.5t-30 76.5q0 39 151 180q55 51 91.5 66.5t89.5 15.5t89 -15.5t91 -66.5
q151 -141 151 -180q0 -46 -30 -76.5t-62 -30.5q-30 0 -52 12t-56 48z" />
    <glyph glyph-name="Idieresis" unicode="&#xcf;" horiz-adv-x="647" 
d="M156 141v1192q0 75 46 121.5t122 46.5t122 -46.5t46 -121.5v-1192q0 -75 -46 -121.5t-122 -46.5t-122 46.5t-46 121.5zM-35 1729q0 61 44 105t106 44q61 0 105 -44t44 -105q0 -62 -44 -106t-105 -44t-105.5 44.5t-44.5 105.5zM383 1729q0 61 43.5 105t105.5 44t106 -44
t44 -105t-44 -105.5t-106 -44.5q-61 0 -105 44t-44 106z" />
    <glyph glyph-name="Eth" unicode="&#xd0;" horiz-adv-x="1554" 
d="M492 1204v-360h268q96 0 96 -92q0 -45 -25 -69t-71 -24h-268v-389h282q78 0 139.5 27t101 71.5t65.5 106t37 126.5t11 136q0 224 -88 345.5t-268 121.5h-280zM156 197v462h-72q-46 0 -71 24t-25 69q0 92 96 92h72v434q0 107 50.5 152t145.5 45h410q116 0 214.5 -20.5
t190.5 -73t156 -134.5t102.5 -212t38.5 -298q0 -350 -185.5 -543.5t-522.5 -193.5h-404q-95 0 -145.5 45t-50.5 152z" />
    <glyph glyph-name="Ntilde" unicode="&#xd1;" horiz-adv-x="1593" 
d="M150 135v1170q0 103 51 149.5t159 46.5q115 0 168 -88l588 -948h4v874q0 80 42.5 121t119.5 41t119.5 -41t42.5 -121v-1157q0 -209 -199 -209q-77 0 -114 18.5t-70 71.5l-584 922h-4v-850q0 -80 -42.5 -121t-119.5 -41t-119 41t-42 121zM432 1702q0 70 61.5 122t131.5 52
q49 0 147 -35q93 -37 125 -37q9 0 17 1.5t17 6.5t13 7.5t15.5 11t13.5 10.5q50 35 86 35q102 0 102 -92q0 -70 -72.5 -130.5t-144.5 -60.5q-54 0 -144.5 37t-107.5 37q-35 0 -84.5 -37t-77.5 -37q-38 0 -68 27t-30 82z" />
    <glyph glyph-name="Ograve" unicode="&#xd2;" horiz-adv-x="1671" 
d="M90 756q0 218 84.5 386.5t255 267.5t406.5 99q177 0 319.5 -57t235 -158t141.5 -238t49 -300q0 -126 -28.5 -242t-89 -216.5t-147 -174t-210 -116t-270.5 -42.5q-155 0 -280 39.5t-211 110t-144 170.5t-84.5 217.5t-26.5 253.5zM426 756q0 -112 20.5 -201.5t66 -163.5
t127.5 -114.5t196 -40.5q89 0 159.5 27t116.5 74t76.5 114t43.5 142t13 163q0 220 -105 351.5t-304 131.5q-134 0 -227.5 -62.5t-138 -169.5t-44.5 -251zM799 1862l151 -117q34 -28 47 -49t13 -49q0 -49 -32.5 -75t-72.5 -26t-94 37l-184 125q-76 51 -76 111q0 39 28 75.5
t83 36.5q51 0 137 -69z" />
    <glyph glyph-name="Oacute" unicode="&#xd3;" horiz-adv-x="1671" 
d="M90 756q0 218 84.5 386.5t255 267.5t406.5 99q177 0 319.5 -57t235 -158t141.5 -238t49 -300q0 -126 -28.5 -242t-89 -216.5t-147 -174t-210 -116t-270.5 -42.5q-155 0 -280 39.5t-211 110t-144 170.5t-84.5 217.5t-26.5 253.5zM426 756q0 -112 20.5 -201.5t66 -163.5
t127.5 -114.5t196 -40.5q89 0 159.5 27t116.5 74t76.5 114t43.5 142t13 163q0 220 -105 351.5t-304 131.5q-134 0 -227.5 -62.5t-138 -169.5t-44.5 -251zM721 1745l151 117q86 69 138 69q55 0 82.5 -36.5t27.5 -75.5q0 -60 -76 -111l-184 -125q-54 -37 -94 -37t-72 26
t-32 75q0 28 12.5 49t46.5 49z" />
    <glyph glyph-name="Ocircumflex" unicode="&#xd4;" horiz-adv-x="1671" 
d="M90 756q0 218 84.5 386.5t255 267.5t406.5 99q177 0 319.5 -57t235 -158t141.5 -238t49 -300q0 -126 -28.5 -242t-89 -216.5t-147 -174t-210 -116t-270.5 -42.5q-155 0 -280 39.5t-211 110t-144 170.5t-84.5 217.5t-26.5 253.5zM426 756q0 -112 20.5 -201.5t66 -163.5
t127.5 -114.5t196 -40.5q89 0 159.5 27t116.5 74t76.5 114t43.5 142t13 163q0 220 -105 351.5t-304 131.5q-134 0 -227.5 -62.5t-138 -169.5t-44.5 -251zM836 1737l-131 -131q-34 -35 -56 -47.5t-53 -12.5q-32 0 -62 30.5t-30 76.5q0 39 151 180q55 51 91.5 66.5t89.5 15.5
t89 -15.5t91 -66.5q151 -141 151 -180q0 -46 -30 -76.5t-62 -30.5q-30 0 -52 12t-56 48z" />
    <glyph glyph-name="Otilde" unicode="&#xd5;" horiz-adv-x="1671" 
d="M90 756q0 218 84.5 386.5t255 267.5t406.5 99q177 0 319.5 -57t235 -158t141.5 -238t49 -300q0 -126 -28.5 -242t-89 -216.5t-147 -174t-210 -116t-270.5 -42.5q-155 0 -280 39.5t-211 110t-144 170.5t-84.5 217.5t-26.5 253.5zM426 756q0 -112 20.5 -201.5t66 -163.5
t127.5 -114.5t196 -40.5q89 0 159.5 27t116.5 74t76.5 114t43.5 142t13 163q0 220 -105 351.5t-304 131.5q-134 0 -227.5 -62.5t-138 -169.5t-44.5 -251zM471 1702q0 70 61.5 122t131.5 52q49 0 147 -35q93 -37 125 -37q9 0 17 1.5t17 6.5t13 7.5t15.5 11t13.5 10.5
q50 35 86 35q102 0 102 -92q0 -70 -72.5 -130.5t-144.5 -60.5q-54 0 -144.5 37t-107.5 37q-35 0 -84.5 -37t-77.5 -37q-38 0 -68 27t-30 82z" />
    <glyph glyph-name="Odieresis" unicode="&#xd6;" horiz-adv-x="1671" 
d="M90 756q0 218 84.5 386.5t255 267.5t406.5 99q177 0 319.5 -57t235 -158t141.5 -238t49 -300q0 -126 -28.5 -242t-89 -216.5t-147 -174t-210 -116t-270.5 -42.5q-155 0 -280 39.5t-211 110t-144 170.5t-84.5 217.5t-26.5 253.5zM426 756q0 -112 20.5 -201.5t66 -163.5
t127.5 -114.5t196 -40.5q89 0 159.5 27t116.5 74t76.5 114t43.5 142t13 163q0 220 -105 351.5t-304 131.5q-134 0 -227.5 -62.5t-138 -169.5t-44.5 -251zM477 1729q0 61 44 105t106 44q61 0 105 -44t44 -105q0 -62 -44 -106t-105 -44t-105.5 44.5t-44.5 105.5zM895 1729
q0 61 43.5 105t105.5 44t106 -44t44 -105t-44 -105.5t-106 -44.5q-61 0 -105 44t-44 106z" />
    <glyph glyph-name="multiply" unicode="&#xd7;" horiz-adv-x="1228" 
d="M788 580l281 -283q39 -39 39 -82q0 -57 -38 -93t-95 -36q-39 0 -78 39l-283 281l-282 -281q-39 -39 -78 -39q-57 0 -95 36t-38 93q0 43 39 82l280 283l-280 282q-39 39 -39 82q0 57 38 93t95 36q39 0 78 -39l282 -280l283 280q39 39 78 39q57 0 95 -36t38 -93
q0 -43 -39 -82z" />
    <glyph glyph-name="Oslash" unicode="&#xd8;" horiz-adv-x="1671" 
d="M469 477l616 682q-96 80 -249 80q-134 0 -227.5 -62.5t-138 -169.5t-44.5 -251q0 -165 43 -279zM1198 1004l-618 -689q98 -79 256 -79q89 0 159.5 27t116.5 74t76.5 114t43.5 142t13 163q0 143 -47 248zM160 135l82 90q-152 200 -152 531q0 218 84.5 386.5t255 267.5
t406.5 99q266 0 450 -127l88 99q56 65 107 65q38 0 65 -20.5t27 -67.5q0 -18 -10 -38t-18 -30t-29 -34l-93 -103q158 -196 158 -497q0 -126 -28.5 -242t-89 -216.5t-147 -174t-210 -116t-270.5 -42.5q-282 0 -457 127l-107 -119q-41 -45 -88 -45q-41 0 -64.5 30.5
t-23.5 61.5q0 21 11.5 44t20.5 34t32 37z" />
    <glyph glyph-name="Ugrave" unicode="&#xd9;" horiz-adv-x="1593" 
d="M156 553v780q0 75 46 121.5t122 46.5t122 -46.5t46 -121.5v-807q0 -290 305 -290t305 290v807q0 75 46 121.5t122 46.5t122 -46.5t46 -121.5v-780q0 -296 -169 -442t-472 -146t-472 146t-169 442zM760 1862l151 -117q34 -28 47 -49t13 -49q0 -49 -32.5 -75t-72.5 -26
t-94 37l-184 125q-76 51 -76 111q0 39 28 75.5t83 36.5q51 0 137 -69z" />
    <glyph glyph-name="Uacute" unicode="&#xda;" horiz-adv-x="1593" 
d="M156 553v780q0 75 46 121.5t122 46.5t122 -46.5t46 -121.5v-807q0 -290 305 -290t305 290v807q0 75 46 121.5t122 46.5t122 -46.5t46 -121.5v-780q0 -296 -169 -442t-472 -146t-472 146t-169 442zM682 1745l152 117q86 69 137 69q55 0 82.5 -36.5t27.5 -75.5
q0 -60 -75 -111l-185 -125q-54 -37 -94 -37t-72 26t-32 75q0 28 12.5 49t46.5 49z" />
    <glyph glyph-name="Ucircumflex" unicode="&#xdb;" horiz-adv-x="1593" 
d="M156 553v780q0 75 46 121.5t122 46.5t122 -46.5t46 -121.5v-807q0 -290 305 -290t305 290v807q0 75 46 121.5t122 46.5t122 -46.5t46 -121.5v-780q0 -296 -169 -442t-472 -146t-472 146t-169 442zM797 1737l-131 -131q-34 -35 -56 -47.5t-53 -12.5q-32 0 -62 30.5
t-30 76.5q0 39 151 180q55 51 91.5 66.5t89.5 15.5t89 -15.5t91 -66.5q151 -141 151 -180q0 -46 -30 -76.5t-62 -30.5q-30 0 -52 12t-56 48z" />
    <glyph glyph-name="Udieresis" unicode="&#xdc;" horiz-adv-x="1593" 
d="M156 553v780q0 75 46 121.5t122 46.5t122 -46.5t46 -121.5v-807q0 -290 305 -290t305 290v807q0 75 46 121.5t122 46.5t122 -46.5t46 -121.5v-780q0 -296 -169 -442t-472 -146t-472 146t-169 442zM438 1729q0 61 44 105t106 44t105.5 -44t43.5 -105q0 -62 -44 -106
t-105 -44q-62 0 -106 44.5t-44 105.5zM856 1729q0 61 44 105t106 44t105.5 -44t43.5 -105q0 -62 -44 -106t-105 -44q-62 0 -106 44.5t-44 105.5z" />
    <glyph glyph-name="Yacute" unicode="&#xdd;" horiz-adv-x="1253" 
d="M459 141v434l-412 685q-29 49 -29 88q0 41 17 72t43.5 48t54.5 25t55 8q58 0 91 -23t61 -75l293 -539l291 539q29 55 60.5 76.5t84.5 21.5q35 0 70.5 -13t65.5 -50t30 -90q0 -39 -29 -88l-411 -685v-434q0 -75 -46 -121.5t-122 -46.5t-122 46.5t-46 121.5zM512 1745
l152 117q86 69 137 69q55 0 82.5 -36.5t27.5 -75.5q0 -60 -75 -111l-185 -125q-54 -37 -94 -37t-72 26t-32 75q0 28 12.5 49t46.5 49z" />
    <glyph glyph-name="Thorn" unicode="&#xde;" horiz-adv-x="1441" 
d="M156 141v1192q0 75 46 121.5t122 46.5t122 -46.5t46 -121.5v-100h374q109 0 199.5 -27.5t161 -82.5t110 -146t39.5 -211q0 -206 -136.5 -336.5t-375.5 -130.5h-372v-158q0 -75 -46 -121.5t-122 -46.5t-122 46.5t-46 121.5zM492 975v-418h313q103 0 169 57.5t66 151.5
q0 209 -270 209h-278z" />
    <glyph glyph-name="germandbls" unicode="&#xdf;" 
d="M119 123v917q0 226 129.5 346.5t374.5 120.5q86 0 167.5 -24t150 -70t110 -122t41.5 -171q0 -99 -45 -167t-136 -122q127 -35 192.5 -135.5t65.5 -238.5q0 -211 -129 -347.5t-333 -136.5q-69 0 -116.5 31t-47.5 90q0 37 10.5 60.5t35 36t45 17.5t58.5 10q5 1 8 1
q70 10 114 66t44 170q0 120 -47 173t-164 74q-104 18 -104 103q0 48 23 73.5t69 34.5q37 8 55 13t42 17t34.5 29t18.5 46.5t8 71.5q0 92 -48.5 144t-138.5 52q-43 0 -77 -14t-54.5 -36t-33.5 -53t-18 -62.5t-5 -67.5v-930q0 -72 -40.5 -111t-109.5 -39t-109 39t-40 111z" />
    <glyph glyph-name="agrave" unicode="&#xe0;" 
d="M1112 791v-502q0 -72 15.5 -129.5t15.5 -71.5q0 -50 -40 -82.5t-95 -32.5q-90 0 -132 48.5t-45 125.5q-85 -93 -185 -133.5t-224 -40.5q-134 0 -236 85.5t-102 220.5q0 72 22 128t58.5 92.5t92 62t113.5 39t132 22.5l182 20q64 7 96.5 29.5t32.5 81.5q0 61 -53.5 92
t-134.5 31q-61 0 -108.5 -17t-75.5 -41t-51.5 -48t-51 -41t-59.5 -17q-56 0 -91.5 33.5t-35.5 80.5q0 46 32 93t89.5 87t150.5 65.5t203 25.5q225 0 355 -76t130 -231zM813 387v117q-32 -30 -129 -47l-109 -17q-98 -14 -145 -48t-47 -99q0 -52 45.5 -87.5t120.5 -35.5
q118 0 191 64.5t73 152.5zM590 1489l151 -117q34 -28 47 -49t13 -49q0 -48 -32.5 -74t-72.5 -26q-42 0 -94 36l-184 125q-76 51 -76 111q0 39 28 76t83 37q23 0 49.5 -12t43.5 -24t44 -34z" />
    <glyph glyph-name="aacute" unicode="&#xe1;" 
d="M1112 791v-502q0 -72 15.5 -129.5t15.5 -71.5q0 -50 -40 -82.5t-95 -32.5q-90 0 -132 48.5t-45 125.5q-85 -93 -185 -133.5t-224 -40.5q-134 0 -236 85.5t-102 220.5q0 72 22 128t58.5 92.5t92 62t113.5 39t132 22.5l182 20q64 7 96.5 29.5t32.5 81.5q0 61 -53.5 92
t-134.5 31q-61 0 -108.5 -17t-75.5 -41t-51.5 -48t-51 -41t-59.5 -17q-56 0 -91.5 33.5t-35.5 80.5q0 46 32 93t89.5 87t150.5 65.5t203 25.5q225 0 355 -76t130 -231zM813 387v117q-32 -30 -129 -47l-109 -17q-98 -14 -145 -48t-47 -99q0 -52 45.5 -87.5t120.5 -35.5
q118 0 191 64.5t73 152.5zM512 1372l152 117q27 22 44 34t43.5 24t49.5 12q55 0 82.5 -37t27.5 -76q0 -60 -75 -111l-185 -125q-52 -36 -94 -36q-40 0 -72 26t-32 74q0 28 12.5 49t46.5 49z" />
    <glyph glyph-name="acircumflex" unicode="&#xe2;" 
d="M1112 791v-502q0 -72 15.5 -129.5t15.5 -71.5q0 -50 -40 -82.5t-95 -32.5q-90 0 -132 48.5t-45 125.5q-85 -93 -185 -133.5t-224 -40.5q-134 0 -236 85.5t-102 220.5q0 72 22 128t58.5 92.5t92 62t113.5 39t132 22.5l182 20q64 7 96.5 29.5t32.5 81.5q0 61 -53.5 92
t-134.5 31q-61 0 -108.5 -17t-75.5 -41t-51.5 -48t-51 -41t-59.5 -17q-56 0 -91.5 33.5t-35.5 80.5q0 46 32 93t89.5 87t150.5 65.5t203 25.5q225 0 355 -76t130 -231zM813 387v117q-32 -30 -129 -47l-109 -17q-98 -14 -145 -48t-47 -99q0 -52 45.5 -87.5t120.5 -35.5
q118 0 191 64.5t73 152.5zM627 1364l-131 -131q-34 -35 -56 -47t-53 -12q-33 0 -62.5 30t-29.5 76q0 39 151 180q55 51 91.5 66.5t89.5 15.5t89 -15.5t91 -66.5q151 -141 151 -180q0 -46 -29.5 -76t-62.5 -30q-31 0 -52.5 12t-55.5 47z" />
    <glyph glyph-name="atilde" unicode="&#xe3;" 
d="M1112 791v-502q0 -72 15.5 -129.5t15.5 -71.5q0 -50 -40 -82.5t-95 -32.5q-90 0 -132 48.5t-45 125.5q-85 -93 -185 -133.5t-224 -40.5q-134 0 -236 85.5t-102 220.5q0 72 22 128t58.5 92.5t92 62t113.5 39t132 22.5l182 20q64 7 96.5 29.5t32.5 81.5q0 61 -53.5 92
t-134.5 31q-61 0 -108.5 -17t-75.5 -41t-51.5 -48t-51 -41t-59.5 -17q-56 0 -91.5 33.5t-35.5 80.5q0 46 32 93t89.5 87t150.5 65.5t203 25.5q225 0 355 -76t130 -231zM813 387v117q-32 -30 -129 -47l-109 -17q-98 -14 -145 -48t-47 -99q0 -52 45.5 -87.5t120.5 -35.5
q118 0 191 64.5t73 152.5zM262 1329q0 70 61.5 122t131.5 52q49 0 147 -35q90 -36 125 -36q8 0 15.5 1.5t12 3.5t13 7t11 6.5t12.5 9t12 8.5q50 35 86 35q102 0 102 -92q0 -70 -72.5 -130t-144.5 -60q-54 0 -144.5 36.5t-107.5 36.5q-35 0 -84.5 -36.5t-77.5 -36.5
q-38 0 -68 26.5t-30 81.5z" />
    <glyph glyph-name="adieresis" unicode="&#xe4;" 
d="M1112 791v-502q0 -72 15.5 -129.5t15.5 -71.5q0 -50 -40 -82.5t-95 -32.5q-90 0 -132 48.5t-45 125.5q-85 -93 -185 -133.5t-224 -40.5q-134 0 -236 85.5t-102 220.5q0 72 22 128t58.5 92.5t92 62t113.5 39t132 22.5l182 20q64 7 96.5 29.5t32.5 81.5q0 61 -53.5 92
t-134.5 31q-61 0 -108.5 -17t-75.5 -41t-51.5 -48t-51 -41t-59.5 -17q-56 0 -91.5 33.5t-35.5 80.5q0 46 32 93t89.5 87t150.5 65.5t203 25.5q225 0 355 -76t130 -231zM813 387v117q-32 -30 -129 -47l-109 -17q-98 -14 -145 -48t-47 -99q0 -52 45.5 -87.5t120.5 -35.5
q118 0 191 64.5t73 152.5zM268 1356q0 61 44 105t106 44t105.5 -43.5t43.5 -105.5t-44 -106t-105 -44q-62 0 -106 44t-44 106zM686 1356q0 61 44 105t106 44t105.5 -43.5t43.5 -105.5t-44 -106t-105 -44q-62 0 -106 44t-44 106z" />
    <glyph glyph-name="aring" unicode="&#xe5;" 
d="M1112 791v-502q0 -72 15.5 -129.5t15.5 -71.5q0 -50 -40 -82.5t-95 -32.5q-90 0 -132 48.5t-45 125.5q-85 -93 -185 -133.5t-224 -40.5q-134 0 -236 85.5t-102 220.5q0 72 22 128t58.5 92.5t92 62t113.5 39t132 22.5l182 20q64 7 96.5 29.5t32.5 81.5q0 61 -53.5 92
t-134.5 31q-61 0 -108.5 -17t-75.5 -41t-51.5 -48t-51 -41t-59.5 -17q-56 0 -91.5 33.5t-35.5 80.5q0 46 32 93t89.5 87t150.5 65.5t203 25.5q225 0 355 -76t130 -231zM813 387v117q-32 -30 -129 -47l-109 -17q-98 -14 -145 -48t-47 -99q0 -52 45.5 -87.5t120.5 -35.5
q118 0 191 64.5t73 152.5zM406 1378q0 92 64.5 156.5t156.5 64.5t156.5 -64.5t64.5 -156.5t-64.5 -156.5t-156.5 -64.5t-156.5 64.5t-64.5 156.5zM520 1378q0 -44 31.5 -75t75.5 -31t75 31t31 75t-31 75.5t-75 31.5t-75.5 -31.5t-31.5 -75.5z" />
    <glyph glyph-name="ae" unicode="&#xe6;" horiz-adv-x="1933" 
d="M1729 479h-658q0 -120 76.5 -196t181.5 -76q62 0 109.5 15t75.5 37t51 43.5t50 36.5t60 15q52 0 87.5 -36t35.5 -80q0 -52 -31.5 -96.5t-81.5 -75t-113 -52t-125 -31.5t-118 -10q-137 0 -230.5 43t-178.5 154q-93 -108 -200.5 -152.5t-244.5 -44.5q-170 0 -280.5 83.5
t-110.5 222.5q0 72 22 128t58.5 92.5t92 62t113.5 39t132 22.5l182 20q64 7 96.5 29.5t32.5 81.5q0 61 -53.5 92t-134.5 31q-61 0 -108.5 -17t-75.5 -41t-51.5 -48t-51 -41t-59.5 -17q-56 0 -91.5 33.5t-35.5 80.5q0 46 32 93t89.5 87t150.5 65.5t203 25.5q113 0 202 -28.5
t166 -102.5q56 52 144.5 91.5t203.5 39.5q116 0 215 -42t164 -111t101.5 -156.5t36.5 -180.5q0 -76 -27.5 -102.5t-103.5 -26.5zM813 387v117q-32 -30 -129 -47l-109 -17q-98 -14 -145 -48t-47 -99q0 -52 45.5 -87.5t120.5 -35.5q118 0 191 64.5t73 152.5zM1071 651h506
q-12 102 -79.5 170t-154.5 68q-117 0 -181.5 -61t-90.5 -177z" />
    <glyph glyph-name="ccedilla" unicode="&#xe7;" horiz-adv-x="1099" 
d="M494 -121l63 98q-244 12 -370 158t-126 379q0 265 146.5 424.5t415.5 159.5q182 0 309 -86.5t127 -194.5q0 -62 -39.5 -95.5t-99.5 -33.5q-38 0 -64 18t-43.5 44t-38 52t-61 44t-99.5 18q-47 0 -89.5 -17.5t-81 -55.5t-61 -109t-22.5 -168q0 -142 65.5 -224.5
t186.5 -82.5q42 0 75 10.5t53 27.5t36.5 37.5t30.5 41t30 37.5t40.5 27.5t56.5 10.5q55 0 90 -34t35 -80q0 -47 -24.5 -96t-70 -93t-121.5 -76t-169 -40l-62 -93h15q87 0 139.5 -35t52.5 -108q0 -83 -73 -132.5t-175 -49.5q-85 0 -127.5 25t-42.5 59q0 21 14.5 37t35.5 16
q9 0 49 -11.5t63 -11.5q33 0 52.5 18t19.5 48q0 53 -51 53q-16 0 -38 -3t-28 -3q-47 0 -47 41q0 12 23 49z" />
    <glyph glyph-name="egrave" unicode="&#xe8;" horiz-adv-x="1253" 
d="M1049 479h-676q0 -121 74 -196.5t202 -75.5q62 0 109.5 15t75.5 37t51 43.5t50 36.5t60 15q52 0 87.5 -36t35.5 -80q0 -52 -31.5 -96.5t-81.5 -75t-113 -52t-125 -31.5t-118 -10q-121 0 -220 31.5t-163.5 84.5t-109 124t-63.5 146.5t-19 156.5q0 264 151 423t414 159
q125 0 229 -42t171 -111t104 -156.5t37 -180.5q0 -76 -27.5 -102.5t-103.5 -26.5zM373 651h524q-12 103 -82.5 170.5t-169.5 67.5q-109 0 -177.5 -63t-94.5 -175zM590 1489l151 -117q34 -28 47 -49t13 -49q0 -48 -32.5 -74t-72.5 -26q-42 0 -94 36l-184 125q-76 51 -76 111
q0 39 28 76t83 37q23 0 49.5 -12t43.5 -24t44 -34z" />
    <glyph glyph-name="eacute" unicode="&#xe9;" horiz-adv-x="1253" 
d="M1049 479h-676q0 -121 74 -196.5t202 -75.5q62 0 109.5 15t75.5 37t51 43.5t50 36.5t60 15q52 0 87.5 -36t35.5 -80q0 -52 -31.5 -96.5t-81.5 -75t-113 -52t-125 -31.5t-118 -10q-121 0 -220 31.5t-163.5 84.5t-109 124t-63.5 146.5t-19 156.5q0 264 151 423t414 159
q125 0 229 -42t171 -111t104 -156.5t37 -180.5q0 -76 -27.5 -102.5t-103.5 -26.5zM373 651h524q-12 103 -82.5 170.5t-169.5 67.5q-109 0 -177.5 -63t-94.5 -175zM512 1372l152 117q27 22 44 34t43.5 24t49.5 12q55 0 82.5 -37t27.5 -76q0 -60 -75 -111l-185 -125
q-52 -36 -94 -36q-40 0 -72 26t-32 74q0 28 12.5 49t46.5 49z" />
    <glyph glyph-name="ecircumflex" unicode="&#xea;" horiz-adv-x="1253" 
d="M1049 479h-676q0 -121 74 -196.5t202 -75.5q62 0 109.5 15t75.5 37t51 43.5t50 36.5t60 15q52 0 87.5 -36t35.5 -80q0 -52 -31.5 -96.5t-81.5 -75t-113 -52t-125 -31.5t-118 -10q-121 0 -220 31.5t-163.5 84.5t-109 124t-63.5 146.5t-19 156.5q0 264 151 423t414 159
q125 0 229 -42t171 -111t104 -156.5t37 -180.5q0 -76 -27.5 -102.5t-103.5 -26.5zM373 651h524q-12 103 -82.5 170.5t-169.5 67.5q-109 0 -177.5 -63t-94.5 -175zM627 1364l-131 -131q-34 -35 -56 -47t-53 -12q-33 0 -62.5 30t-29.5 76q0 39 151 180q55 51 91.5 66.5
t89.5 15.5t89 -15.5t91 -66.5q151 -141 151 -180q0 -46 -29.5 -76t-62.5 -30q-31 0 -52.5 12t-55.5 47z" />
    <glyph glyph-name="edieresis" unicode="&#xeb;" horiz-adv-x="1253" 
d="M1049 479h-676q0 -121 74 -196.5t202 -75.5q62 0 109.5 15t75.5 37t51 43.5t50 36.5t60 15q52 0 87.5 -36t35.5 -80q0 -52 -31.5 -96.5t-81.5 -75t-113 -52t-125 -31.5t-118 -10q-121 0 -220 31.5t-163.5 84.5t-109 124t-63.5 146.5t-19 156.5q0 264 151 423t414 159
q125 0 229 -42t171 -111t104 -156.5t37 -180.5q0 -76 -27.5 -102.5t-103.5 -26.5zM373 651h524q-12 103 -82.5 170.5t-169.5 67.5q-109 0 -177.5 -63t-94.5 -175zM268 1356q0 61 44 105t106 44t105.5 -43.5t43.5 -105.5t-44 -106t-105 -44q-62 0 -106 44t-44 106zM686 1356
q0 61 44 105t106 44t105.5 -43.5t43.5 -105.5t-44 -106t-105 -44q-62 0 -106 44t-44 106z" />
    <glyph glyph-name="igrave" unicode="&#xec;" horiz-adv-x="569" 
d="M135 123v825q0 150 150 150q149 0 149 -150v-825q0 -150 -149 -150q-150 0 -150 150zM248 1489l151 -117q34 -28 47 -49t13 -49q0 -48 -32.5 -74t-72.5 -26q-42 0 -94 36l-184 125q-76 51 -76 111q0 39 28 76t83 37q23 0 49.5 -12t43.5 -24t44 -34z" />
    <glyph glyph-name="iacute" unicode="&#xed;" horiz-adv-x="569" 
d="M135 123v825q0 150 150 150q149 0 149 -150v-825q0 -150 -149 -150q-150 0 -150 150zM170 1372l152 117q27 22 44 34t43.5 24t49.5 12q55 0 82.5 -37t27.5 -76q0 -60 -75 -111l-185 -125q-52 -36 -94 -36q-40 0 -72 26t-32 74q0 28 12.5 49t46.5 49z" />
    <glyph glyph-name="icircumflex" unicode="&#xee;" horiz-adv-x="569" 
d="M135 123v825q0 150 150 150q149 0 149 -150v-825q0 -150 -149 -150q-150 0 -150 150zM285 1364l-131 -131q-34 -35 -56 -47t-53 -12q-33 0 -62.5 30t-29.5 76q0 39 151 180q55 51 91.5 66.5t89.5 15.5t89 -15.5t91 -66.5q151 -141 151 -180q0 -46 -29.5 -76t-62.5 -30
q-31 0 -52.5 12t-55.5 47z" />
    <glyph glyph-name="idieresis" unicode="&#xef;" horiz-adv-x="569" 
d="M135 123v825q0 150 150 150q149 0 149 -150v-825q0 -150 -149 -150q-150 0 -150 150zM-74 1356q0 61 44 105t106 44t105.5 -43.5t43.5 -105.5t-44 -106t-105 -44q-62 0 -106 44t-44 106zM344 1356q0 61 44 105t106 44t105.5 -43.5t43.5 -105.5t-44 -106t-105 -44
q-62 0 -106 44t-44 106z" />
    <glyph glyph-name="eth" unicode="&#xf0;" horiz-adv-x="1253" 
d="M373 537q0 -95 25.5 -170t84.5 -123.5t144 -48.5t144 48.5t84.5 123.5t25.5 170q0 153 -64 246.5t-190 93.5t-190 -93.5t-64 -246.5zM664 1255l-211 -94q-30 -12 -54 -12q-28 0 -45.5 17.5t-17.5 45.5q0 26 14.5 42.5t44.5 29.5l148 66q-37 20 -87 32.5t-72 24t-22 39.5
q0 33 23.5 48t73.5 15q163 0 291 -67l170 76q30 12 53 12q28 0 45.5 -18t17.5 -46q0 -26 -14.5 -42t-44.5 -29l-92 -41q147 -128 221 -334t74 -434q0 -135 -30.5 -243.5t-94.5 -193t-172.5 -130.5t-255.5 -46q-119 0 -214 30t-157.5 82t-104 124.5t-59.5 153.5t-18 174
q0 158 63.5 284.5t188 201.5t290.5 75q136 0 197 -64l4 4q-53 133 -153 217z" />
    <glyph glyph-name="ntilde" unicode="&#xf1;" 
d="M119 123v825q0 70 33.5 110t101.5 40t101.5 -40t33.5 -110v-39h4q143 189 363 189q72 0 135.5 -19.5t119.5 -62.5t89 -122.5t33 -188.5v-582q0 -150 -150 -150q-149 0 -149 150v522q0 95 -48 151t-141 56q-85 0 -156 -65t-71 -171v-493q0 -150 -150 -150q-149 0 -149 150
zM262 1329q0 70 61.5 122t131.5 52q49 0 147 -35q90 -36 125 -36q8 0 15.5 1.5t12 3.5t13 7t11 6.5t12.5 9t12 8.5q50 35 86 35q102 0 102 -92q0 -70 -72.5 -130t-144.5 -60q-54 0 -144.5 36.5t-107.5 36.5q-35 0 -84.5 -36.5t-77.5 -36.5q-38 0 -68 26.5t-30 81.5z" />
    <glyph glyph-name="ograve" unicode="&#xf2;" horiz-adv-x="1253" 
d="M373 537q0 -95 25.5 -170t84.5 -123.5t144 -48.5t144 48.5t84.5 123.5t25.5 170q0 153 -64 246.5t-190 93.5t-190 -93.5t-64 -246.5zM74 537q0 119 36.5 220.5t104.5 178t174 119.5t238 43t238 -43t174 -119.5t104.5 -178t36.5 -220.5q0 -93 -18 -174t-59.5 -153.5
t-104 -124.5t-157.5 -82t-214 -30t-214 30t-157.5 82t-104 124.5t-59.5 153.5t-18 174zM590 1489l151 -117q34 -28 47 -49t13 -49q0 -48 -32.5 -74t-72.5 -26q-42 0 -94 36l-184 125q-76 51 -76 111q0 39 28 76t83 37q23 0 49.5 -12t43.5 -24t44 -34z" />
    <glyph glyph-name="oacute" unicode="&#xf3;" horiz-adv-x="1253" 
d="M373 537q0 -95 25.5 -170t84.5 -123.5t144 -48.5t144 48.5t84.5 123.5t25.5 170q0 153 -64 246.5t-190 93.5t-190 -93.5t-64 -246.5zM74 537q0 119 36.5 220.5t104.5 178t174 119.5t238 43t238 -43t174 -119.5t104.5 -178t36.5 -220.5q0 -93 -18 -174t-59.5 -153.5
t-104 -124.5t-157.5 -82t-214 -30t-214 30t-157.5 82t-104 124.5t-59.5 153.5t-18 174zM512 1372l152 117q27 22 44 34t43.5 24t49.5 12q55 0 82.5 -37t27.5 -76q0 -60 -75 -111l-185 -125q-52 -36 -94 -36q-40 0 -72 26t-32 74q0 28 12.5 49t46.5 49z" />
    <glyph glyph-name="ocircumflex" unicode="&#xf4;" horiz-adv-x="1253" 
d="M373 537q0 -95 25.5 -170t84.5 -123.5t144 -48.5t144 48.5t84.5 123.5t25.5 170q0 153 -64 246.5t-190 93.5t-190 -93.5t-64 -246.5zM74 537q0 119 36.5 220.5t104.5 178t174 119.5t238 43t238 -43t174 -119.5t104.5 -178t36.5 -220.5q0 -93 -18 -174t-59.5 -153.5
t-104 -124.5t-157.5 -82t-214 -30t-214 30t-157.5 82t-104 124.5t-59.5 153.5t-18 174zM627 1364l-131 -131q-34 -35 -56 -47t-53 -12q-33 0 -62.5 30t-29.5 76q0 39 151 180q55 51 91.5 66.5t89.5 15.5t89 -15.5t91 -66.5q151 -141 151 -180q0 -46 -29.5 -76t-62.5 -30
q-31 0 -52.5 12t-55.5 47z" />
    <glyph glyph-name="otilde" unicode="&#xf5;" horiz-adv-x="1253" 
d="M373 537q0 -95 25.5 -170t84.5 -123.5t144 -48.5t144 48.5t84.5 123.5t25.5 170q0 153 -64 246.5t-190 93.5t-190 -93.5t-64 -246.5zM74 537q0 119 36.5 220.5t104.5 178t174 119.5t238 43t238 -43t174 -119.5t104.5 -178t36.5 -220.5q0 -93 -18 -174t-59.5 -153.5
t-104 -124.5t-157.5 -82t-214 -30t-214 30t-157.5 82t-104 124.5t-59.5 153.5t-18 174zM262 1329q0 70 61.5 122t131.5 52q49 0 147 -35q90 -36 125 -36q8 0 15.5 1.5t12 3.5t13 7t11 6.5t12.5 9t12 8.5q50 35 86 35q102 0 102 -92q0 -70 -72.5 -130t-144.5 -60
q-54 0 -144.5 36.5t-107.5 36.5q-35 0 -84.5 -36.5t-77.5 -36.5q-38 0 -68 26.5t-30 81.5z" />
    <glyph glyph-name="odieresis" unicode="&#xf6;" horiz-adv-x="1253" 
d="M373 537q0 -95 25.5 -170t84.5 -123.5t144 -48.5t144 48.5t84.5 123.5t25.5 170q0 153 -64 246.5t-190 93.5t-190 -93.5t-64 -246.5zM74 537q0 119 36.5 220.5t104.5 178t174 119.5t238 43t238 -43t174 -119.5t104.5 -178t36.5 -220.5q0 -93 -18 -174t-59.5 -153.5
t-104 -124.5t-157.5 -82t-214 -30t-214 30t-157.5 82t-104 124.5t-59.5 153.5t-18 174zM268 1356q0 61 44 105t106 44t105.5 -43.5t43.5 -105.5t-44 -106t-105 -44q-62 0 -106 44t-44 106zM686 1356q0 61 44 105t106 44t105.5 -43.5t43.5 -105.5t-44 -106t-105 -44
q-62 0 -106 44t-44 106z" />
    <glyph glyph-name="divide" unicode="&#xf7;" horiz-adv-x="1228" 
d="M178 702h873q65 0 104 -33.5t39 -88.5t-39 -89t-104 -34h-873q-62 0 -102.5 37.5t-40.5 85.5q0 55 39 88.5t104 33.5zM434 156q0 75 52.5 127.5t127.5 52.5t128 -52.5t53 -127.5t-53 -128t-128 -53t-127.5 53t-52.5 128zM434 1004q0 75 52.5 127.5t127.5 52.5t128 -52.5
t53 -127.5t-53 -128t-128 -53t-127.5 53t-52.5 128z" />
    <glyph glyph-name="oslash" unicode="&#xf8;" horiz-adv-x="1253" 
d="M389 401l399 414q-65 62 -161 62q-126 0 -190 -93.5t-64 -246.5q0 -79 16 -136zM88 88l84 88q-98 137 -98 361q0 119 36.5 220.5t104.5 178t174 119.5t238 43q198 0 338 -99l86 88q48 48 86 48q29 0 50 -21.5t21 -52.5q0 -35 -43 -78l-90 -94q105 -144 105 -352
q0 -93 -18 -174t-59.5 -153.5t-104 -124.5t-157.5 -82t-214 -30q-209 0 -344 95l-80 -84q-47 -47 -86 -47q-29 0 -50.5 21.5t-21.5 51.5q0 35 43 78zM866 672l-399 -414q63 -63 160 -63q85 0 144 48.5t84.5 123.5t25.5 170q0 73 -15 135z" />
    <glyph glyph-name="ugrave" unicode="&#xf9;" 
d="M1133 948v-825q0 -70 -34 -110t-102 -40t-101.5 40t-33.5 110v39h-4q-69 -91 -155.5 -140t-206.5 -49q-57 0 -108.5 11.5t-101.5 40t-86.5 72.5t-58.5 113t-22 157v581q0 150 149 150q150 0 150 -150v-522q0 -95 47.5 -151t140.5 -56q85 0 156.5 65t71.5 171v493
q0 150 149 150q150 0 150 -150zM590 1489l151 -117q34 -28 47 -49t13 -49q0 -48 -32.5 -74t-72.5 -26q-42 0 -94 36l-184 125q-76 51 -76 111q0 39 28 76t83 37q23 0 49.5 -12t43.5 -24t44 -34z" />
    <glyph glyph-name="uacute" unicode="&#xfa;" 
d="M1133 948v-825q0 -70 -34 -110t-102 -40t-101.5 40t-33.5 110v39h-4q-69 -91 -155.5 -140t-206.5 -49q-57 0 -108.5 11.5t-101.5 40t-86.5 72.5t-58.5 113t-22 157v581q0 150 149 150q150 0 150 -150v-522q0 -95 47.5 -151t140.5 -56q85 0 156.5 65t71.5 171v493
q0 150 149 150q150 0 150 -150zM512 1372l152 117q27 22 44 34t43.5 24t49.5 12q55 0 82.5 -37t27.5 -76q0 -60 -75 -111l-185 -125q-52 -36 -94 -36q-40 0 -72 26t-32 74q0 28 12.5 49t46.5 49z" />
    <glyph glyph-name="ucircumflex" unicode="&#xfb;" 
d="M1133 948v-825q0 -70 -34 -110t-102 -40t-101.5 40t-33.5 110v39h-4q-69 -91 -155.5 -140t-206.5 -49q-57 0 -108.5 11.5t-101.5 40t-86.5 72.5t-58.5 113t-22 157v581q0 150 149 150q150 0 150 -150v-522q0 -95 47.5 -151t140.5 -56q85 0 156.5 65t71.5 171v493
q0 150 149 150q150 0 150 -150zM627 1364l-131 -131q-34 -35 -56 -47t-53 -12q-33 0 -62.5 30t-29.5 76q0 39 151 180q55 51 91.5 66.5t89.5 15.5t89 -15.5t91 -66.5q151 -141 151 -180q0 -46 -29.5 -76t-62.5 -30q-31 0 -52.5 12t-55.5 47z" />
    <glyph glyph-name="udieresis" unicode="&#xfc;" 
d="M1133 948v-825q0 -70 -34 -110t-102 -40t-101.5 40t-33.5 110v39h-4q-69 -91 -155.5 -140t-206.5 -49q-57 0 -108.5 11.5t-101.5 40t-86.5 72.5t-58.5 113t-22 157v581q0 150 149 150q150 0 150 -150v-522q0 -95 47.5 -151t140.5 -56q85 0 156.5 65t71.5 171v493
q0 150 149 150q150 0 150 -150zM268 1356q0 61 44 105t106 44t105.5 -43.5t43.5 -105.5t-44 -106t-105 -44q-62 0 -106 44t-44 106zM686 1356q0 61 44 105t106 44t105.5 -43.5t43.5 -105.5t-44 -106t-105 -44q-62 0 -106 44t-44 106z" />
    <glyph glyph-name="yacute" unicode="&#xfd;" horiz-adv-x="1024" 
d="M324 985l192 -698h4l182 678q35 133 144 133q42 0 74 -15.5t48 -38.5t23.5 -44t7.5 -37q0 -34 -22 -95l-346 -981q-57 -163 -132 -237t-210 -74q-94 0 -141.5 39t-47.5 98q0 58 38 89.5t100 31.5h30q15 0 24 1t23 6t23 14t18.5 27.5t16.5 45.5l-312 887q-36 104 -36 139
q0 61 42.5 102.5t102.5 41.5q59 0 99.5 -30.5t54.5 -82.5zM397 1372l152 117q27 22 44 34t43.5 24t49.5 12q55 0 83 -37t28 -76q0 -60 -76 -111l-184 -125q-52 -36 -95 -36q-40 0 -72 26t-32 74q0 28 12.5 49t46.5 49z" />
    <glyph glyph-name="thorn" unicode="&#xfe;" 
d="M119 -274v1626q0 72 40 110.5t109 38.5t109.5 -38.5t40.5 -110.5v-389h4q33 57 107 96t180 39q96 0 179.5 -35.5t148.5 -103.5t103 -179t38 -252q0 -110 -28.5 -208t-83.5 -176.5t-145 -124.5t-204 -46q-102 0 -177.5 39.5t-117.5 112.5h-4v-399q0 -72 -40.5 -111
t-109.5 -39t-109 39t-40 111zM879 539q0 139 -61.5 230.5t-176.5 94.5q-122 0 -181 -92.5t-59 -232.5q0 -62 12.5 -118t39 -106t75 -79.5t113.5 -28.5q68 0 117 31.5t74 83.5t36 105.5t11 111.5z" />
    <glyph glyph-name="ydieresis" unicode="&#xff;" horiz-adv-x="1024" 
d="M324 985l192 -698h4l182 678q35 133 144 133q42 0 74 -15.5t48 -38.5t23.5 -44t7.5 -37q0 -34 -22 -95l-346 -981q-57 -163 -132 -237t-210 -74q-94 0 -141.5 39t-47.5 98q0 58 38 89.5t100 31.5h30q15 0 24 1t23 6t23 14t18.5 27.5t16.5 45.5l-312 887q-36 104 -36 139
q0 61 42.5 102.5t102.5 41.5q59 0 99.5 -30.5t54.5 -82.5zM154 1356q0 62 44 105.5t105 43.5q62 0 106 -44t44 -105q0 -62 -44.5 -106t-105.5 -44t-105 44t-44 106zM571 1356q0 61 44 105t106 44q61 0 105 -43.5t44 -105.5t-44 -106t-105 -44t-105.5 44t-44.5 106z" />
    <glyph glyph-name="dotlessi" unicode="&#x131;" horiz-adv-x="569" 
d="M135 123v825q0 150 150 150q149 0 149 -150v-825q0 -150 -149 -150q-150 0 -150 150z" />
    <glyph glyph-name="Lslash" unicode="&#x141;" 
d="M156 197v323l-25 -14q-34 -21 -63 -21q-39 0 -63.5 26.5t-24.5 66.5q0 32 17.5 54t59.5 48l99 59v594q0 75 46 121.5t122 46.5t122 -46.5t46 -121.5v-420l299 179q33 20 65 20q36 0 62 -26t26 -68q0 -31 -19 -53t-61 -47l-372 -222v-413h561q75 0 124.5 -37.5
t49.5 -104.5t-49.5 -104t-124.5 -37h-701q-95 0 -145.5 45t-50.5 152z" />
    <glyph glyph-name="lslash" unicode="&#x142;" horiz-adv-x="569" 
d="M135 123v369l-14 -17q-26 -28 -46 -40t-44 -11q-30 0 -49 21.5t-19 56.5q0 47 60 110l112 121v619q0 72 40.5 110.5t109.5 38.5t109 -38.5t40 -110.5v-295l15 14q26 28 46 40t44 11q29 0 48 -21.5t19 -56.5q0 -48 -59 -110l-113 -121v-690q0 -72 -40 -111t-109 -39
t-109.5 39t-40.5 111z" />
    <glyph glyph-name="OE" unicode="&#x152;" horiz-adv-x="2048" 
d="M1057 584v305q0 144 -81 249t-216 105q-159 0 -246.5 -141t-87.5 -404q0 -228 91.5 -347.5t236.5 -119.5q127 0 215 97t88 256zM1380 1204v-319h449q74 0 116 -28.5t42 -100.5t-42 -100.5t-116 -28.5h-449v-357h473q81 0 125.5 -30t44.5 -105t-44.5 -105t-125.5 -30h-608
q-93 0 -125.5 33.5t-44.5 107.5q-120 -168 -397 -168q-117 0 -215.5 40t-166 108.5t-115 162t-69.5 199t-22 219.5q0 85 9.5 165.5t31.5 161t55 149.5t83.5 129.5t113 103t147 66.5t183.5 24q240 0 362 -170q10 80 49.5 112t110.5 32h602q81 0 125.5 -30.5t44.5 -105.5
t-44.5 -105t-125.5 -30h-457z" />
    <glyph glyph-name="oe" unicode="&#x153;" horiz-adv-x="1972" 
d="M1767 479h-639q0 -121 70.5 -196.5t169.5 -75.5q62 0 109.5 15t75.5 37t51 43.5t50 36.5t60 15q52 0 87.5 -36t35.5 -80q0 -52 -31.5 -96.5t-81.5 -75t-113 -52t-125 -31.5t-118 -10q-128 0 -225.5 43.5t-151.5 130.5q-67 -82 -161 -128t-240 -46q-134 0 -236 45.5
t-162 125t-89 178.5t-29 215q0 119 36.5 220.5t104.5 178t174 119.5t238 43q227 0 368 -170q77 84 168 127t219 43q116 0 214.5 -42t163.5 -111t101.5 -156.5t36.5 -180.5q0 -76 -27.5 -102.5t-103.5 -26.5zM373 537q0 -95 25.5 -170t84.5 -123.5t144 -48.5q82 0 138.5 48.5
t80.5 123.5t24 170q0 154 -61 247t-182 93q-126 0 -190 -93.5t-64 -246.5zM1128 651h488q-12 102 -79.5 170t-154.5 68q-111 0 -169 -60.5t-85 -177.5z" />
    <glyph glyph-name="Scaron" unicode="&#x160;" horiz-adv-x="1402" 
d="M647 918l281 -64q385 -88 385 -424q0 -208 -156 -336.5t-450 -128.5q-123 0 -227 23.5t-174.5 61.5t-120.5 87.5t-72.5 100.5t-22.5 100q0 61 39.5 100t101.5 39q37 0 65.5 -14.5t49.5 -38t41.5 -52t47 -57t60.5 -52t88.5 -38t123.5 -14.5q124 0 197 58t73 137
q0 117 -143 153l-379 96q-88 23 -154 57.5t-105 72.5t-62.5 86.5t-31.5 92t-8 95.5q0 95 34 172.5t90.5 128t133.5 85t159 49.5t171 15q132 0 263 -44t219.5 -125t88.5 -175q0 -61 -44.5 -97t-108.5 -36q-31 0 -56.5 12t-44.5 31.5t-39 43t-45.5 46.5t-58 42.5t-83 31.5
t-114.5 12q-114 0 -177.5 -48t-63.5 -126q0 -29 14.5 -53.5t34.5 -39.5t54.5 -29t59.5 -20.5t66 -16.5zM702 1724l132 131q34 36 56 48t52 12q32 0 62 -30.5t30 -76.5q0 -39 -151 -180q-55 -51 -91.5 -66.5t-89.5 -15.5t-89 15.5t-91 66.5q-151 141 -151 180q0 46 30 76.5
t62 30.5q30 0 52 -12t56 -48z" />
    <glyph glyph-name="scaron" unicode="&#x161;" horiz-adv-x="1099" 
d="M72 764q0 87 40 154t107 105t143 56.5t158 18.5q115 0 218.5 -28t171 -81t67.5 -119q0 -55 -34 -93t-91 -38q-32 0 -58.5 14t-47.5 34.5t-45.5 41t-65 34.5t-92.5 14q-80 0 -126 -23.5t-46 -69.5q0 -47 37 -67.5t122 -38.5l125 -29q59 -13 105 -28t99 -41t87.5 -58.5
t58 -82t23.5 -109.5q0 -88 -40 -158t-106.5 -112.5t-147 -64.5t-167.5 -22q-133 0 -247 36.5t-181 98.5t-67 134q0 53 30.5 89t90.5 36q35 0 65 -19t55.5 -46.5t55 -54.5t77.5 -46t109 -19q78 0 126 31t48 78q0 34 -22.5 56t-45.5 30t-86 24q-4 1 -6 2t-5.5 1.5t-6.5 1.5
l-176 43q-71 18 -122.5 40t-96 57.5t-67.5 90t-23 127.5zM551 1352l131 131q34 35 56 47t53 12q33 0 62.5 -30t29.5 -76q0 -39 -152 -181q-55 -50 -90.5 -65.5t-89.5 -15.5t-89.5 15.5t-90.5 65.5q-152 142 -152 181q0 46 29.5 76t62.5 30q31 0 53 -12t56 -47z" />
    <glyph glyph-name="Ydieresis" unicode="&#x178;" horiz-adv-x="1253" 
d="M459 141v434l-412 685q-29 49 -29 88q0 41 17 72t43.5 48t54.5 25t55 8q58 0 91 -23t61 -75l293 -539l291 539q29 55 60.5 76.5t84.5 21.5q35 0 70.5 -13t65.5 -50t30 -90q0 -39 -29 -88l-411 -685v-434q0 -75 -46 -121.5t-122 -46.5t-122 46.5t-46 121.5zM268 1729
q0 61 44 105t106 44t105.5 -44t43.5 -105q0 -62 -44 -106t-105 -44q-62 0 -106 44.5t-44 105.5zM686 1729q0 61 44 105t106 44t105.5 -44t43.5 -105q0 -62 -44 -106t-105 -44q-62 0 -106 44.5t-44 105.5z" />
    <glyph glyph-name="Zcaron" unicode="&#x17d;" horiz-adv-x="1402" 
d="M117 295l760 897h-586q-75 0 -124.5 37t-49.5 104t49.5 104.5t124.5 37.5h885q155 0 155 -154q0 -68 -47 -121l-772 -917h655q75 0 124.5 -37.5t49.5 -104.5t-49.5 -104t-124.5 -37h-911q-97 0 -146 38t-49 128q0 62 56 129zM702 1724l132 131q34 36 56 48t52 12
q32 0 62 -30.5t30 -76.5q0 -39 -151 -180q-55 -51 -91.5 -66.5t-89.5 -15.5t-89 15.5t-91 66.5q-151 141 -151 180q0 46 30 76.5t62 30.5q30 0 52 -12t56 -48z" />
    <glyph glyph-name="zcaron" unicode="&#x17e;" horiz-adv-x="1138" 
d="M100 225l564 613h-433q-48 0 -84 28.5t-36 87.5t36 88t84 29h711q59 0 91 -35.5t32 -95.5q0 -50 -47 -100l-553 -607h491q48 0 84.5 -28.5t36.5 -87.5t-36.5 -88t-84.5 -29h-761q-63 0 -98.5 34.5t-35.5 82.5q0 66 39 108zM569 1352l131 131q34 35 56 47t53 12
q33 0 62.5 -30t29.5 -76q0 -40 -151 -181q-55 -50 -91 -65.5t-90 -15.5t-89.5 15.5t-90.5 65.5q-151 141 -151 181q0 46 29.5 76t62.5 30q31 0 52.5 -12t55.5 -47z" />
    <glyph glyph-name="florin" unicode="&#x192;" horiz-adv-x="1253" 
d="M336 -63l125 686h-115q-62 0 -90.5 24t-28.5 74t28.5 74t90.5 24h148l71 371q25 131 101 198.5t233 67.5q223 0 223 -135q0 -111 -112 -111h-74q-72 0 -90 -98l-53 -293h114q62 0 90.5 -24t28.5 -74t-28.5 -74t-90.5 -24h-147l-142 -752q-15 -81 -37 -133t-62 -90.5
t-101 -55t-152 -16.5q-46 0 -81 5.5t-65.5 19.5t-46.5 41.5t-16 68.5q0 48 30.5 79.5t98.5 31.5h62q44 0 59.5 22t28.5 93z" />
    <glyph glyph-name="circumflex" unicode="&#x2c6;" horiz-adv-x="569" 
d="M285 1364l-131 -131q-34 -35 -56 -47t-53 -12q-33 0 -62.5 30t-29.5 76q0 39 151 180q55 51 91.5 66.5t89.5 15.5t89 -15.5t91 -66.5q151 -141 151 -180q0 -46 -29.5 -76t-62.5 -30q-31 0 -52.5 12t-55.5 47z" />
    <glyph glyph-name="caron" unicode="&#x2c7;" horiz-adv-x="569" 
d="M285 1352l131 131q34 35 55.5 47t52.5 12q33 0 62.5 -30t29.5 -76q0 -40 -151 -181q-55 -50 -90.5 -65.5t-89.5 -15.5t-90 15.5t-91 65.5q-151 141 -151 181q0 46 29.5 76t62.5 30q31 0 53 -12t56 -47z" />
    <glyph glyph-name="breve" unicode="&#x2d8;" horiz-adv-x="569" 
d="M-27 1444q0 36 30 59t71 23q34 0 49 -12.5t45 -65.5q23 -40 48 -59t69 -19t68.5 19t47.5 59q30 52 45 65t50 13q41 0 70.5 -23t29.5 -59q0 -42 -21.5 -86.5t-59.5 -83t-98.5 -63.5t-131.5 -25t-131.5 25t-99 63.5t-60 83t-21.5 86.5z" />
    <glyph glyph-name="dotaccent" unicode="&#x2d9;" horiz-adv-x="569" 
d="M135 1356q0 61 44 105t106 44q61 0 105 -43.5t44 -105.5t-44 -106t-105 -44t-105.5 44t-44.5 106z" />
    <glyph glyph-name="ring" unicode="&#x2da;" horiz-adv-x="569" 
d="M63 1378q0 92 65 156.5t157 64.5t156.5 -64.5t64.5 -156.5t-64.5 -156.5t-156.5 -64.5t-157 64.5t-65 156.5zM178 1378q0 -44 31.5 -75t75.5 -31t75 31t31 75t-31 75.5t-75 31.5t-75.5 -31.5t-31.5 -75.5z" />
    <glyph glyph-name="ogonek" unicode="&#x2db;" horiz-adv-x="569" 
d="M276 0h115q-73 -49 -108 -109.5t-35 -115.5q0 -99 84 -99q24 0 57.5 11.5t42.5 11.5q21 0 35 -16t14 -37q0 -34 -46 -59t-144 -25q-113 0 -170.5 47.5t-57.5 134.5q0 78 61 149t152 107z" />
    <glyph glyph-name="tilde" unicode="&#x2dc;" horiz-adv-x="569" 
d="M-80 1329q0 70 61.5 122t131.5 52q49 0 147 -35q90 -36 125 -36q8 0 15.5 1.5t12 3.5t13 7t11 6.5t12.5 9t12 8.5q50 35 86 35q102 0 102 -92q0 -70 -72.5 -130t-144.5 -60q-54 0 -144.5 36.5t-107.5 36.5q-35 0 -84.5 -36.5t-77.5 -36.5q-38 0 -68 26.5t-30 81.5z" />
    <glyph glyph-name="hungarumlaut" unicode="&#x2dd;" horiz-adv-x="569" 
d="M-96 1372l151 117q87 70 138 70q55 0 82.5 -37t27.5 -76q0 -60 -76 -111l-184 -125q-52 -36 -94 -36q-40 0 -72.5 26t-32.5 74q0 28 13 49t47 49zM436 1372l152 117q27 22 44 34t43.5 24t49.5 12q55 0 83 -37t28 -76q0 -60 -76 -111l-185 -125q-52 -36 -94 -36
q-40 0 -72 26t-32 74q0 28 12.5 49t46.5 49z" />
    <glyph glyph-name="endash" unicode="&#x2013;" horiz-adv-x="1024" 
d="M141 676h742q54 0 87.5 -27t33.5 -84t-33.5 -83.5t-87.5 -26.5h-742q-54 0 -87.5 26.5t-33.5 83.5t33.5 84t87.5 27z" />
    <glyph glyph-name="emdash" unicode="&#x2014;" horiz-adv-x="2048" 
d="M141 676h1766q54 0 87.5 -27t33.5 -84t-33.5 -83.5t-87.5 -26.5h-1766q-54 0 -87.5 26.5t-33.5 83.5t33.5 84t87.5 27z" />
    <glyph glyph-name="quoteleft" unicode="&#x2018;" horiz-adv-x="647" 
d="M504 1049q0 -69 -49.5 -118.5t-118.5 -49.5q-95 0 -144 73t-49 185q0 97 26 158t79 116q30 28 87 58t99 30q33 0 51.5 -17.5t18.5 -43.5q0 -24 -21.5 -40t-52.5 -28.5t-62 -30t-54.5 -56.5t-26.5 -97q32 18 69 18q68 0 108 -46t40 -111z" />
    <glyph glyph-name="quoteright" unicode="&#x2019;" horiz-adv-x="647" 
d="M143 1333q0 69 49.5 118.5t118.5 49.5q95 0 144 -73t49 -185q0 -97 -26 -158t-79 -116q-30 -28 -87 -58t-99 -30q-33 0 -51.5 17.5t-18.5 43.5q0 24 21.5 40t52.5 28.5t62 30t54.5 56.5t26.5 97q-32 -18 -69 -18q-68 0 -108 46t-40 111z" />
    <glyph glyph-name="quotesinglbase" unicode="&#x201a;" horiz-adv-x="647" 
d="M143 154q0 69 49.5 118.5t118.5 49.5q95 0 144 -73.5t49 -185.5q0 -97 -26 -158t-79 -116q-30 -28 -87 -58t-99 -30q-33 0 -51.5 17.5t-18.5 43.5q0 24 21.5 40t52.5 28.5t62 30t54.5 56.5t26.5 97q-32 -18 -69 -18q-68 0 -108 46.5t-40 111.5z" />
    <glyph glyph-name="quotedblleft" unicode="&#x201c;" horiz-adv-x="1099" 
d="M498 1049q0 -69 -49.5 -118.5t-118.5 -49.5q-95 0 -144 73t-49 185q0 97 26 158t79 116q30 28 87 58t99 30q33 0 51.5 -17.5t18.5 -43.5q0 -24 -21.5 -40t-52.5 -28.5t-62 -30t-54.5 -56.5t-26.5 -97q32 18 69 18q68 0 108 -46t40 -111zM963 1049q0 -69 -49.5 -118.5
t-118.5 -49.5q-95 0 -144 73t-49 185q0 97 26 158t79 116q30 28 87 58t99 30q33 0 51.5 -17.5t18.5 -43.5q0 -24 -21.5 -40t-52.5 -28.5t-62.5 -30t-55 -56.5t-26.5 -97q32 18 70 18q68 0 108 -46t40 -111z" />
    <glyph glyph-name="quotedblright" unicode="&#x201d;" horiz-adv-x="1099" 
d="M137 1333q0 69 49.5 118.5t118.5 49.5q95 0 144 -73t49 -185q0 -97 -26 -158t-79 -116q-30 -28 -87 -58t-99 -30q-33 0 -51.5 17.5t-18.5 43.5q0 24 21.5 40t52.5 28.5t62 30t54.5 56.5t26.5 97q-32 -18 -69 -18q-68 0 -108 46t-40 111zM602 1333q0 69 49.5 118.5
t118.5 49.5q95 0 144 -73t49 -185q0 -97 -26 -158t-79 -116q-30 -28 -87 -58t-99 -30q-33 0 -51.5 17.5t-18.5 43.5q0 24 21.5 40t52.5 28.5t62 30t54.5 56.5t26.5 97q-32 -18 -69 -18q-68 0 -108 46t-40 111z" />
    <glyph glyph-name="quotedblbase" unicode="&#x201e;" horiz-adv-x="1099" 
d="M137 154q0 69 49.5 118.5t118.5 49.5q95 0 144 -73.5t49 -185.5q0 -97 -26 -158t-79 -116q-30 -28 -87 -58t-99 -30q-33 0 -51.5 17.5t-18.5 43.5q0 24 21.5 40t52.5 28.5t62 30t54.5 56.5t26.5 97q-32 -18 -69 -18q-68 0 -108 46.5t-40 111.5zM602 154q0 69 49.5 118.5
t118.5 49.5q95 0 144 -73.5t49 -185.5q0 -97 -26 -158t-79 -116q-30 -28 -87 -58t-99 -30q-33 0 -51.5 17.5t-18.5 43.5q0 24 21.5 40t52.5 28.5t62 30t54.5 56.5t26.5 97q-32 -18 -69 -18q-68 0 -108 46.5t-40 111.5z" />
    <glyph glyph-name="dagger" unicode="&#x2020;" horiz-adv-x="1175" 
d="M444 -195v1014h-264q-51 0 -87 34t-36 83t36 83t87 34h264v290q0 71 40 114.5t104 43.5t103.5 -43.5t39.5 -114.5v-290h264q51 0 87 -34t36 -83t-36 -83t-87 -34h-264v-1014q0 -71 -39.5 -114t-103.5 -43t-104 43t-40 114z" />
    <glyph glyph-name="daggerdbl" unicode="&#x2021;" horiz-adv-x="1175" 
d="M453 1083v271q0 65 37 106t98 41t98 -41t37 -106v-271h266q52 0 86.5 -27.5t34.5 -82.5t-35 -83t-86 -28h-266v-575h266q51 0 86 -28t35 -83t-34.5 -82.5t-86.5 -27.5h-266v-271q0 -65 -37 -106t-98 -41t-98 41t-37 106v271h-267q-52 0 -86 27.5t-34 82.5t34.5 83
t85.5 28h267v575h-267q-51 0 -85.5 28t-34.5 83t34 82.5t86 27.5h267z" />
    <glyph glyph-name="bullet" unicode="&#x2022;" horiz-adv-x="1024" 
d="M143 737q0 152 108.5 260.5t260.5 108.5t260.5 -108.5t108.5 -260.5t-108.5 -260t-260.5 -108t-260.5 108t-108.5 260z" />
    <glyph glyph-name="ellipsis" unicode="&#x2026;" horiz-adv-x="2048" 
d="M174 154q0 69 49.5 118.5t118.5 49.5t118.5 -49.5t49.5 -118.5t-49.5 -118.5t-118.5 -49.5t-118.5 49.5t-49.5 118.5zM856 154q0 69 49.5 118.5t118.5 49.5t118.5 -49.5t49.5 -118.5t-49.5 -118.5t-118.5 -49.5t-118.5 49.5t-49.5 118.5zM1538 154q0 69 49.5 118.5
t118.5 49.5t118.5 -49.5t49.5 -118.5t-49.5 -118.5t-118.5 -49.5t-118.5 49.5t-49.5 118.5z" />
    <glyph glyph-name="perthousand" unicode="&#x2030;" horiz-adv-x="2048" 
d="M236 1104q0 -205 86 -205t86 205q0 92 -21.5 148.5t-64.5 56.5t-64.5 -56.5t-21.5 -148.5zM27 1104q0 67 16 127t49 112t92 82.5t138 30.5q63 0 114 -20.5t84 -54.5t55 -80t31.5 -95t9.5 -102q0 -72 -15.5 -132.5t-48.5 -111t-92 -79.5t-138 -29t-138 29t-92 79.5
t-49 111t-16 132.5zM729 326q0 67 16 127t49 112t92 82.5t138 30.5t138 -30.5t92 -82.5t49 -112t16 -127q0 -72 -16 -132.5t-49 -111.5t-92 -80t-138 -29t-138 29t-92 80t-49 111.5t-16 132.5zM938 326q0 -205 86 -205t86 205q0 92 -21.5 148t-64.5 56t-64.5 -56t-21.5 -148
zM1432 326q0 53 9.5 102t31.5 95t55 80t84 54.5t114 20.5q79 0 138 -30.5t92 -82.5t49 -112t16 -127q0 -72 -16 -132.5t-49 -111.5t-92 -80t-138 -29t-138 29t-92 80t-48.5 111.5t-15.5 132.5zM1640 326q0 -205 86 -205t86 205q0 92 -21.5 148t-64.5 56t-64.5 -56
t-21.5 -148zM238 59l737 1393q30 57 80 57q33 0 56.5 -21t23.5 -48q0 -26 -23 -70l-737 -1393q-30 -57 -80 -57q-33 0 -56.5 21.5t-23.5 48.5q0 25 23 69z" />
    <glyph glyph-name="guilsinglleft" unicode="&#x2039;" horiz-adv-x="757" 
d="M537 680l-168 -115l168 -114q65 -44 65 -107q0 -42 -28 -74t-68 -32q-34 0 -80 32l-201 146q-69 48 -69 149q0 102 69 150l201 145q47 33 80 33q40 0 68 -32.5t28 -74.5q0 -62 -65 -106z" />
    <glyph glyph-name="guilsinglright" unicode="&#x203a;" horiz-adv-x="757" 
d="M221 451l168 114l-168 115q-65 44 -65 106q0 42 28 74.5t68 32.5q33 0 80 -33l200 -145q70 -49 70 -150q0 -100 -70 -149l-200 -146q-46 -32 -80 -32q-40 0 -68 32t-28 74q0 63 65 107z" />
    <glyph glyph-name="fraction" unicode="&#x2044;" horiz-adv-x="342" 
d="M-266 59l737 1393q30 57 80 57q33 0 56.5 -21t23.5 -48q0 -26 -23 -70l-737 -1393q-30 -57 -80 -57q-33 0 -56.5 21.5t-23.5 48.5q0 25 23 69z" />
    <glyph glyph-name="trademark" unicode="&#x2122;" horiz-adv-x="2048" 
d="M264 745v545h-129q-51 0 -75.5 28t-24.5 64t24.5 64.5t75.5 28.5h506q51 0 74.5 -28t23.5 -65q0 -36 -23.5 -64t-74.5 -28h-131v-545q0 -38 -13.5 -66t-34.5 -41.5t-39.5 -19.5t-35.5 -6t-35.5 6t-39.5 19.5t-34.5 41.5t-13.5 66zM1645 745v381h-5l-149 -405
q-41 -109 -123 -109t-123 109l-149 405h-4v-381q0 -38 -13.5 -66t-34.5 -41.5t-39.5 -19.5t-35.5 -6t-35.5 6t-39.5 19.5t-34.5 41.5t-13.5 66v558q0 52 16 90t43 57.5t54.5 28t56.5 8.5q157 0 219 -158l133 -342l133 342q62 158 219 158q29 0 56.5 -8.5t54.5 -28t43 -57.5
t16 -90v-558q0 -38 -13.5 -66t-34.5 -41.5t-39.5 -19.5t-35.5 -6t-35.5 6t-39 19.5t-34 41.5t-13.5 66z" />
    <glyph glyph-name="minus" unicode="&#x2212;" horiz-adv-x="1228" 
d="M178 702h873q65 0 104 -33.5t39 -88.5t-39 -89t-104 -34h-873q-62 0 -102.5 37.5t-40.5 85.5q0 55 39 88.5t104 33.5z" />
    <glyph glyph-name="fi" unicode="&#xfb01;" 
d="M197 123v751h-52q-62 0 -90 24.5t-28 74.5t28 74t90 24h52v150q0 153 73 220.5t240 67.5q78 0 129 -32t51 -103q0 -52 -29 -81t-71 -29q-9 0 -26.5 3t-26.5 3q-41 0 -41 -66v-133h73q121 0 121 -98q0 -99 -121 -99h-73v-751q0 -72 -40.5 -111t-109.5 -39t-109 39t-40 111
zM817 123v825q0 150 150 150q149 0 149 -150v-825q0 -150 -149 -150q-150 0 -150 150zM811 1354q0 64 45.5 109.5t110.5 45.5t110 -45.5t45 -109.5q0 -65 -45.5 -110.5t-109.5 -45.5q-65 0 -110.5 46t-45.5 110z" />
    <glyph glyph-name="fl" unicode="&#xfb02;" 
d="M197 123v751h-52q-62 0 -90 24.5t-28 74.5t28 74t90 24h52v150q0 153 73 220.5t240 67.5q78 0 129 -32t51 -103q0 -52 -29 -81t-71 -29q-9 0 -26.5 3t-26.5 3q-41 0 -41 -66v-133h73q121 0 121 -98q0 -99 -121 -99h-73v-751q0 -72 -40.5 -111t-109.5 -39t-109 39t-40 111
zM817 123v1229q0 72 40.5 110.5t109.5 38.5t109 -38.5t40 -110.5v-1229q0 -72 -40 -111t-109 -39t-109.5 39t-40.5 111z" />
    </font>
</defs>
</svg>
