<?xml version="1.0" standalone="no"?>
<!DOCTYPE svg PUBLIC "-//W3C//DTD SVG 1.1//EN" "http://www.w3.org/Graphics/SVG/1.1/DTD/svg11.dtd" >
<svg xmlns="http://www.w3.org/2000/svg" xmlns:xlink="http://www.w3.org/1999/xlink" version="1.1">
<metadata>
Created by FontForge 20170731 at Fri Apr 28 10:27:58 2023
 By Aleksey,,,
Copyright (c) 2015 by Grilli Type. All rights reserved.
</metadata>
<defs>
<font id="GTEestiTextTrial-Bd" horiz-adv-x="520" >
  <font-face 
    font-family="GT Eesti Text Trial Bd"
    font-weight="400"
    font-stretch="normal"
    units-per-em="2048"
    panose-1="0 0 5 0 0 0 0 0 0 0"
    ascent="1536"
    descent="-512"
    x-height="946"
    cap-height="1434"
    bbox="-47 -442 2648 1516"
    underline-thickness="102"
    underline-position="-307"
    unicode-range="U+0020-1EF3"
  />
<missing-glyph horiz-adv-x="1126" 
d="M102 0v1434h922v-1434h-922zM371 821v-4q0 -25 -18.5 -46t-55.5 -21q-41 0 -62.5 28t-21.5 80q0 51 21.5 82t60.5 31q49 0 63 -47l62 24q-29 80 -123 80q-72 0 -112 -47t-40 -121q0 -72 37.5 -119t100.5 -47q65 0 88 41l8 -35h47v179h-137v-58h82zM616 1024v-59h66v59
h-66zM770 700v324h-59v-324h59zM864 700v324h-61v-324h61zM897 1024v-59h66v59h-66zM604 872v56q-12 4 -22 4q-38 0 -64 -43v37h-55v-226h59v103q0 31 15 51t47 20q14 0 20 -2zM618 926v-226h62v226h-62zM899 926v-226h62v226h-62zM623 633h-66v-62h66v62zM874 309h60v324
h-60v-324zM182 629v-60h90v-260h62v260h90v60h-242zM545 479v58q-6 2 -21 2q-42 0 -61 -43v36h-57v-223h61v101q0 71 57 71q13 0 21 -2zM788 309h60q-6 30 -6 43v82q0 55 -20.5 80t-73.5 25q-50 0 -76.5 -20t-28.5 -56h59q3 31 43 31q22 0 29.5 -11t7.5 -34q-62 -5 -102 -17
q-43 -17 -43 -59q0 -32 22 -51t56 -19q51 0 71 39q0 -23 2 -33zM621 532h-62v-223h62v223zM782 412v-6q0 -27 -13.5 -42.5t-35.5 -15.5q-16 0 -25.5 8t-9.5 19q0 27 47 33z" />
    <glyph glyph-name=".notdef" horiz-adv-x="1126" 
d="M102 0v1434h922v-1434h-922zM371 821v-4q0 -25 -18.5 -46t-55.5 -21q-41 0 -62.5 28t-21.5 80q0 51 21.5 82t60.5 31q49 0 63 -47l62 24q-29 80 -123 80q-72 0 -112 -47t-40 -121q0 -72 37.5 -119t100.5 -47q65 0 88 41l8 -35h47v179h-137v-58h82zM616 1024v-59h66v59
h-66zM770 700v324h-59v-324h59zM864 700v324h-61v-324h61zM897 1024v-59h66v59h-66zM604 872v56q-12 4 -22 4q-38 0 -64 -43v37h-55v-226h59v103q0 31 15 51t47 20q14 0 20 -2zM618 926v-226h62v226h-62zM899 926v-226h62v226h-62zM623 633h-66v-62h66v62zM874 309h60v324
h-60v-324zM182 629v-60h90v-260h62v260h90v60h-242zM545 479v58q-6 2 -21 2q-42 0 -61 -43v36h-57v-223h61v101q0 71 57 71q13 0 21 -2zM788 309h60q-6 30 -6 43v82q0 55 -20.5 80t-73.5 25q-50 0 -76.5 -20t-28.5 -56h59q3 31 43 31q22 0 29.5 -11t7.5 -34q-62 -5 -102 -17
q-43 -17 -43 -59q0 -32 22 -51t56 -19q51 0 71 39q0 -23 2 -33zM621 532h-62v-223h62v223zM782 412v-6q0 -27 -13.5 -42.5t-35.5 -15.5q-16 0 -25.5 8t-9.5 19q0 27 47 33z" />
    <glyph glyph-name=".null" horiz-adv-x="0" 
 />
    <glyph glyph-name="nonmarkingreturn" horiz-adv-x="682" 
 />
    <glyph glyph-name="space" unicode=" " horiz-adv-x="540" 
 />
    <glyph glyph-name="comma" unicode="," horiz-adv-x="569" 
d="M248 -342h-176l69 635h336z" />
    <glyph glyph-name="hyphen" unicode="-" horiz-adv-x="757" 
d="M74 682h610v-276h-610v276z" />
    <glyph glyph-name="period" unicode="." horiz-adv-x="530" 
d="M436 0h-342v362h342v-362z" />
    <glyph glyph-name="zero" unicode="0" horiz-adv-x="1255" 
d="M627 1413q265 0 410 -188.5t145 -532.5q0 -345 -145 -534t-410 -189q-264 0 -408.5 189.5t-144.5 533.5t144.5 532.5t408.5 188.5zM627 1122q-120 0 -183 -110.5t-63 -319.5t63.5 -320.5t182.5 -111.5q120 0 183.5 111.5t63.5 320.5q0 210 -63 320t-184 110z" />
    <glyph glyph-name="one" unicode="1" horiz-adv-x="811" 
d="M387 1382h240v-1382h-299v766q0 95 18 141l-8 4q-23 -33 -66 -53l-190 -92v297l262 182z" />
    <glyph glyph-name="two" unicode="2" horiz-adv-x="1157" 
d="M604 1413q201 0 309.5 -94.5t108.5 -271.5q0 -107 -45 -206t-160 -245l-176 -223q-61 -75 -106 -113l4 -6q77 25 233 25h332l2 -5l-160 -274h-936l-10 20l575 730q70 89 98.5 144.5t28.5 104.5q0 60 -36.5 92.5t-102.5 32.5q-138 0 -313 -125l-150 244q253 170 504 170z
" />
    <glyph glyph-name="three" unicode="3" horiz-adv-x="1064" 
d="M514 1411q207 0 317.5 -86.5t110.5 -249.5q0 -99 -45.5 -176t-122.5 -111q-58 -24 -137 -30v-8q72 0 137 -19q112 -31 175 -118.5t63 -213.5q0 -204 -137.5 -316t-387.5 -112q-106 0 -226.5 26.5t-209.5 68.5l111 280q164 -84 319 -84q107 0 168.5 44t61.5 120
q0 92 -84.5 129t-290.5 37v270q301 0 301 146q0 122 -172 122q-139 0 -287 -92l-127 246q206 127 463 127z" />
    <glyph glyph-name="four" unicode="4" horiz-adv-x="1210" 
d="M686 1382h295v-815q0 -44 -10 -61l4 -4q13 8 57 8h158l-88 -277h-70q-34 0 -57 9l-4 -4q10 -13 10 -62v-176h-287v176q0 51 8 62l-4 4q-23 -9 -55 -9h-623v228zM709 1036l-7 2q-24 -71 -106 -180l-188 -262q-45 -61 -86 -98l4 -4q37 16 133 16h184q42 0 55 -8l4 4
q-10 17 -10 61v322q0 68 17 147z" />
    <glyph glyph-name="five" unicode="5" horiz-adv-x="1044" 
d="M369 1382h665l-108 -288h-318q-40 0 -61 14l-4 -2q3 -25 -6 -64l-27 -98q-5 -23 -35 -53l2 -4q34 18 107 18q183 0 291 -117t108 -315q0 -244 -145.5 -374t-419.5 -130q-225 0 -418 97l109 272q167 -80 309 -80q118 0 186 57.5t68 157.5q0 101 -72.5 154t-210.5 53
q-137 0 -227 -35l-8 8z" />
    <glyph glyph-name="six" unicode="6" horiz-adv-x="1132" 
d="M535 1382h376l-397 -432q-94 -103 -141 -211l12 -4q54 105 121 154t156 49q192 0 311 -132.5t119 -346.5q0 -216 -144.5 -353t-374.5 -137q-236 0 -379 142.5t-143 377.5q0 159 50 288t171 282zM569 666q-95 0 -154 -56.5t-59 -148.5q0 -91 59 -147t154 -56
q94 0 152.5 56.5t58.5 148.5q0 91 -58.5 147t-152.5 56z" />
    <glyph glyph-name="seven" unicode="7" horiz-adv-x="1005" 
d="M117 1382h884l5 -8l-623 -1374h-338l430 897q11 23 29 60t27 56t21 42.5t21.5 38.5t18.5 26l-4 4q-62 -30 -182 -30h-406z" />
    <glyph glyph-name="eight" unicode="8" horiz-adv-x="1193" 
d="M596 -31q-243 0 -378.5 108t-135.5 300q0 143 78 237t213 113v8q-114 17 -183 100.5t-69 206.5q0 172 127.5 271.5t347.5 99.5q221 0 348 -99.5t127 -271.5q0 -122 -68.5 -206t-181.5 -101v-8q135 -19 213 -113t78 -237q0 -192 -136 -300t-380 -108zM596 860
q72 0 116 40.5t44 105.5q0 66 -44 106.5t-116 40.5q-71 0 -115.5 -40.5t-44.5 -106.5q0 -64 44.5 -105t115.5 -41zM596 256q89 0 143 49t54 129t-54 129t-143 49t-143 -49t-54 -129t54 -129t143 -49z" />
    <glyph glyph-name="nine" unicode="9" horiz-adv-x="1087" 
d="M526 1411q235 0 378 -143t143 -379q0 -152 -48 -275.5t-168 -285.5l-245 -328h-367l369 440q83 95 117 185l-11 4q-36 -82 -103.5 -127t-150.5 -45q-183 0 -301.5 131t-118.5 334q0 215 142 352t364 137zM537 1126q-91 0 -149 -55.5t-58 -144.5q0 -88 58 -143.5
t149 -55.5t148.5 55.5t57.5 143.5q0 89 -57.5 144.5t-148.5 55.5z" />
    <glyph glyph-name="A" unicode="A" horiz-adv-x="1499" 
d="M358 0h-348l707 1460h65l707 -1460h-348l-133 299h-514zM563 526l2 -2q32 11 92 11h185q60 0 92 -11l2 2q-27 30 -55 97l-82 194q-42 102 -45 148h-9q-3 -52 -43 -148l-81 -194q-31 -67 -58 -97z" />
    <glyph glyph-name="B" unicode="B" horiz-adv-x="1290" 
d="M756 0h-621v1434h596q189 0 300.5 -95t111.5 -256q0 -116 -54 -195t-153 -108q-65 -19 -123 -22v-8q61 0 127 -13q287 -60 287 -340q0 -186 -125.5 -291.5t-345.5 -105.5zM442 864l4 -4q16 8 58 8h151q85 0 130.5 40.5t45.5 115.5q0 71 -45 108t-131 37h-151
q-42 0 -58 11l-4 -4q11 -18 11 -60v-192q0 -42 -11 -60zM442 258l4 -4q2 0 20.5 5t39.5 5h184q103 0 156 45t53 133q0 164 -211 164h-184q-43 0 -58 10l-4 -4q11 -18 11 -63v-230q0 -43 -11 -61z" />
    <glyph glyph-name="C" unicode="C" horiz-adv-x="1392" 
d="M829 -31q-169 0 -313.5 56t-246 154.5t-159 237t-57.5 300.5q0 216 98 386t275.5 265.5t402.5 95.5q294 0 523 -159l-162 -258q-171 110 -354 110q-200 0 -324.5 -122t-124.5 -318q0 -195 125 -318t324 -123q181 0 354 111l162 -258q-231 -160 -523 -160z" />
    <glyph glyph-name="D" unicode="D" horiz-adv-x="1419" 
d="M135 1434h465q355 0 560.5 -192.5t205.5 -524.5t-205.5 -524.5t-560.5 -192.5h-465v1434zM446 1161l-4 -4q11 -18 11 -63v-754q0 -46 -11 -64l4 -4q16 11 58 11h121q192 0 300.5 115.5t108.5 318.5t-108.5 318.5t-300.5 115.5h-121q-43 0 -58 10z" />
    <glyph glyph-name="E" unicode="E" horiz-adv-x="1114" 
d="M135 1434h889v-283h-520q-41 0 -58 10l-4 -4q11 -18 11 -61v-144q0 -45 -11 -63l4 -4q17 10 58 10h465v-279h-465q-40 0 -58 11l-4 -4q11 -18 11 -62v-223q0 -44 -11 -62l4 -4q18 11 58 11h528v-283h-897v1434z" />
    <glyph glyph-name="F" unicode="F" horiz-adv-x="1062" 
d="M135 1434h905v-283h-536q-41 0 -58 10l-4 -4q11 -18 11 -61v-183q0 -41 -11 -59l4 -4q17 10 58 10h477v-282h-477q-41 0 -58 10l-4 -4q11 -18 11 -64v-520h-318v1434z" />
    <glyph glyph-name="G" unicode="G" horiz-adv-x="1566" 
d="M825 1464q312 0 555 -178l-180 -258q-83 61 -184 95t-201 34q-195 0 -315.5 -120t-120.5 -314q0 -201 117.5 -324t310.5 -123q97 0 172 25.5t120 70t69.5 95.5t31.5 111l-4 4q-32 -23 -131 -23h-262v266h713v-65q0 -171 -43.5 -314t-128.5 -250t-220.5 -167t-308.5 -60
q-340 0 -551 207t-211 543q0 220 96 389.5t271.5 262.5t404.5 93z" />
    <glyph glyph-name="H" unicode="H" horiz-adv-x="1509" 
d="M1057 1434h317v-1434h-317v557q0 44 10 61l-4 5q-22 -11 -57 -11h-502q-40 0 -58 11l-4 -5q11 -18 11 -61v-557h-318v1434h318v-476q0 -45 -11 -63l4 -4q17 10 58 10h502q37 0 57 -10l4 4q-10 17 -10 63v476z" />
    <glyph glyph-name="I" unicode="I" horiz-adv-x="587" 
d="M135 1434h318v-1434h-318v1434z" />
    <glyph glyph-name="J" unicode="J" horiz-adv-x="700" 
d="M248 1434h317v-1037q0 -209 -92.5 -308t-284.5 -99q-42 0 -155 10v291q52 -6 110 -6q54 0 79.5 34t25.5 107v1008z" />
    <glyph glyph-name="K" unicode="K" horiz-adv-x="1456" 
d="M940 1434h418l-467 -543q-80 -92 -133 -125v-8q32 -18 56.5 -41t68.5 -74l571 -643h-430l-588 702l-6 -2q23 -78 23 -184v-516h-318v1434h318v-441q0 -115 -23 -190l6 -4z" />
    <glyph glyph-name="L" unicode="L" horiz-adv-x="1038" 
d="M135 1434h318v-1090q0 -43 -11 -61l4 -4q17 10 58 10h524v-289h-893v1434z" />
    <glyph glyph-name="M" unicode="M" horiz-adv-x="1974" 
d="M1010 -14h-45l-312 641q-27 59 -36.5 93t-12.5 79h-8q-6 -84 -35 -176l-205 -623h-346l533 1454h57l346 -772q18 -40 25 -68t12 -73h8q4 31 6.5 47.5t10 41t20.5 52.5l346 772h56l532 -1454h-344l-205 623q-29 92 -35 176h-8q-3 -46 -13 -79.5t-38 -92.5z" />
    <glyph glyph-name="N" unicode="N" horiz-adv-x="1478" 
d="M135 1454h68l747 -747q60 -59 94 -127l9 2q-23 77 -23 249v603h313v-1454h-69l-748 747q-36 36 -54 61.5t-40 67.5l-8 -2q25 -73 25 -252v-602h-314v1454z" />
    <glyph glyph-name="O" unicode="O" horiz-adv-x="1615" 
d="M809 1464q162 0 302 -56t239.5 -154.5t156 -237.5t56.5 -299q0 -214 -96.5 -385t-269 -267t-388.5 -96q-217 0 -390 96t-269.5 267t-96.5 385q0 161 56.5 299.5t156 237t240 154.5t303.5 56zM809 1157q-192 0 -311 -122.5t-119 -317.5t119 -318t311 -123q190 0 309 123
t119 318t-119 317.5t-309 122.5z" />
    <glyph glyph-name="P" unicode="P" horiz-adv-x="1196" 
d="M135 1434h531q242 0 375 -116t133 -327t-129.5 -327.5t-362.5 -116.5h-178q-43 0 -58 10l-4 -4q11 -18 11 -61v-492h-318v1434zM446 1171l-4 -4q11 -18 11 -61v-229q0 -46 -11 -64l4 -4q15 10 58 10h172q84 0 134 47t50 125t-49.5 124t-134.5 46h-172q-43 0 -58 10z" />
    <glyph glyph-name="Q" unicode="Q" horiz-adv-x="1648" 
d="M1595 -10h-778q-219 0 -393.5 94t-272.5 262t-98 379q0 214 97.5 383t272 262.5t396.5 93.5q158 0 296.5 -52.5t236.5 -144t154.5 -219.5t56.5 -274q0 -176 -64 -294.5t-203 -205.5q-72 -45 -225 -104v-10q239 80 393 80h131v-250zM817 293q186 0 301 121.5t115 318.5
q0 189 -116.5 306.5t-303.5 117.5q-194 0 -314 -119.5t-120 -312.5q0 -192 122 -312t316 -120z" />
    <glyph glyph-name="R" unicode="R" horiz-adv-x="1341" 
d="M135 1434h545q229 0 356 -108t127 -302q0 -168 -100 -283.5t-240 -115.5q-31 0 -43 2v-4q85 -23 160 -119l401 -504h-387l-442 592q-23 0 -41 6q-21 6 -33 12l-4 -4q19 -46 19 -108v-498h-318v1434zM446 1171l-4 -4q11 -18 11 -61v-207q0 -45 -11 -63l4 -5q16 11 58 11
h174q78 0 122 43t44 119q0 72 -44 114.5t-122 42.5h-174q-43 0 -58 10z" />
    <glyph glyph-name="S" unicode="S" horiz-adv-x="1118" 
d="M586 1464q234 0 452 -110l-139 -277q-169 94 -311 94q-137 0 -137 -81q0 -34 22 -60t86 -65l240 -154q143 -91 205.5 -187.5t62.5 -228.5q0 -205 -135.5 -315.5t-384.5 -110.5q-280 0 -527 144l144 284q203 -133 395 -133q87 0 134.5 31t47.5 86q0 40 -30.5 75.5
t-106.5 82.5l-221 141q-258 164 -258 405q0 177 122.5 278t338.5 101z" />
    <glyph glyph-name="T" unicode="T" horiz-adv-x="1110" 
d="M10 1434h1088v-289h-334q-36 0 -53 10l-4 -4q6 -15 6 -61v-1090h-318v1090q0 41 8 61l-4 4q-17 -10 -53 -10h-336v289z" />
    <glyph glyph-name="U" unicode="U" horiz-adv-x="1456" 
d="M1012 1434h321v-861q0 -286 -158.5 -443t-445.5 -157q-288 0 -447 157.5t-159 442.5v861h323v-844q0 -142 76 -224.5t207 -82.5q130 0 206.5 82.5t76.5 224.5v844z" />
    <glyph glyph-name="V" unicode="V" horiz-adv-x="1425" 
d="M1051 1434h374l-682 -1448h-61l-682 1448h375l276 -680q50 -125 58 -195h8q13 85 59 195z" />
    <glyph glyph-name="W" unicode="W" horiz-adv-x="2045" 
d="M1001 1454h43l299 -666q26 -59 36.5 -91.5t17.5 -88.5h8q12 98 43 187l225 639h363l-588 -1448h-66l-307 680q-36 81 -47 157h-8q-10 -69 -49 -157l-307 -680h-66l-588 1448h365l223 -639q34 -98 45 -187h8q7 56 17.5 88.5t36.5 91.5z" />
    <glyph glyph-name="X" unicode="X" horiz-adv-x="1503" 
d="M1034 1434h406l-404 -564q-59 -88 -90 -112v-6q5 -3 9.5 -7.5t11 -11.5t10.5 -12t12.5 -16.5t13 -17.5t15.5 -21.5t16 -22.5l457 -643h-404l-278 422q-50 73 -61 137h-9q-10 -60 -57 -137l-268 -422h-404l455 655q67 95 90 111v8q-28 20 -92 109l-400 551h404l223 -340
q57 -88 64 -138h8q7 52 63 138z" />
    <glyph glyph-name="Y" unicode="Y" horiz-adv-x="1374" 
d="M987 1434h377l-518 -926v-508h-318v508l-518 926h377l221 -465q7 -14 19 -38.5t16 -33.5t11.5 -25.5t10.5 -24.5t7.5 -21t7.5 -24.5t6 -25.5h4q3 14 5 25t7 25l7.5 21t10.5 25t11.5 25t16 33.5t18.5 38.5z" />
    <glyph glyph-name="Z" unicode="Z" horiz-adv-x="1349" 
d="M254 1434h1067l4 -11l-793 -1161l9 -4q39 23 84.5 31t122.5 8h589l-157 -297h-1164l-6 10l801 1164l-6 4q-63 -39 -209 -39h-494z" />
    <glyph glyph-name="a" unicode="a" horiz-adv-x="1083" 
d="M532 977q244 0 350.5 -88t106.5 -289v-600h-309q0 106 33 188l-11 7q-99 -226 -331 -226q-153 0 -245.5 91t-92.5 241q0 148 93.5 236t248.5 88q221 0 323 -176l9 4q-17 52 -17 151q0 57 -52.5 90t-143.5 33q-119 0 -289 -31l-43 246q187 35 370 35zM496 442
q-58 0 -94.5 -33.5t-36.5 -86.5q0 -54 36.5 -87.5t94.5 -33.5t95.5 34t37.5 87t-37.5 86.5t-95.5 33.5z" />
    <glyph glyph-name="b" unicode="b" horiz-adv-x="1230" 
d="M745 -31q-126 0 -217 64.5t-131 181.5l-8 -2q17 -105 17 -213h-302v1464h310v-460q0 -165 -27 -271l8 -2q100 246 350 246q195 0 315 -139.5t120 -366.5t-119 -364.5t-316 -137.5zM631 246q106 0 168.5 61.5t62.5 165.5t-63 165.5t-168 61.5q-106 0 -169 -62t-63 -165
t63 -165t169 -62z" />
    <glyph glyph-name="c" unicode="c" horiz-adv-x="944" 
d="M578 -31q-233 0 -380 140.5t-147 363.5t147 363.5t380 140.5q187 0 342 -92l-125 -248q-92 57 -203 57q-101 0 -165.5 -61.5t-64.5 -159.5q0 -97 64.5 -159t165.5 -62q111 0 203 57l125 -248q-155 -92 -342 -92z" />
    <glyph glyph-name="d" unicode="d" horiz-adv-x="1230" 
d="M487 -31q-198 0 -317 137.5t-119 364.5t120 366.5t316 139.5q251 0 351 -246l8 2q-29 101 -29 271v460h309v-1464h-301q0 113 19 213l-8 2q-41 -117 -132.5 -181.5t-216.5 -64.5zM600 246q105 0 168 62t63 165t-63 165t-168 62t-168 -61.5t-63 -165.5t62.5 -165.5
t168.5 -61.5z" />
    <glyph glyph-name="e" unicode="e" horiz-adv-x="1064" 
d="M553 975q220 0 344.5 -130.5t124.5 -367.5v-82h-561q-44 0 -66.5 4.5t-44.5 20.5l-4 -6l8 -23q42 -168 236 -168q145 0 274 84l103 -235q-174 -103 -375 -103q-248 0 -394.5 135t-146.5 371q0 230 139.5 365t362.5 135zM541 745q-82 0 -135.5 -46.5t-63.5 -129.5l4 -6
q16 19 86 19h207q63 0 78 -17l4 4q-4 86 -52 131t-128 45z" />
    <glyph glyph-name="f" unicode="f" horiz-adv-x="741" 
d="M655 1454h64v-280h-25q-107 0 -150.5 -33.5t-43.5 -120.5v-14q0 -41 -15 -70l4 -4q25 14 93 14h137v-260h-137q-70 0 -93 14l-4 -4q15 -27 15 -116v-580h-310v580q0 89 15 116l-4 4q-23 -14 -92 -14h-86v260h86q67 0 92 -14l4 4q-15 29 -15 70v14q0 225 116.5 329.5
t348.5 104.5z" />
    <glyph glyph-name="g" unicode="g" horiz-adv-x="1230" 
d="M487 977q243 0 349 -246l8 2q-27 100 -27 213h309v-864q0 -141 -39.5 -244t-113.5 -163t-170 -88.5t-219 -28.5q-277 0 -484 120l131 252q169 -88 330 -88q125 0 194.5 53t69.5 160v19q0 42 19 139l-8 2q-61 -117 -146.5 -172t-204.5 -55q-195 0 -314.5 130.5
t-119.5 352.5q0 230 121.5 368t314.5 138zM588 694q-95 0 -157 -60t-62 -161t62 -161t157 -60q96 0 159.5 61t63.5 160t-63.5 160t-159.5 61z" />
    <glyph glyph-name="h" unicode="h" horiz-adv-x="1173" 
d="M104 1464h310v-436q0 -169 -23 -293l8 -4q50 119 128.5 182.5t207.5 63.5q161 0 251.5 -98t90.5 -287v-592h-307v506q0 108 -41.5 154.5t-120.5 46.5q-88 0 -141 -61t-53 -189v-457h-310v1464z" />
    <glyph glyph-name="i" unicode="i" 
d="M92 1434h334v-344h-334v344zM104 946h310v-946h-310v946z" />
    <glyph glyph-name="j" unicode="j" 
d="M92 1434h334v-344h-334v344zM104 946h310v-975q0 -411 -432 -411h-29v284h18q133 0 133 146v956z" />
    <glyph glyph-name="k" unicode="k" horiz-adv-x="1134" 
d="M104 1464h310v-702q0 -151 -35 -232l6 -2l354 418h371l-326 -352q-67 -70 -102 -78v-8q32 -8 84 -68l369 -440h-392l-358 467l-6 -4q35 -72 35 -213v-250h-310v1464z" />
    <glyph glyph-name="l" unicode="l" 
d="M104 1464h310v-1464h-310v1464z" />
    <glyph glyph-name="m" unicode="m" horiz-adv-x="1779" 
d="M414 0h-310v946h304q0 -90 -23 -194l8 -4q54 119 130 174t196 55q126 0 196 -59.5t101 -174.5h8q94 234 330 234q155 0 243.5 -94t88.5 -283v-600h-310v502q0 111 -40 157t-115 46q-177 0 -177 -246v-459h-296v506q0 108 -41 153.5t-115 45.5q-178 0 -178 -246v-459z" />
    <glyph glyph-name="n" unicode="n" horiz-adv-x="1173" 
d="M745 977q160 0 246 -97.5t86 -287.5v-592h-307v506q0 100 -42 150.5t-118 50.5q-196 0 -196 -250v-457h-310v946h306q0 -123 -19 -213l8 -4q102 248 346 248z" />
    <glyph glyph-name="o" unicode="o" horiz-adv-x="1167" 
d="M584 977q231 0 380.5 -139.5t149.5 -364.5t-149.5 -364.5t-380.5 -139.5q-233 0 -383 139.5t-150 364.5t150 364.5t383 139.5zM584 694q-96 0 -159 -61t-63 -160t63 -160t159 -61t158.5 60.5t62.5 160.5t-62.5 160.5t-158.5 60.5z" />
    <glyph glyph-name="p" unicode="p" horiz-adv-x="1230" 
d="M743 977q193 0 315 -138t122 -368q0 -229 -120 -365.5t-315 -136.5q-121 0 -212 62t-136 184l-8 -2q19 -117 19 -184v-439h-304v1356h306q0 -122 -23 -213l8 -2q106 246 348 246zM631 700q-105 0 -168.5 -61.5t-63.5 -165.5t63.5 -165.5t168.5 -61.5t168 61t63 166
t-63.5 166t-167.5 61z" />
    <glyph glyph-name="q" unicode="q" horiz-adv-x="1230" 
d="M489 977q239 0 349 -246l8 2q-25 87 -25 213h305v-1356h-301v439q0 84 19 184l-8 2q-46 -122 -138 -184t-213 -62q-195 0 -314.5 136.5t-119.5 365.5q0 231 122 368.5t316 137.5zM600 700q-104 0 -167.5 -61t-63.5 -166t63 -166t168 -61t168 61.5t63 165.5t-63 165.5
t-168 61.5z" />
    <glyph glyph-name="r" unicode="r" horiz-adv-x="763" 
d="M678 975q34 0 74 -4v-303q-47 4 -93 4q-121 0 -183 -67t-62 -220v-385h-310v946h293q0 -161 -28 -311l8 -2q70 342 301 342z" />
    <glyph glyph-name="s" unicode="s" horiz-adv-x="876" 
d="M432 -31q-227 0 -420 99l115 243q153 -100 326 -100q50 0 71 10t21 35q0 18 -11.5 27.5t-52.5 27.5l-170 70q-223 88 -223 293q0 145 103.5 224t291.5 79q153 0 342 -62l-88 -239q-143 65 -270 65q-82 0 -82 -41q0 -20 15.5 -32t64.5 -33l158 -62q117 -47 169 -113.5
t52 -170.5q0 -152 -108 -236t-304 -84z" />
    <glyph glyph-name="t" unicode="t" horiz-adv-x="710" 
d="M469 1452h31v-434q0 -55 -15 -82l4 -4q25 14 93 14h104v-260h-104q-70 0 -93 14l-4 -4q15 -27 15 -116v-580h-310v580q0 89 15 116l-4 4q-23 -14 -92 -14h-86v260h86q67 0 92 -14l4 4q-15 27 -15 82v246z" />
    <glyph glyph-name="u" unicode="u" horiz-adv-x="1159" 
d="M745 946h310v-946h-301q0 108 30 238l-8 2q-49 -135 -129 -203t-205 -68q-156 0 -252 100t-96 291v586h318v-493q0 -103 41.5 -153t115.5 -50q77 0 126.5 56t49.5 173v467z" />
    <glyph glyph-name="v" unicode="v" horiz-adv-x="1099" 
d="M758 946h340l-492 -966h-110l-494 966h342l150 -354q3 -7 11.5 -26.5t11 -25.5t8.5 -22t8.5 -24.5t6 -22.5t5.5 -27.5t4 -29.5h4q4 36 12 66.5t16 49.5t27 62z" />
    <glyph glyph-name="w" unicode="w" horiz-adv-x="1583" 
d="M537 -20h-84l-451 966h338l115 -287q32 -78 43.5 -112.5t17.5 -75.5h8q7 43 20.5 76t55.5 115l154 305h75l154 -305q42 -82 55.5 -115t20.5 -76h8q7 41 18 74.5t43 113.5l117 287h338l-453 -966h-83l-168 331q-5 10 -15.5 31.5t-14 28t-11.5 22.5t-10.5 22t-8 18.5
t-7.5 19t-5.5 16.5t-5.5 18.5t-4 18.5h-9q-10 -42 -25 -77.5t-56 -117.5z" />
    <glyph glyph-name="x" unicode="x" horiz-adv-x="1163" 
d="M375 0h-365l330 438q28 41 57 58v6q-37 26 -53 51l-299 393h367l110 -162q48 -67 58 -133h8q10 65 55 133l109 162h366l-299 -395q-26 -36 -55 -51v-6q27 -14 57 -58l330 -436h-365l-155 213q-39 54 -47 131h-9q-13 -76 -51 -131z" />
    <glyph glyph-name="y" unicode="y" horiz-adv-x="1099" 
d="M766 946h332l-604 -1356h-310l222 484l-404 872h332l158 -371q26 -63 37.5 -111.5t15.5 -121.5l8 2q6 92 43 180z" />
    <glyph glyph-name="z" unicode="z" horiz-adv-x="1024" 
d="M858 0h-862l-4 10l557 715l-6 6q-38 -22 -74 -30.5t-104 -8.5h-287l145 254h797l4 -10l-545 -713l8 -6q35 23 73.5 30t119.5 7h334z" />
    <glyph glyph-name="ordfeminine" unicode="&#xaa;" horiz-adv-x="1083" 
d="M532 977q244 0 350.5 -88t106.5 -289v-600h-309q0 106 33 188l-11 7q-99 -226 -331 -226q-153 0 -245.5 91t-92.5 241q0 148 93.5 236t248.5 88q221 0 323 -176l9 4q-17 52 -17 151q0 57 -52.5 90t-143.5 33q-119 0 -289 -31l-43 246q187 35 370 35zM496 442
q-58 0 -94.5 -33.5t-36.5 -86.5q0 -54 36.5 -87.5t94.5 -33.5t95.5 34t37.5 87t-37.5 86.5t-95.5 33.5z" />
    <glyph glyph-name="ordmasculine" unicode="&#xba;" horiz-adv-x="1167" 
d="M584 977q231 0 380.5 -139.5t149.5 -364.5t-149.5 -364.5t-380.5 -139.5q-233 0 -383 139.5t-150 364.5t150 364.5t383 139.5zM584 694q-96 0 -159 -61t-63 -160t63 -160t159 -61t158.5 60.5t62.5 160.5t-62.5 160.5t-158.5 60.5z" />
    <glyph glyph-name="Agrave" unicode="&#xc0;" horiz-adv-x="1499" 
d="M358 0h-348l707 1460h65l707 -1460h-348l-133 299h-514zM563 526l2 -2q32 11 92 11h185q60 0 92 -11l2 2q-27 30 -55 97l-82 194q-42 102 -45 148h-9q-3 -52 -43 -148l-81 -194q-31 -67 -58 -97z" />
    <glyph glyph-name="Aacute" unicode="&#xc1;" horiz-adv-x="1499" 
d="M358 0h-348l707 1460h65l707 -1460h-348l-133 299h-514zM563 526l2 -2q32 11 92 11h185q60 0 92 -11l2 2q-27 30 -55 97l-82 194q-42 102 -45 148h-9q-3 -52 -43 -148l-81 -194q-31 -67 -58 -97z" />
    <glyph glyph-name="Acircumflex" unicode="&#xc2;" horiz-adv-x="1499" 
d="M358 0h-348l707 1460h65l707 -1460h-348l-133 299h-514zM563 526l2 -2q32 11 92 11h185q60 0 92 -11l2 2q-27 30 -55 97l-82 194q-42 102 -45 148h-9q-3 -52 -43 -148l-81 -194q-31 -67 -58 -97z" />
    <glyph glyph-name="Atilde" unicode="&#xc3;" horiz-adv-x="1499" 
d="M358 0h-348l707 1460h65l707 -1460h-348l-133 299h-514zM563 526l2 -2q32 11 92 11h185q60 0 92 -11l2 2q-27 30 -55 97l-82 194q-42 102 -45 148h-9q-3 -52 -43 -148l-81 -194q-31 -67 -58 -97z" />
    <glyph glyph-name="Adieresis" unicode="&#xc4;" horiz-adv-x="1499" 
d="M358 0h-348l707 1460h65l707 -1460h-348l-133 299h-514zM563 526l2 -2q32 11 92 11h185q60 0 92 -11l2 2q-27 30 -55 97l-82 194q-42 102 -45 148h-9q-3 -52 -43 -148l-81 -194q-31 -67 -58 -97z" />
    <glyph glyph-name="Aring" unicode="&#xc5;" horiz-adv-x="1499" 
d="M358 0h-348l707 1460h65l707 -1460h-348l-133 299h-514zM563 526l2 -2q32 11 92 11h185q60 0 92 -11l2 2q-27 30 -55 97l-82 194q-42 102 -45 148h-9q-3 -52 -43 -148l-81 -194q-31 -67 -58 -97z" />
    <glyph glyph-name="AE" unicode="&#xc6;" horiz-adv-x="2615" 
d="M358 0h-348l707 1460h65l707 -1460h-348l-133 299h-514zM1634 1434h889v-283h-520q-40 0 -57 10l-4 -4q10 -17 10 -61v-144q0 -46 -10 -63l4 -4q17 10 57 10h465v-279h-465q-39 0 -57 11l-4 -4q10 -17 10 -62v-223q0 -45 -10 -62l4 -4q18 11 57 11h528v-283h-897v1434z
M563 526l2 -2q32 11 92 11h185q60 0 92 -11l2 2q-27 30 -55 97l-82 194q-42 102 -45 148h-9q-3 -52 -43 -148l-81 -194q-31 -67 -58 -97z" />
    <glyph glyph-name="Ccedilla" unicode="&#xc7;" horiz-adv-x="1392" 
d="M829 -31q-169 0 -313.5 56t-246 154.5t-159 237t-57.5 300.5q0 216 98 386t275.5 265.5t402.5 95.5q294 0 523 -159l-162 -258q-171 110 -354 110q-200 0 -324.5 -122t-124.5 -318q0 -195 125 -318t324 -123q181 0 354 111l162 -258q-231 -160 -523 -160z" />
    <glyph glyph-name="Egrave" unicode="&#xc8;" horiz-adv-x="1114" 
d="M135 1434h889v-283h-520q-41 0 -58 10l-4 -4q11 -18 11 -61v-144q0 -45 -11 -63l4 -4q17 10 58 10h465v-279h-465q-40 0 -58 11l-4 -4q11 -18 11 -62v-223q0 -44 -11 -62l4 -4q18 11 58 11h528v-283h-897v1434z" />
    <glyph glyph-name="Eacute" unicode="&#xc9;" horiz-adv-x="1114" 
d="M135 1434h889v-283h-520q-41 0 -58 10l-4 -4q11 -18 11 -61v-144q0 -45 -11 -63l4 -4q17 10 58 10h465v-279h-465q-40 0 -58 11l-4 -4q11 -18 11 -62v-223q0 -44 -11 -62l4 -4q18 11 58 11h528v-283h-897v1434z" />
    <glyph glyph-name="Ecircumflex" unicode="&#xca;" horiz-adv-x="1114" 
d="M135 1434h889v-283h-520q-41 0 -58 10l-4 -4q11 -18 11 -61v-144q0 -45 -11 -63l4 -4q17 10 58 10h465v-279h-465q-40 0 -58 11l-4 -4q11 -18 11 -62v-223q0 -44 -11 -62l4 -4q18 11 58 11h528v-283h-897v1434z" />
    <glyph glyph-name="Edieresis" unicode="&#xcb;" horiz-adv-x="1114" 
d="M135 1434h889v-283h-520q-41 0 -58 10l-4 -4q11 -18 11 -61v-144q0 -45 -11 -63l4 -4q17 10 58 10h465v-279h-465q-40 0 -58 11l-4 -4q11 -18 11 -62v-223q0 -44 -11 -62l4 -4q18 11 58 11h528v-283h-897v1434z" />
    <glyph glyph-name="Igrave" unicode="&#xcc;" horiz-adv-x="587" 
d="M135 1434h318v-1434h-318v1434z" />
    <glyph glyph-name="Iacute" unicode="&#xcd;" horiz-adv-x="587" 
d="M135 1434h318v-1434h-318v1434z" />
    <glyph glyph-name="Icircumflex" unicode="&#xce;" horiz-adv-x="587" 
d="M135 1434h318v-1434h-318v1434z" />
    <glyph glyph-name="Idieresis" unicode="&#xcf;" horiz-adv-x="587" 
d="M135 1434h318v-1434h-318v1434z" />
    <glyph glyph-name="Eth" unicode="&#xd0;" horiz-adv-x="1419" 
d="M135 1434h465q355 0 560.5 -192.5t205.5 -524.5t-205.5 -524.5t-560.5 -192.5h-465v1434zM446 1161l-4 -4q11 -18 11 -63v-754q0 -46 -11 -64l4 -4q16 11 58 11h121q192 0 300.5 115.5t108.5 318.5t-108.5 318.5t-300.5 115.5h-121q-43 0 -58 10z" />
    <glyph glyph-name="Ntilde" unicode="&#xd1;" horiz-adv-x="1478" 
d="M135 1454h68l747 -747q60 -59 94 -127l9 2q-23 77 -23 249v603h313v-1454h-69l-748 747q-36 36 -54 61.5t-40 67.5l-8 -2q25 -73 25 -252v-602h-314v1454z" />
    <glyph glyph-name="Ograve" unicode="&#xd2;" horiz-adv-x="1615" 
d="M809 1464q162 0 302 -56t239.5 -154.5t156 -237.5t56.5 -299q0 -214 -96.5 -385t-269 -267t-388.5 -96q-217 0 -390 96t-269.5 267t-96.5 385q0 161 56.5 299.5t156 237t240 154.5t303.5 56zM809 1157q-192 0 -311 -122.5t-119 -317.5t119 -318t311 -123q190 0 309 123
t119 318t-119 317.5t-309 122.5z" />
    <glyph glyph-name="Oacute" unicode="&#xd3;" horiz-adv-x="1615" 
d="M809 1464q162 0 302 -56t239.5 -154.5t156 -237.5t56.5 -299q0 -214 -96.5 -385t-269 -267t-388.5 -96q-217 0 -390 96t-269.5 267t-96.5 385q0 161 56.5 299.5t156 237t240 154.5t303.5 56zM809 1157q-192 0 -311 -122.5t-119 -317.5t119 -318t311 -123q190 0 309 123
t119 318t-119 317.5t-309 122.5z" />
    <glyph glyph-name="Ocircumflex" unicode="&#xd4;" horiz-adv-x="1615" 
d="M809 1464q162 0 302 -56t239.5 -154.5t156 -237.5t56.5 -299q0 -214 -96.5 -385t-269 -267t-388.5 -96q-217 0 -390 96t-269.5 267t-96.5 385q0 161 56.5 299.5t156 237t240 154.5t303.5 56zM809 1157q-192 0 -311 -122.5t-119 -317.5t119 -318t311 -123q190 0 309 123
t119 318t-119 317.5t-309 122.5z" />
    <glyph glyph-name="Otilde" unicode="&#xd5;" horiz-adv-x="1615" 
d="M809 1464q162 0 302 -56t239.5 -154.5t156 -237.5t56.5 -299q0 -214 -96.5 -385t-269 -267t-388.5 -96q-217 0 -390 96t-269.5 267t-96.5 385q0 161 56.5 299.5t156 237t240 154.5t303.5 56zM809 1157q-192 0 -311 -122.5t-119 -317.5t119 -318t311 -123q190 0 309 123
t119 318t-119 317.5t-309 122.5z" />
    <glyph glyph-name="Odieresis" unicode="&#xd6;" horiz-adv-x="1615" 
d="M809 1464q162 0 302 -56t239.5 -154.5t156 -237.5t56.5 -299q0 -214 -96.5 -385t-269 -267t-388.5 -96q-217 0 -390 96t-269.5 267t-96.5 385q0 161 56.5 299.5t156 237t240 154.5t303.5 56zM809 1157q-192 0 -311 -122.5t-119 -317.5t119 -318t311 -123q190 0 309 123
t119 318t-119 317.5t-309 122.5z" />
    <glyph glyph-name="Oslash" unicode="&#xd8;" horiz-adv-x="1615" 
d="M809 1464q162 0 302 -56t239.5 -154.5t156 -237.5t56.5 -299q0 -214 -96.5 -385t-269 -267t-388.5 -96q-217 0 -390 96t-269.5 267t-96.5 385q0 161 56.5 299.5t156 237t240 154.5t303.5 56zM809 1157q-192 0 -311 -122.5t-119 -317.5t119 -318t311 -123q190 0 309 123
t119 318t-119 317.5t-309 122.5z" />
    <glyph glyph-name="Ugrave" unicode="&#xd9;" horiz-adv-x="1456" 
d="M1012 1434h321v-861q0 -286 -158.5 -443t-445.5 -157q-288 0 -447 157.5t-159 442.5v861h323v-844q0 -142 76 -224.5t207 -82.5q130 0 206.5 82.5t76.5 224.5v844z" />
    <glyph glyph-name="Uacute" unicode="&#xda;" horiz-adv-x="1456" 
d="M1012 1434h321v-861q0 -286 -158.5 -443t-445.5 -157q-288 0 -447 157.5t-159 442.5v861h323v-844q0 -142 76 -224.5t207 -82.5q130 0 206.5 82.5t76.5 224.5v844z" />
    <glyph glyph-name="Ucircumflex" unicode="&#xdb;" horiz-adv-x="1456" 
d="M1012 1434h321v-861q0 -286 -158.5 -443t-445.5 -157q-288 0 -447 157.5t-159 442.5v861h323v-844q0 -142 76 -224.5t207 -82.5q130 0 206.5 82.5t76.5 224.5v844z" />
    <glyph glyph-name="Udieresis" unicode="&#xdc;" horiz-adv-x="1456" 
d="M1012 1434h321v-861q0 -286 -158.5 -443t-445.5 -157q-288 0 -447 157.5t-159 442.5v861h323v-844q0 -142 76 -224.5t207 -82.5q130 0 206.5 82.5t76.5 224.5v844z" />
    <glyph glyph-name="Yacute" unicode="&#xdd;" horiz-adv-x="1374" 
d="M987 1434h377l-518 -926v-508h-318v508l-518 926h377l221 -465q7 -14 19 -38.5t16 -33.5t11.5 -25.5t10.5 -24.5t7.5 -21t7.5 -24.5t6 -25.5h4q3 14 5 25t7 25l7.5 21t10.5 25t11.5 25t16 33.5t18.5 38.5z" />
    <glyph glyph-name="Thorn" unicode="&#xde;" horiz-adv-x="1196" 
d="M135 1434h531q242 0 375 -116t133 -327t-129.5 -327.5t-362.5 -116.5h-178q-43 0 -58 10l-4 -4q11 -18 11 -61v-492h-318v1434zM446 1171l-4 -4q11 -18 11 -61v-229q0 -46 -11 -64l4 -4q15 10 58 10h172q84 0 134 47t50 125t-49.5 124t-134.5 46h-172q-43 0 -58 10z" />
    <glyph glyph-name="agrave" unicode="&#xe0;" horiz-adv-x="1083" 
d="M532 977q244 0 350.5 -88t106.5 -289v-600h-309q0 106 33 188l-11 7q-99 -226 -331 -226q-153 0 -245.5 91t-92.5 241q0 148 93.5 236t248.5 88q221 0 323 -176l9 4q-17 52 -17 151q0 57 -52.5 90t-143.5 33q-119 0 -289 -31l-43 246q187 35 370 35zM496 442
q-58 0 -94.5 -33.5t-36.5 -86.5q0 -54 36.5 -87.5t94.5 -33.5t95.5 34t37.5 87t-37.5 86.5t-95.5 33.5z" />
    <glyph glyph-name="aacute" unicode="&#xe1;" horiz-adv-x="1083" 
d="M532 977q244 0 350.5 -88t106.5 -289v-600h-309q0 106 33 188l-11 7q-99 -226 -331 -226q-153 0 -245.5 91t-92.5 241q0 148 93.5 236t248.5 88q221 0 323 -176l9 4q-17 52 -17 151q0 57 -52.5 90t-143.5 33q-119 0 -289 -31l-43 246q187 35 370 35zM496 442
q-58 0 -94.5 -33.5t-36.5 -86.5q0 -54 36.5 -87.5t94.5 -33.5t95.5 34t37.5 87t-37.5 86.5t-95.5 33.5z" />
    <glyph glyph-name="acircumflex" unicode="&#xe2;" horiz-adv-x="1083" 
d="M532 977q244 0 350.5 -88t106.5 -289v-600h-309q0 106 33 188l-11 7q-99 -226 -331 -226q-153 0 -245.5 91t-92.5 241q0 148 93.5 236t248.5 88q221 0 323 -176l9 4q-17 52 -17 151q0 57 -52.5 90t-143.5 33q-119 0 -289 -31l-43 246q187 35 370 35zM496 442
q-58 0 -94.5 -33.5t-36.5 -86.5q0 -54 36.5 -87.5t94.5 -33.5t95.5 34t37.5 87t-37.5 86.5t-95.5 33.5z" />
    <glyph glyph-name="atilde" unicode="&#xe3;" horiz-adv-x="1083" 
d="M532 977q244 0 350.5 -88t106.5 -289v-600h-309q0 106 33 188l-11 7q-99 -226 -331 -226q-153 0 -245.5 91t-92.5 241q0 148 93.5 236t248.5 88q221 0 323 -176l9 4q-17 52 -17 151q0 57 -52.5 90t-143.5 33q-119 0 -289 -31l-43 246q187 35 370 35zM496 442
q-58 0 -94.5 -33.5t-36.5 -86.5q0 -54 36.5 -87.5t94.5 -33.5t95.5 34t37.5 87t-37.5 86.5t-95.5 33.5z" />
    <glyph glyph-name="adieresis" unicode="&#xe4;" horiz-adv-x="1083" 
d="M532 977q244 0 350.5 -88t106.5 -289v-600h-309q0 106 33 188l-11 7q-99 -226 -331 -226q-153 0 -245.5 91t-92.5 241q0 148 93.5 236t248.5 88q221 0 323 -176l9 4q-17 52 -17 151q0 57 -52.5 90t-143.5 33q-119 0 -289 -31l-43 246q187 35 370 35zM496 442
q-58 0 -94.5 -33.5t-36.5 -86.5q0 -54 36.5 -87.5t94.5 -33.5t95.5 34t37.5 87t-37.5 86.5t-95.5 33.5z" />
    <glyph glyph-name="aring" unicode="&#xe5;" horiz-adv-x="1083" 
d="M532 977q244 0 350.5 -88t106.5 -289v-600h-309q0 106 33 188l-11 7q-99 -226 -331 -226q-153 0 -245.5 91t-92.5 241q0 148 93.5 236t248.5 88q221 0 323 -176l9 4q-17 52 -17 151q0 57 -52.5 90t-143.5 33q-119 0 -289 -31l-43 246q187 35 370 35zM496 442
q-58 0 -94.5 -33.5t-36.5 -86.5q0 -54 36.5 -87.5t94.5 -33.5t95.5 34t37.5 87t-37.5 86.5t-95.5 33.5z" />
    <glyph glyph-name="ae" unicode="&#xe6;" horiz-adv-x="2148" 
d="M532 977q244 0 350.5 -88t106.5 -289v-600h-309q0 106 33 188l-11 7q-99 -226 -331 -226q-153 0 -245.5 91t-92.5 241q0 148 93.5 236t248.5 88q221 0 323 -176l9 4q-17 52 -17 151q0 57 -52.5 90t-143.5 33q-119 0 -289 -31l-43 246q187 35 370 35zM1636 975
q220 0 344.5 -130.5t124.5 -367.5v-82h-561q-44 0 -66 4.5t-44 20.5l-4 -6l8 -23q42 -168 235 -168q146 0 275 84l102 -235q-174 -103 -375 -103q-248 0 -394 135t-146 371q0 230 139 365t362 135zM1624 745q-82 0 -135.5 -46.5t-63.5 -129.5l5 -6q16 19 86 19h206
q63 0 78 -17l4 4q-4 86 -52 131t-128 45zM496 442q-58 0 -94.5 -33.5t-36.5 -86.5q0 -54 36.5 -87.5t94.5 -33.5t95.5 34t37.5 87t-37.5 86.5t-95.5 33.5z" />
    <glyph glyph-name="ccedilla" unicode="&#xe7;" horiz-adv-x="944" 
d="M578 -31q-233 0 -380 140.5t-147 363.5t147 363.5t380 140.5q187 0 342 -92l-125 -248q-92 57 -203 57q-101 0 -165.5 -61.5t-64.5 -159.5q0 -97 64.5 -159t165.5 -62q111 0 203 57l125 -248q-155 -92 -342 -92z" />
    <glyph glyph-name="egrave" unicode="&#xe8;" horiz-adv-x="1064" 
d="M553 975q220 0 344.5 -130.5t124.5 -367.5v-82h-561q-44 0 -66.5 4.5t-44.5 20.5l-4 -6l8 -23q42 -168 236 -168q145 0 274 84l103 -235q-174 -103 -375 -103q-248 0 -394.5 135t-146.5 371q0 230 139.5 365t362.5 135zM541 745q-82 0 -135.5 -46.5t-63.5 -129.5l4 -6
q16 19 86 19h207q63 0 78 -17l4 4q-4 86 -52 131t-128 45z" />
    <glyph glyph-name="eacute" unicode="&#xe9;" horiz-adv-x="1064" 
d="M553 975q220 0 344.5 -130.5t124.5 -367.5v-82h-561q-44 0 -66.5 4.5t-44.5 20.5l-4 -6l8 -23q42 -168 236 -168q145 0 274 84l103 -235q-174 -103 -375 -103q-248 0 -394.5 135t-146.5 371q0 230 139.5 365t362.5 135zM541 745q-82 0 -135.5 -46.5t-63.5 -129.5l4 -6
q16 19 86 19h207q63 0 78 -17l4 4q-4 86 -52 131t-128 45z" />
    <glyph glyph-name="ecircumflex" unicode="&#xea;" horiz-adv-x="1064" 
d="M553 975q220 0 344.5 -130.5t124.5 -367.5v-82h-561q-44 0 -66.5 4.5t-44.5 20.5l-4 -6l8 -23q42 -168 236 -168q145 0 274 84l103 -235q-174 -103 -375 -103q-248 0 -394.5 135t-146.5 371q0 230 139.5 365t362.5 135zM541 745q-82 0 -135.5 -46.5t-63.5 -129.5l4 -6
q16 19 86 19h207q63 0 78 -17l4 4q-4 86 -52 131t-128 45z" />
    <glyph glyph-name="edieresis" unicode="&#xeb;" horiz-adv-x="1064" 
d="M553 975q220 0 344.5 -130.5t124.5 -367.5v-82h-561q-44 0 -66.5 4.5t-44.5 20.5l-4 -6l8 -23q42 -168 236 -168q145 0 274 84l103 -235q-174 -103 -375 -103q-248 0 -394.5 135t-146.5 371q0 230 139.5 365t362.5 135zM541 745q-82 0 -135.5 -46.5t-63.5 -129.5l4 -6
q16 19 86 19h207q63 0 78 -17l4 4q-4 86 -52 131t-128 45z" />
    <glyph glyph-name="igrave" unicode="&#xec;" 
d="M92 1434h334v-344h-334v344zM104 946h310v-946h-310v946z" />
    <glyph glyph-name="iacute" unicode="&#xed;" 
d="M92 1434h334v-344h-334v344zM104 946h310v-946h-310v946z" />
    <glyph glyph-name="icircumflex" unicode="&#xee;" 
d="M92 1434h334v-344h-334v344zM104 946h310v-946h-310v946z" />
    <glyph glyph-name="idieresis" unicode="&#xef;" 
d="M92 1434h334v-344h-334v344zM104 946h310v-946h-310v946z" />
    <glyph glyph-name="ntilde" unicode="&#xf1;" horiz-adv-x="1173" 
d="M745 977q160 0 246 -97.5t86 -287.5v-592h-307v506q0 100 -42 150.5t-118 50.5q-196 0 -196 -250v-457h-310v946h306q0 -123 -19 -213l8 -4q102 248 346 248z" />
    <glyph glyph-name="ograve" unicode="&#xf2;" horiz-adv-x="1167" 
d="M584 977q231 0 380.5 -139.5t149.5 -364.5t-149.5 -364.5t-380.5 -139.5q-233 0 -383 139.5t-150 364.5t150 364.5t383 139.5zM584 694q-96 0 -159 -61t-63 -160t63 -160t159 -61t158.5 60.5t62.5 160.5t-62.5 160.5t-158.5 60.5z" />
    <glyph glyph-name="oacute" unicode="&#xf3;" horiz-adv-x="1167" 
d="M584 977q231 0 380.5 -139.5t149.5 -364.5t-149.5 -364.5t-380.5 -139.5q-233 0 -383 139.5t-150 364.5t150 364.5t383 139.5zM584 694q-96 0 -159 -61t-63 -160t63 -160t159 -61t158.5 60.5t62.5 160.5t-62.5 160.5t-158.5 60.5z" />
    <glyph glyph-name="ocircumflex" unicode="&#xf4;" horiz-adv-x="1167" 
d="M584 977q231 0 380.5 -139.5t149.5 -364.5t-149.5 -364.5t-380.5 -139.5q-233 0 -383 139.5t-150 364.5t150 364.5t383 139.5zM584 694q-96 0 -159 -61t-63 -160t63 -160t159 -61t158.5 60.5t62.5 160.5t-62.5 160.5t-158.5 60.5z" />
    <glyph glyph-name="otilde" unicode="&#xf5;" horiz-adv-x="1167" 
d="M584 977q231 0 380.5 -139.5t149.5 -364.5t-149.5 -364.5t-380.5 -139.5q-233 0 -383 139.5t-150 364.5t150 364.5t383 139.5zM584 694q-96 0 -159 -61t-63 -160t63 -160t159 -61t158.5 60.5t62.5 160.5t-62.5 160.5t-158.5 60.5z" />
    <glyph glyph-name="odieresis" unicode="&#xf6;" horiz-adv-x="1167" 
d="M584 977q231 0 380.5 -139.5t149.5 -364.5t-149.5 -364.5t-380.5 -139.5q-233 0 -383 139.5t-150 364.5t150 364.5t383 139.5zM584 694q-96 0 -159 -61t-63 -160t63 -160t159 -61t158.5 60.5t62.5 160.5t-62.5 160.5t-158.5 60.5z" />
    <glyph glyph-name="oslash" unicode="&#xf8;" horiz-adv-x="1167" 
d="M584 977q231 0 380.5 -139.5t149.5 -364.5t-149.5 -364.5t-380.5 -139.5q-233 0 -383 139.5t-150 364.5t150 364.5t383 139.5zM584 694q-96 0 -159 -61t-63 -160t63 -160t159 -61t158.5 60.5t62.5 160.5t-62.5 160.5t-158.5 60.5z" />
    <glyph glyph-name="ugrave" unicode="&#xf9;" horiz-adv-x="1159" 
d="M745 946h310v-946h-301q0 108 30 238l-8 2q-49 -135 -129 -203t-205 -68q-156 0 -252 100t-96 291v586h318v-493q0 -103 41.5 -153t115.5 -50q77 0 126.5 56t49.5 173v467z" />
    <glyph glyph-name="uacute" unicode="&#xfa;" horiz-adv-x="1159" 
d="M745 946h310v-946h-301q0 108 30 238l-8 2q-49 -135 -129 -203t-205 -68q-156 0 -252 100t-96 291v586h318v-493q0 -103 41.5 -153t115.5 -50q77 0 126.5 56t49.5 173v467z" />
    <glyph glyph-name="ucircumflex" unicode="&#xfb;" horiz-adv-x="1159" 
d="M745 946h310v-946h-301q0 108 30 238l-8 2q-49 -135 -129 -203t-205 -68q-156 0 -252 100t-96 291v586h318v-493q0 -103 41.5 -153t115.5 -50q77 0 126.5 56t49.5 173v467z" />
    <glyph glyph-name="udieresis" unicode="&#xfc;" horiz-adv-x="1159" 
d="M745 946h310v-946h-301q0 108 30 238l-8 2q-49 -135 -129 -203t-205 -68q-156 0 -252 100t-96 291v586h318v-493q0 -103 41.5 -153t115.5 -50q77 0 126.5 56t49.5 173v467z" />
    <glyph glyph-name="yacute" unicode="&#xfd;" horiz-adv-x="1099" 
d="M766 946h332l-604 -1356h-310l222 484l-404 872h332l158 -371q26 -63 37.5 -111.5t15.5 -121.5l8 2q6 92 43 180z" />
    <glyph glyph-name="thorn" unicode="&#xfe;" horiz-adv-x="1230" 
d="M743 977q193 0 315 -138t122 -368q0 -229 -120 -365.5t-315 -136.5q-121 0 -212 62t-136 184l-8 -2q19 -117 19 -184v-439h-304v1356h306q0 -122 -23 -213l8 -2q106 246 348 246zM631 700q-105 0 -168.5 -61.5t-63.5 -165.5t63.5 -165.5t168.5 -61.5t168 61t63 166
t-63.5 166t-167.5 61z" />
    <glyph glyph-name="ydieresis" unicode="&#xff;" horiz-adv-x="1099" 
d="M766 946h332l-604 -1356h-310l222 484l-404 872h332l158 -371q26 -63 37.5 -111.5t15.5 -121.5l8 2q6 92 43 180z" />
    <glyph glyph-name="Amacron" unicode="&#x100;" horiz-adv-x="1499" 
d="M358 0h-348l707 1460h65l707 -1460h-348l-133 299h-514zM563 526l2 -2q32 11 92 11h185q60 0 92 -11l2 2q-27 30 -55 97l-82 194q-42 102 -45 148h-9q-3 -52 -43 -148l-81 -194q-31 -67 -58 -97z" />
    <glyph glyph-name="amacron" unicode="&#x101;" horiz-adv-x="1083" 
d="M532 977q244 0 350.5 -88t106.5 -289v-600h-309q0 106 33 188l-11 7q-99 -226 -331 -226q-153 0 -245.5 91t-92.5 241q0 148 93.5 236t248.5 88q221 0 323 -176l9 4q-17 52 -17 151q0 57 -52.5 90t-143.5 33q-119 0 -289 -31l-43 246q187 35 370 35zM496 442
q-58 0 -94.5 -33.5t-36.5 -86.5q0 -54 36.5 -87.5t94.5 -33.5t95.5 34t37.5 87t-37.5 86.5t-95.5 33.5z" />
    <glyph glyph-name="Abreve" unicode="&#x102;" horiz-adv-x="1499" 
d="M358 0h-348l707 1460h65l707 -1460h-348l-133 299h-514zM563 526l2 -2q32 11 92 11h185q60 0 92 -11l2 2q-27 30 -55 97l-82 194q-42 102 -45 148h-9q-3 -52 -43 -148l-81 -194q-31 -67 -58 -97z" />
    <glyph glyph-name="abreve" unicode="&#x103;" horiz-adv-x="1083" 
d="M532 977q244 0 350.5 -88t106.5 -289v-600h-309q0 106 33 188l-11 7q-99 -226 -331 -226q-153 0 -245.5 91t-92.5 241q0 148 93.5 236t248.5 88q221 0 323 -176l9 4q-17 52 -17 151q0 57 -52.5 90t-143.5 33q-119 0 -289 -31l-43 246q187 35 370 35zM496 442
q-58 0 -94.5 -33.5t-36.5 -86.5q0 -54 36.5 -87.5t94.5 -33.5t95.5 34t37.5 87t-37.5 86.5t-95.5 33.5z" />
    <glyph glyph-name="Aogonek" unicode="&#x104;" horiz-adv-x="1499" 
d="M358 0h-348l707 1460h65l707 -1460h-348l-133 299h-514zM563 526l2 -2q32 11 92 11h185q60 0 92 -11l2 2q-27 30 -55 97l-82 194q-42 102 -45 148h-9q-3 -52 -43 -148l-81 -194q-31 -67 -58 -97z" />
    <glyph glyph-name="aogonek" unicode="&#x105;" horiz-adv-x="1083" 
d="M532 977q244 0 350.5 -88t106.5 -289v-600h-309q0 106 33 188l-11 7q-99 -226 -331 -226q-153 0 -245.5 91t-92.5 241q0 148 93.5 236t248.5 88q221 0 323 -176l9 4q-17 52 -17 151q0 57 -52.5 90t-143.5 33q-119 0 -289 -31l-43 246q187 35 370 35zM496 442
q-58 0 -94.5 -33.5t-36.5 -86.5q0 -54 36.5 -87.5t94.5 -33.5t95.5 34t37.5 87t-37.5 86.5t-95.5 33.5z" />
    <glyph glyph-name="Cacute" unicode="&#x106;" horiz-adv-x="1392" 
d="M829 -31q-169 0 -313.5 56t-246 154.5t-159 237t-57.5 300.5q0 216 98 386t275.5 265.5t402.5 95.5q294 0 523 -159l-162 -258q-171 110 -354 110q-200 0 -324.5 -122t-124.5 -318q0 -195 125 -318t324 -123q181 0 354 111l162 -258q-231 -160 -523 -160z" />
    <glyph glyph-name="cacute" unicode="&#x107;" horiz-adv-x="944" 
d="M578 -31q-233 0 -380 140.5t-147 363.5t147 363.5t380 140.5q187 0 342 -92l-125 -248q-92 57 -203 57q-101 0 -165.5 -61.5t-64.5 -159.5q0 -97 64.5 -159t165.5 -62q111 0 203 57l125 -248q-155 -92 -342 -92z" />
    <glyph glyph-name="Ccircumflex" unicode="&#x108;" horiz-adv-x="1392" 
d="M829 -31q-169 0 -313.5 56t-246 154.5t-159 237t-57.5 300.5q0 216 98 386t275.5 265.5t402.5 95.5q294 0 523 -159l-162 -258q-171 110 -354 110q-200 0 -324.5 -122t-124.5 -318q0 -195 125 -318t324 -123q181 0 354 111l162 -258q-231 -160 -523 -160z" />
    <glyph glyph-name="ccircumflex" unicode="&#x109;" horiz-adv-x="944" 
d="M578 -31q-233 0 -380 140.5t-147 363.5t147 363.5t380 140.5q187 0 342 -92l-125 -248q-92 57 -203 57q-101 0 -165.5 -61.5t-64.5 -159.5q0 -97 64.5 -159t165.5 -62q111 0 203 57l125 -248q-155 -92 -342 -92z" />
    <glyph glyph-name="Cdotaccent" unicode="&#x10a;" horiz-adv-x="1392" 
d="M829 -31q-169 0 -313.5 56t-246 154.5t-159 237t-57.5 300.5q0 216 98 386t275.5 265.5t402.5 95.5q294 0 523 -159l-162 -258q-171 110 -354 110q-200 0 -324.5 -122t-124.5 -318q0 -195 125 -318t324 -123q181 0 354 111l162 -258q-231 -160 -523 -160z" />
    <glyph glyph-name="cdotaccent" unicode="&#x10b;" horiz-adv-x="944" 
d="M578 -31q-233 0 -380 140.5t-147 363.5t147 363.5t380 140.5q187 0 342 -92l-125 -248q-92 57 -203 57q-101 0 -165.5 -61.5t-64.5 -159.5q0 -97 64.5 -159t165.5 -62q111 0 203 57l125 -248q-155 -92 -342 -92z" />
    <glyph glyph-name="Ccaron" unicode="&#x10c;" horiz-adv-x="1392" 
d="M829 -31q-169 0 -313.5 56t-246 154.5t-159 237t-57.5 300.5q0 216 98 386t275.5 265.5t402.5 95.5q294 0 523 -159l-162 -258q-171 110 -354 110q-200 0 -324.5 -122t-124.5 -318q0 -195 125 -318t324 -123q181 0 354 111l162 -258q-231 -160 -523 -160z" />
    <glyph glyph-name="ccaron" unicode="&#x10d;" horiz-adv-x="944" 
d="M578 -31q-233 0 -380 140.5t-147 363.5t147 363.5t380 140.5q187 0 342 -92l-125 -248q-92 57 -203 57q-101 0 -165.5 -61.5t-64.5 -159.5q0 -97 64.5 -159t165.5 -62q111 0 203 57l125 -248q-155 -92 -342 -92z" />
    <glyph glyph-name="Dcaron" unicode="&#x10e;" horiz-adv-x="1419" 
d="M135 1434h465q355 0 560.5 -192.5t205.5 -524.5t-205.5 -524.5t-560.5 -192.5h-465v1434zM446 1161l-4 -4q11 -18 11 -63v-754q0 -46 -11 -64l4 -4q16 11 58 11h121q192 0 300.5 115.5t108.5 318.5t-108.5 318.5t-300.5 115.5h-121q-43 0 -58 10z" />
    <glyph glyph-name="dcaron" unicode="&#x10f;" horiz-adv-x="1230" 
d="M487 -31q-198 0 -317 137.5t-119 364.5t120 366.5t316 139.5q251 0 351 -246l8 2q-29 101 -29 271v460h309v-1464h-301q0 113 19 213l-8 2q-41 -117 -132.5 -181.5t-216.5 -64.5zM600 246q105 0 168 62t63 165t-63 165t-168 62t-168 -61.5t-63 -165.5t62.5 -165.5
t168.5 -61.5z" />
    <glyph glyph-name="Dcroat" unicode="&#x110;" horiz-adv-x="1419" 
d="M135 1434h465q355 0 560.5 -192.5t205.5 -524.5t-205.5 -524.5t-560.5 -192.5h-465v1434zM446 1161l-4 -4q11 -18 11 -63v-754q0 -46 -11 -64l4 -4q16 11 58 11h121q192 0 300.5 115.5t108.5 318.5t-108.5 318.5t-300.5 115.5h-121q-43 0 -58 10z" />
    <glyph glyph-name="dcroat" unicode="&#x111;" horiz-adv-x="1230" 
d="M487 -31q-198 0 -317 137.5t-119 364.5t120 366.5t316 139.5q251 0 351 -246l8 2q-29 101 -29 271v460h309v-1464h-301q0 113 19 213l-8 2q-41 -117 -132.5 -181.5t-216.5 -64.5zM600 246q105 0 168 62t63 165t-63 165t-168 62t-168 -61.5t-63 -165.5t62.5 -165.5
t168.5 -61.5z" />
    <glyph glyph-name="Emacron" unicode="&#x112;" horiz-adv-x="1114" 
d="M135 1434h889v-283h-520q-41 0 -58 10l-4 -4q11 -18 11 -61v-144q0 -45 -11 -63l4 -4q17 10 58 10h465v-279h-465q-40 0 -58 11l-4 -4q11 -18 11 -62v-223q0 -44 -11 -62l4 -4q18 11 58 11h528v-283h-897v1434z" />
    <glyph glyph-name="emacron" unicode="&#x113;" horiz-adv-x="1064" 
d="M553 975q220 0 344.5 -130.5t124.5 -367.5v-82h-561q-44 0 -66.5 4.5t-44.5 20.5l-4 -6l8 -23q42 -168 236 -168q145 0 274 84l103 -235q-174 -103 -375 -103q-248 0 -394.5 135t-146.5 371q0 230 139.5 365t362.5 135zM541 745q-82 0 -135.5 -46.5t-63.5 -129.5l4 -6
q16 19 86 19h207q63 0 78 -17l4 4q-4 86 -52 131t-128 45z" />
    <glyph glyph-name="Ebreve" unicode="&#x114;" horiz-adv-x="1114" 
d="M135 1434h889v-283h-520q-41 0 -58 10l-4 -4q11 -18 11 -61v-144q0 -45 -11 -63l4 -4q17 10 58 10h465v-279h-465q-40 0 -58 11l-4 -4q11 -18 11 -62v-223q0 -44 -11 -62l4 -4q18 11 58 11h528v-283h-897v1434z" />
    <glyph glyph-name="ebreve" unicode="&#x115;" horiz-adv-x="1064" 
d="M553 975q220 0 344.5 -130.5t124.5 -367.5v-82h-561q-44 0 -66.5 4.5t-44.5 20.5l-4 -6l8 -23q42 -168 236 -168q145 0 274 84l103 -235q-174 -103 -375 -103q-248 0 -394.5 135t-146.5 371q0 230 139.5 365t362.5 135zM541 745q-82 0 -135.5 -46.5t-63.5 -129.5l4 -6
q16 19 86 19h207q63 0 78 -17l4 4q-4 86 -52 131t-128 45z" />
    <glyph glyph-name="Edotaccent" unicode="&#x116;" horiz-adv-x="1114" 
d="M135 1434h889v-283h-520q-41 0 -58 10l-4 -4q11 -18 11 -61v-144q0 -45 -11 -63l4 -4q17 10 58 10h465v-279h-465q-40 0 -58 11l-4 -4q11 -18 11 -62v-223q0 -44 -11 -62l4 -4q18 11 58 11h528v-283h-897v1434z" />
    <glyph glyph-name="edotaccent" unicode="&#x117;" horiz-adv-x="1064" 
d="M553 975q220 0 344.5 -130.5t124.5 -367.5v-82h-561q-44 0 -66.5 4.5t-44.5 20.5l-4 -6l8 -23q42 -168 236 -168q145 0 274 84l103 -235q-174 -103 -375 -103q-248 0 -394.5 135t-146.5 371q0 230 139.5 365t362.5 135zM541 745q-82 0 -135.5 -46.5t-63.5 -129.5l4 -6
q16 19 86 19h207q63 0 78 -17l4 4q-4 86 -52 131t-128 45z" />
    <glyph glyph-name="Eogonek" unicode="&#x118;" horiz-adv-x="1114" 
d="M135 1434h889v-283h-520q-41 0 -58 10l-4 -4q11 -18 11 -61v-144q0 -45 -11 -63l4 -4q17 10 58 10h465v-279h-465q-40 0 -58 11l-4 -4q11 -18 11 -62v-223q0 -44 -11 -62l4 -4q18 11 58 11h528v-283h-897v1434z" />
    <glyph glyph-name="eogonek" unicode="&#x119;" horiz-adv-x="1064" 
d="M553 975q220 0 344.5 -130.5t124.5 -367.5v-82h-561q-44 0 -66.5 4.5t-44.5 20.5l-4 -6l8 -23q42 -168 236 -168q145 0 274 84l103 -235q-174 -103 -375 -103q-248 0 -394.5 135t-146.5 371q0 230 139.5 365t362.5 135zM541 745q-82 0 -135.5 -46.5t-63.5 -129.5l4 -6
q16 19 86 19h207q63 0 78 -17l4 4q-4 86 -52 131t-128 45z" />
    <glyph glyph-name="Ecaron" unicode="&#x11a;" horiz-adv-x="1114" 
d="M135 1434h889v-283h-520q-41 0 -58 10l-4 -4q11 -18 11 -61v-144q0 -45 -11 -63l4 -4q17 10 58 10h465v-279h-465q-40 0 -58 11l-4 -4q11 -18 11 -62v-223q0 -44 -11 -62l4 -4q18 11 58 11h528v-283h-897v1434z" />
    <glyph glyph-name="ecaron" unicode="&#x11b;" horiz-adv-x="1064" 
d="M553 975q220 0 344.5 -130.5t124.5 -367.5v-82h-561q-44 0 -66.5 4.5t-44.5 20.5l-4 -6l8 -23q42 -168 236 -168q145 0 274 84l103 -235q-174 -103 -375 -103q-248 0 -394.5 135t-146.5 371q0 230 139.5 365t362.5 135zM541 745q-82 0 -135.5 -46.5t-63.5 -129.5l4 -6
q16 19 86 19h207q63 0 78 -17l4 4q-4 86 -52 131t-128 45z" />
    <glyph glyph-name="Gcircumflex" unicode="&#x11c;" horiz-adv-x="1566" 
d="M825 1464q312 0 555 -178l-180 -258q-83 61 -184 95t-201 34q-195 0 -315.5 -120t-120.5 -314q0 -201 117.5 -324t310.5 -123q97 0 172 25.5t120 70t69.5 95.5t31.5 111l-4 4q-32 -23 -131 -23h-262v266h713v-65q0 -171 -43.5 -314t-128.5 -250t-220.5 -167t-308.5 -60
q-340 0 -551 207t-211 543q0 220 96 389.5t271.5 262.5t404.5 93z" />
    <glyph glyph-name="gcircumflex" unicode="&#x11d;" horiz-adv-x="1230" 
d="M487 977q243 0 349 -246l8 2q-27 100 -27 213h309v-864q0 -141 -39.5 -244t-113.5 -163t-170 -88.5t-219 -28.5q-277 0 -484 120l131 252q169 -88 330 -88q125 0 194.5 53t69.5 160v19q0 42 19 139l-8 2q-61 -117 -146.5 -172t-204.5 -55q-195 0 -314.5 130.5
t-119.5 352.5q0 230 121.5 368t314.5 138zM588 694q-95 0 -157 -60t-62 -161t62 -161t157 -60q96 0 159.5 61t63.5 160t-63.5 160t-159.5 61z" />
    <glyph glyph-name="Gbreve" unicode="&#x11e;" horiz-adv-x="1566" 
d="M825 1464q312 0 555 -178l-180 -258q-83 61 -184 95t-201 34q-195 0 -315.5 -120t-120.5 -314q0 -201 117.5 -324t310.5 -123q97 0 172 25.5t120 70t69.5 95.5t31.5 111l-4 4q-32 -23 -131 -23h-262v266h713v-65q0 -171 -43.5 -314t-128.5 -250t-220.5 -167t-308.5 -60
q-340 0 -551 207t-211 543q0 220 96 389.5t271.5 262.5t404.5 93z" />
    <glyph glyph-name="gbreve" unicode="&#x11f;" horiz-adv-x="1230" 
d="M487 977q243 0 349 -246l8 2q-27 100 -27 213h309v-864q0 -141 -39.5 -244t-113.5 -163t-170 -88.5t-219 -28.5q-277 0 -484 120l131 252q169 -88 330 -88q125 0 194.5 53t69.5 160v19q0 42 19 139l-8 2q-61 -117 -146.5 -172t-204.5 -55q-195 0 -314.5 130.5
t-119.5 352.5q0 230 121.5 368t314.5 138zM588 694q-95 0 -157 -60t-62 -161t62 -161t157 -60q96 0 159.5 61t63.5 160t-63.5 160t-159.5 61z" />
    <glyph glyph-name="Gdotaccent" unicode="&#x120;" horiz-adv-x="1566" 
d="M825 1464q312 0 555 -178l-180 -258q-83 61 -184 95t-201 34q-195 0 -315.5 -120t-120.5 -314q0 -201 117.5 -324t310.5 -123q97 0 172 25.5t120 70t69.5 95.5t31.5 111l-4 4q-32 -23 -131 -23h-262v266h713v-65q0 -171 -43.5 -314t-128.5 -250t-220.5 -167t-308.5 -60
q-340 0 -551 207t-211 543q0 220 96 389.5t271.5 262.5t404.5 93z" />
    <glyph glyph-name="gdotaccent" unicode="&#x121;" horiz-adv-x="1230" 
d="M487 977q243 0 349 -246l8 2q-27 100 -27 213h309v-864q0 -141 -39.5 -244t-113.5 -163t-170 -88.5t-219 -28.5q-277 0 -484 120l131 252q169 -88 330 -88q125 0 194.5 53t69.5 160v19q0 42 19 139l-8 2q-61 -117 -146.5 -172t-204.5 -55q-195 0 -314.5 130.5
t-119.5 352.5q0 230 121.5 368t314.5 138zM588 694q-95 0 -157 -60t-62 -161t62 -161t157 -60q96 0 159.5 61t63.5 160t-63.5 160t-159.5 61z" />
    <glyph glyph-name="uni0122" unicode="&#x122;" horiz-adv-x="1566" 
d="M825 1464q312 0 555 -178l-180 -258q-83 61 -184 95t-201 34q-195 0 -315.5 -120t-120.5 -314q0 -201 117.5 -324t310.5 -123q97 0 172 25.5t120 70t69.5 95.5t31.5 111l-4 4q-32 -23 -131 -23h-262v266h713v-65q0 -171 -43.5 -314t-128.5 -250t-220.5 -167t-308.5 -60
q-340 0 -551 207t-211 543q0 220 96 389.5t271.5 262.5t404.5 93z" />
    <glyph glyph-name="uni0123" unicode="&#x123;" horiz-adv-x="1230" 
d="M487 977q243 0 349 -246l8 2q-27 100 -27 213h309v-864q0 -141 -39.5 -244t-113.5 -163t-170 -88.5t-219 -28.5q-277 0 -484 120l131 252q169 -88 330 -88q125 0 194.5 53t69.5 160v19q0 42 19 139l-8 2q-61 -117 -146.5 -172t-204.5 -55q-195 0 -314.5 130.5
t-119.5 352.5q0 230 121.5 368t314.5 138zM588 694q-95 0 -157 -60t-62 -161t62 -161t157 -60q96 0 159.5 61t63.5 160t-63.5 160t-159.5 61z" />
    <glyph glyph-name="Hcircumflex" unicode="&#x124;" horiz-adv-x="1509" 
d="M1057 1434h317v-1434h-317v557q0 44 10 61l-4 5q-22 -11 -57 -11h-502q-40 0 -58 11l-4 -5q11 -18 11 -61v-557h-318v1434h318v-476q0 -45 -11 -63l4 -4q17 10 58 10h502q37 0 57 -10l4 4q-10 17 -10 63v476z" />
    <glyph glyph-name="hcircumflex" unicode="&#x125;" horiz-adv-x="1173" 
d="M104 1464h310v-436q0 -169 -23 -293l8 -4q50 119 128.5 182.5t207.5 63.5q161 0 251.5 -98t90.5 -287v-592h-307v506q0 108 -41.5 154.5t-120.5 46.5q-88 0 -141 -61t-53 -189v-457h-310v1464z" />
    <glyph glyph-name="Hbar" unicode="&#x126;" horiz-adv-x="1509" 
d="M1057 1434h317v-1434h-317v557q0 44 10 61l-4 5q-22 -11 -57 -11h-502q-40 0 -58 11l-4 -5q11 -18 11 -61v-557h-318v1434h318v-476q0 -45 -11 -63l4 -4q17 10 58 10h502q37 0 57 -10l4 4q-10 17 -10 63v476z" />
    <glyph glyph-name="hbar" unicode="&#x127;" horiz-adv-x="1173" 
d="M104 1464h310v-436q0 -169 -23 -293l8 -4q50 119 128.5 182.5t207.5 63.5q161 0 251.5 -98t90.5 -287v-592h-307v506q0 108 -41.5 154.5t-120.5 46.5q-88 0 -141 -61t-53 -189v-457h-310v1464z" />
    <glyph glyph-name="Itilde" unicode="&#x128;" horiz-adv-x="587" 
d="M135 1434h318v-1434h-318v1434z" />
    <glyph glyph-name="itilde" unicode="&#x129;" 
d="M92 1434h334v-344h-334v344zM104 946h310v-946h-310v946z" />
    <glyph glyph-name="Imacron" unicode="&#x12a;" horiz-adv-x="587" 
d="M135 1434h318v-1434h-318v1434z" />
    <glyph glyph-name="imacron" unicode="&#x12b;" 
d="M92 1434h334v-344h-334v344zM104 946h310v-946h-310v946z" />
    <glyph glyph-name="Ibreve" unicode="&#x12c;" horiz-adv-x="587" 
d="M135 1434h318v-1434h-318v1434z" />
    <glyph glyph-name="ibreve" unicode="&#x12d;" 
d="M92 1434h334v-344h-334v344zM104 946h310v-946h-310v946z" />
    <glyph glyph-name="Iogonek" unicode="&#x12e;" horiz-adv-x="587" 
d="M135 1434h318v-1434h-318v1434z" />
    <glyph glyph-name="iogonek" unicode="&#x12f;" 
d="M92 1434h334v-344h-334v344zM104 946h310v-946h-310v946z" />
    <glyph glyph-name="Idotaccent" unicode="&#x130;" horiz-adv-x="587" 
d="M135 1434h318v-1434h-318v1434z" />
    <glyph glyph-name="dotlessi" unicode="&#x131;" 
d="M92 1434h334v-344h-334v344zM104 946h310v-946h-310v946z" />
    <glyph glyph-name="IJ" unicode="&#x132;" horiz-adv-x="1288" 
d="M135 1434h318v-1434h-318v1434zM836 1434h317v-1037q0 -209 -92.5 -308t-284.5 -99q-42 0 -155 10v291q53 -6 110 -6q54 0 79.5 34t25.5 107v1008z" />
    <glyph glyph-name="ij" unicode="&#x133;" horiz-adv-x="1038" 
d="M92 1434h334v-344h-334v344zM612 1434h334v-344h-334v344zM104 946h310v-946h-310v946zM625 946h309v-975q0 -411 -432 -411h-29v284h19q133 0 133 146v956z" />
    <glyph glyph-name="Jcircumflex" unicode="&#x134;" horiz-adv-x="700" 
d="M248 1434h317v-1037q0 -209 -92.5 -308t-284.5 -99q-42 0 -155 10v291q52 -6 110 -6q54 0 79.5 34t25.5 107v1008z" />
    <glyph glyph-name="jcircumflex" unicode="&#x135;" 
d="M92 1434h334v-344h-334v344zM104 946h310v-975q0 -411 -432 -411h-29v284h18q133 0 133 146v956z" />
    <glyph glyph-name="uni0136" unicode="&#x136;" horiz-adv-x="1456" 
d="M940 1434h418l-467 -543q-80 -92 -133 -125v-8q32 -18 56.5 -41t68.5 -74l571 -643h-430l-588 702l-6 -2q23 -78 23 -184v-516h-318v1434h318v-441q0 -115 -23 -190l6 -4z" />
    <glyph glyph-name="uni0137" unicode="&#x137;" horiz-adv-x="1134" 
d="M104 1464h310v-702q0 -151 -35 -232l6 -2l354 418h371l-326 -352q-67 -70 -102 -78v-8q32 -8 84 -68l369 -440h-392l-358 467l-6 -4q35 -72 35 -213v-250h-310v1464z" />
    <glyph glyph-name="kgreenlandic" unicode="&#x138;" horiz-adv-x="1134" 
d="M104 1464h310v-702q0 -151 -35 -232l6 -2l354 418h371l-326 -352q-67 -70 -102 -78v-8q32 -8 84 -68l369 -440h-392l-358 467l-6 -4q35 -72 35 -213v-250h-310v1464z" />
    <glyph glyph-name="Lacute" unicode="&#x139;" horiz-adv-x="1038" 
d="M135 1434h318v-1090q0 -43 -11 -61l4 -4q17 10 58 10h524v-289h-893v1434z" />
    <glyph glyph-name="lacute" unicode="&#x13a;" 
d="M104 1464h310v-1464h-310v1464z" />
    <glyph glyph-name="uni013B" unicode="&#x13b;" horiz-adv-x="1038" 
d="M135 1434h318v-1090q0 -43 -11 -61l4 -4q17 10 58 10h524v-289h-893v1434z" />
    <glyph glyph-name="uni013C" unicode="&#x13c;" 
d="M104 1464h310v-1464h-310v1464z" />
    <glyph glyph-name="Lcaron" unicode="&#x13d;" horiz-adv-x="1038" 
d="M135 1434h318v-1090q0 -43 -11 -61l4 -4q17 10 58 10h524v-289h-893v1434z" />
    <glyph glyph-name="lcaron" unicode="&#x13e;" 
d="M104 1464h310v-1464h-310v1464z" />
    <glyph glyph-name="Ldot" unicode="&#x13f;" horiz-adv-x="1038" 
d="M135 1434h318v-1090q0 -43 -11 -61l4 -4q17 10 58 10h524v-289h-893v1434z" />
    <glyph glyph-name="ldot" unicode="&#x140;" 
d="M104 1464h310v-1464h-310v1464z" />
    <glyph glyph-name="Lslash" unicode="&#x141;" horiz-adv-x="1038" 
d="M135 1434h318v-1090q0 -43 -11 -61l4 -4q17 10 58 10h524v-289h-893v1434z" />
    <glyph glyph-name="lslash" unicode="&#x142;" 
d="M104 1464h310v-1464h-310v1464z" />
    <glyph glyph-name="Nacute" unicode="&#x143;" horiz-adv-x="1478" 
d="M135 1454h68l747 -747q60 -59 94 -127l9 2q-23 77 -23 249v603h313v-1454h-69l-748 747q-36 36 -54 61.5t-40 67.5l-8 -2q25 -73 25 -252v-602h-314v1454z" />
    <glyph glyph-name="nacute" unicode="&#x144;" horiz-adv-x="1173" 
d="M745 977q160 0 246 -97.5t86 -287.5v-592h-307v506q0 100 -42 150.5t-118 50.5q-196 0 -196 -250v-457h-310v946h306q0 -123 -19 -213l8 -4q102 248 346 248z" />
    <glyph glyph-name="uni0145" unicode="&#x145;" horiz-adv-x="1478" 
d="M135 1454h68l747 -747q60 -59 94 -127l9 2q-23 77 -23 249v603h313v-1454h-69l-748 747q-36 36 -54 61.5t-40 67.5l-8 -2q25 -73 25 -252v-602h-314v1454z" />
    <glyph glyph-name="uni0146" unicode="&#x146;" horiz-adv-x="1173" 
d="M745 977q160 0 246 -97.5t86 -287.5v-592h-307v506q0 100 -42 150.5t-118 50.5q-196 0 -196 -250v-457h-310v946h306q0 -123 -19 -213l8 -4q102 248 346 248z" />
    <glyph glyph-name="Ncaron" unicode="&#x147;" horiz-adv-x="1478" 
d="M135 1454h68l747 -747q60 -59 94 -127l9 2q-23 77 -23 249v603h313v-1454h-69l-748 747q-36 36 -54 61.5t-40 67.5l-8 -2q25 -73 25 -252v-602h-314v1454z" />
    <glyph glyph-name="ncaron" unicode="&#x148;" horiz-adv-x="1173" 
d="M745 977q160 0 246 -97.5t86 -287.5v-592h-307v506q0 100 -42 150.5t-118 50.5q-196 0 -196 -250v-457h-310v946h306q0 -123 -19 -213l8 -4q102 248 346 248z" />
    <glyph glyph-name="napostrophe" unicode="&#x149;" horiz-adv-x="1173" 
d="M745 977q160 0 246 -97.5t86 -287.5v-592h-307v506q0 100 -42 150.5t-118 50.5q-196 0 -196 -250v-457h-310v946h306q0 -123 -19 -213l8 -4q102 248 346 248z" />
    <glyph glyph-name="Eng" unicode="&#x14a;" horiz-adv-x="1478" 
d="M135 1454h68l747 -747q60 -59 94 -127l9 2q-23 77 -23 249v603h313v-1454h-69l-748 747q-36 36 -54 61.5t-40 67.5l-8 -2q25 -73 25 -252v-602h-314v1454z" />
    <glyph glyph-name="eng" unicode="&#x14b;" horiz-adv-x="1173" 
d="M745 977q160 0 246 -97.5t86 -287.5v-592h-307v506q0 100 -42 150.5t-118 50.5q-196 0 -196 -250v-457h-310v946h306q0 -123 -19 -213l8 -4q102 248 346 248z" />
    <glyph glyph-name="Omacron" unicode="&#x14c;" horiz-adv-x="1615" 
d="M809 1464q162 0 302 -56t239.5 -154.5t156 -237.5t56.5 -299q0 -214 -96.5 -385t-269 -267t-388.5 -96q-217 0 -390 96t-269.5 267t-96.5 385q0 161 56.5 299.5t156 237t240 154.5t303.5 56zM809 1157q-192 0 -311 -122.5t-119 -317.5t119 -318t311 -123q190 0 309 123
t119 318t-119 317.5t-309 122.5z" />
    <glyph glyph-name="omacron" unicode="&#x14d;" horiz-adv-x="1167" 
d="M584 977q231 0 380.5 -139.5t149.5 -364.5t-149.5 -364.5t-380.5 -139.5q-233 0 -383 139.5t-150 364.5t150 364.5t383 139.5zM584 694q-96 0 -159 -61t-63 -160t63 -160t159 -61t158.5 60.5t62.5 160.5t-62.5 160.5t-158.5 60.5z" />
    <glyph glyph-name="Obreve" unicode="&#x14e;" horiz-adv-x="1615" 
d="M809 1464q162 0 302 -56t239.5 -154.5t156 -237.5t56.5 -299q0 -214 -96.5 -385t-269 -267t-388.5 -96q-217 0 -390 96t-269.5 267t-96.5 385q0 161 56.5 299.5t156 237t240 154.5t303.5 56zM809 1157q-192 0 -311 -122.5t-119 -317.5t119 -318t311 -123q190 0 309 123
t119 318t-119 317.5t-309 122.5z" />
    <glyph glyph-name="obreve" unicode="&#x14f;" horiz-adv-x="1167" 
d="M584 977q231 0 380.5 -139.5t149.5 -364.5t-149.5 -364.5t-380.5 -139.5q-233 0 -383 139.5t-150 364.5t150 364.5t383 139.5zM584 694q-96 0 -159 -61t-63 -160t63 -160t159 -61t158.5 60.5t62.5 160.5t-62.5 160.5t-158.5 60.5z" />
    <glyph glyph-name="Ohungarumlaut" unicode="&#x150;" horiz-adv-x="1615" 
d="M809 1464q162 0 302 -56t239.5 -154.5t156 -237.5t56.5 -299q0 -214 -96.5 -385t-269 -267t-388.5 -96q-217 0 -390 96t-269.5 267t-96.5 385q0 161 56.5 299.5t156 237t240 154.5t303.5 56zM809 1157q-192 0 -311 -122.5t-119 -317.5t119 -318t311 -123q190 0 309 123
t119 318t-119 317.5t-309 122.5z" />
    <glyph glyph-name="ohungarumlaut" unicode="&#x151;" horiz-adv-x="1167" 
d="M584 977q231 0 380.5 -139.5t149.5 -364.5t-149.5 -364.5t-380.5 -139.5q-233 0 -383 139.5t-150 364.5t150 364.5t383 139.5zM584 694q-96 0 -159 -61t-63 -160t63 -160t159 -61t158.5 60.5t62.5 160.5t-62.5 160.5t-158.5 60.5z" />
    <glyph glyph-name="OE" unicode="&#x152;" horiz-adv-x="2729" 
d="M809 1464q162 0 302 -56t239.5 -154.5t156 -237.5t56.5 -299q0 -214 -96.5 -385t-269 -267t-388.5 -96q-217 0 -390 96t-269.5 267t-96.5 385q0 161 56.5 299.5t156 237t240 154.5t303.5 56zM1751 1434h889v-283h-520q-41 0 -58 10l-4 -4q10 -17 10 -61v-144
q0 -46 -10 -63l4 -4q17 10 58 10h465v-279h-465q-40 0 -58 11l-4 -4q10 -17 10 -62v-223q0 -45 -10 -62l4 -4q18 11 58 11h528v-283h-897v1434zM809 1157q-192 0 -311 -122.5t-119 -317.5t119 -318t311 -123q190 0 309 123t119 318t-119 317.5t-309 122.5z" />
    <glyph glyph-name="oe" unicode="&#x153;" horiz-adv-x="2230" 
d="M584 977q231 0 380.5 -139.5t149.5 -364.5t-149.5 -364.5t-380.5 -139.5q-233 0 -383 139.5t-150 364.5t150 364.5t383 139.5zM1720 975q220 0 344.5 -130.5t124.5 -367.5v-82h-561q-44 0 -66 4.5t-44 20.5l-5 -6l9 -23q42 -168 235 -168q146 0 275 84l102 -235
q-174 -103 -375 -103q-248 0 -394 135t-146 371q0 230 139 365t362 135zM1708 745q-82 0 -135.5 -46.5t-63.5 -129.5l4 -6q16 19 86 19h207q63 0 78 -17l4 4q-4 86 -52 131t-128 45zM584 694q-96 0 -159 -61t-63 -160t63 -160t159 -61t158.5 60.5t62.5 160.5t-62.5 160.5
t-158.5 60.5z" />
    <glyph glyph-name="Racute" unicode="&#x154;" horiz-adv-x="1341" 
d="M135 1434h545q229 0 356 -108t127 -302q0 -168 -100 -283.5t-240 -115.5q-31 0 -43 2v-4q85 -23 160 -119l401 -504h-387l-442 592q-23 0 -41 6q-21 6 -33 12l-4 -4q19 -46 19 -108v-498h-318v1434zM446 1171l-4 -4q11 -18 11 -61v-207q0 -45 -11 -63l4 -5q16 11 58 11
h174q78 0 122 43t44 119q0 72 -44 114.5t-122 42.5h-174q-43 0 -58 10z" />
    <glyph glyph-name="racute" unicode="&#x155;" horiz-adv-x="763" 
d="M678 975q34 0 74 -4v-303q-47 4 -93 4q-121 0 -183 -67t-62 -220v-385h-310v946h293q0 -161 -28 -311l8 -2q70 342 301 342z" />
    <glyph glyph-name="uni0156" unicode="&#x156;" horiz-adv-x="1341" 
d="M135 1434h545q229 0 356 -108t127 -302q0 -168 -100 -283.5t-240 -115.5q-31 0 -43 2v-4q85 -23 160 -119l401 -504h-387l-442 592q-23 0 -41 6q-21 6 -33 12l-4 -4q19 -46 19 -108v-498h-318v1434zM446 1171l-4 -4q11 -18 11 -61v-207q0 -45 -11 -63l4 -5q16 11 58 11
h174q78 0 122 43t44 119q0 72 -44 114.5t-122 42.5h-174q-43 0 -58 10z" />
    <glyph glyph-name="uni0157" unicode="&#x157;" horiz-adv-x="763" 
d="M678 975q34 0 74 -4v-303q-47 4 -93 4q-121 0 -183 -67t-62 -220v-385h-310v946h293q0 -161 -28 -311l8 -2q70 342 301 342z" />
    <glyph glyph-name="Rcaron" unicode="&#x158;" horiz-adv-x="1341" 
d="M135 1434h545q229 0 356 -108t127 -302q0 -168 -100 -283.5t-240 -115.5q-31 0 -43 2v-4q85 -23 160 -119l401 -504h-387l-442 592q-23 0 -41 6q-21 6 -33 12l-4 -4q19 -46 19 -108v-498h-318v1434zM446 1171l-4 -4q11 -18 11 -61v-207q0 -45 -11 -63l4 -5q16 11 58 11
h174q78 0 122 43t44 119q0 72 -44 114.5t-122 42.5h-174q-43 0 -58 10z" />
    <glyph glyph-name="rcaron" unicode="&#x159;" horiz-adv-x="763" 
d="M678 975q34 0 74 -4v-303q-47 4 -93 4q-121 0 -183 -67t-62 -220v-385h-310v946h293q0 -161 -28 -311l8 -2q70 342 301 342z" />
    <glyph glyph-name="Sacute" unicode="&#x15a;" horiz-adv-x="1118" 
d="M586 1464q234 0 452 -110l-139 -277q-169 94 -311 94q-137 0 -137 -81q0 -34 22 -60t86 -65l240 -154q143 -91 205.5 -187.5t62.5 -228.5q0 -205 -135.5 -315.5t-384.5 -110.5q-280 0 -527 144l144 284q203 -133 395 -133q87 0 134.5 31t47.5 86q0 40 -30.5 75.5
t-106.5 82.5l-221 141q-258 164 -258 405q0 177 122.5 278t338.5 101z" />
    <glyph glyph-name="sacute" unicode="&#x15b;" horiz-adv-x="876" 
d="M432 -31q-227 0 -420 99l115 243q153 -100 326 -100q50 0 71 10t21 35q0 18 -11.5 27.5t-52.5 27.5l-170 70q-223 88 -223 293q0 145 103.5 224t291.5 79q153 0 342 -62l-88 -239q-143 65 -270 65q-82 0 -82 -41q0 -20 15.5 -32t64.5 -33l158 -62q117 -47 169 -113.5
t52 -170.5q0 -152 -108 -236t-304 -84z" />
    <glyph glyph-name="Scircumflex" unicode="&#x15c;" horiz-adv-x="1118" 
d="M586 1464q234 0 452 -110l-139 -277q-169 94 -311 94q-137 0 -137 -81q0 -34 22 -60t86 -65l240 -154q143 -91 205.5 -187.5t62.5 -228.5q0 -205 -135.5 -315.5t-384.5 -110.5q-280 0 -527 144l144 284q203 -133 395 -133q87 0 134.5 31t47.5 86q0 40 -30.5 75.5
t-106.5 82.5l-221 141q-258 164 -258 405q0 177 122.5 278t338.5 101z" />
    <glyph glyph-name="scircumflex" unicode="&#x15d;" horiz-adv-x="876" 
d="M432 -31q-227 0 -420 99l115 243q153 -100 326 -100q50 0 71 10t21 35q0 18 -11.5 27.5t-52.5 27.5l-170 70q-223 88 -223 293q0 145 103.5 224t291.5 79q153 0 342 -62l-88 -239q-143 65 -270 65q-82 0 -82 -41q0 -20 15.5 -32t64.5 -33l158 -62q117 -47 169 -113.5
t52 -170.5q0 -152 -108 -236t-304 -84z" />
    <glyph glyph-name="Scedilla" unicode="&#x15e;" horiz-adv-x="1118" 
d="M586 1464q234 0 452 -110l-139 -277q-169 94 -311 94q-137 0 -137 -81q0 -34 22 -60t86 -65l240 -154q143 -91 205.5 -187.5t62.5 -228.5q0 -205 -135.5 -315.5t-384.5 -110.5q-280 0 -527 144l144 284q203 -133 395 -133q87 0 134.5 31t47.5 86q0 40 -30.5 75.5
t-106.5 82.5l-221 141q-258 164 -258 405q0 177 122.5 278t338.5 101z" />
    <glyph glyph-name="scedilla" unicode="&#x15f;" horiz-adv-x="876" 
d="M432 -31q-227 0 -420 99l115 243q153 -100 326 -100q50 0 71 10t21 35q0 18 -11.5 27.5t-52.5 27.5l-170 70q-223 88 -223 293q0 145 103.5 224t291.5 79q153 0 342 -62l-88 -239q-143 65 -270 65q-82 0 -82 -41q0 -20 15.5 -32t64.5 -33l158 -62q117 -47 169 -113.5
t52 -170.5q0 -152 -108 -236t-304 -84z" />
    <glyph glyph-name="Scaron" unicode="&#x160;" horiz-adv-x="1118" 
d="M586 1464q234 0 452 -110l-139 -277q-169 94 -311 94q-137 0 -137 -81q0 -34 22 -60t86 -65l240 -154q143 -91 205.5 -187.5t62.5 -228.5q0 -205 -135.5 -315.5t-384.5 -110.5q-280 0 -527 144l144 284q203 -133 395 -133q87 0 134.5 31t47.5 86q0 40 -30.5 75.5
t-106.5 82.5l-221 141q-258 164 -258 405q0 177 122.5 278t338.5 101z" />
    <glyph glyph-name="scaron" unicode="&#x161;" horiz-adv-x="876" 
d="M432 -31q-227 0 -420 99l115 243q153 -100 326 -100q50 0 71 10t21 35q0 18 -11.5 27.5t-52.5 27.5l-170 70q-223 88 -223 293q0 145 103.5 224t291.5 79q153 0 342 -62l-88 -239q-143 65 -270 65q-82 0 -82 -41q0 -20 15.5 -32t64.5 -33l158 -62q117 -47 169 -113.5
t52 -170.5q0 -152 -108 -236t-304 -84z" />
    <glyph glyph-name="uni0162" unicode="&#x162;" horiz-adv-x="1110" 
d="M10 1434h1088v-289h-334q-36 0 -53 10l-4 -4q6 -15 6 -61v-1090h-318v1090q0 41 8 61l-4 4q-17 -10 -53 -10h-336v289z" />
    <glyph glyph-name="uni0163" unicode="&#x163;" horiz-adv-x="710" 
d="M469 1452h31v-434q0 -55 -15 -82l4 -4q25 14 93 14h104v-260h-104q-70 0 -93 14l-4 -4q15 -27 15 -116v-580h-310v580q0 89 15 116l-4 4q-23 -14 -92 -14h-86v260h86q67 0 92 -14l4 4q-15 27 -15 82v246z" />
    <glyph glyph-name="Tcaron" unicode="&#x164;" horiz-adv-x="1110" 
d="M10 1434h1088v-289h-334q-36 0 -53 10l-4 -4q6 -15 6 -61v-1090h-318v1090q0 41 8 61l-4 4q-17 -10 -53 -10h-336v289z" />
    <glyph glyph-name="tcaron" unicode="&#x165;" horiz-adv-x="710" 
d="M469 1452h31v-434q0 -55 -15 -82l4 -4q25 14 93 14h104v-260h-104q-70 0 -93 14l-4 -4q15 -27 15 -116v-580h-310v580q0 89 15 116l-4 4q-23 -14 -92 -14h-86v260h86q67 0 92 -14l4 4q-15 27 -15 82v246z" />
    <glyph glyph-name="Tbar" unicode="&#x166;" horiz-adv-x="1110" 
d="M10 1434h1088v-289h-334q-36 0 -53 10l-4 -4q6 -15 6 -61v-1090h-318v1090q0 41 8 61l-4 4q-17 -10 -53 -10h-336v289z" />
    <glyph glyph-name="tbar" unicode="&#x167;" horiz-adv-x="710" 
d="M469 1452h31v-434q0 -55 -15 -82l4 -4q25 14 93 14h104v-260h-104q-70 0 -93 14l-4 -4q15 -27 15 -116v-580h-310v580q0 89 15 116l-4 4q-23 -14 -92 -14h-86v260h86q67 0 92 -14l4 4q-15 27 -15 82v246z" />
    <glyph glyph-name="Utilde" unicode="&#x168;" horiz-adv-x="1456" 
d="M1012 1434h321v-861q0 -286 -158.5 -443t-445.5 -157q-288 0 -447 157.5t-159 442.5v861h323v-844q0 -142 76 -224.5t207 -82.5q130 0 206.5 82.5t76.5 224.5v844z" />
    <glyph glyph-name="utilde" unicode="&#x169;" horiz-adv-x="1159" 
d="M745 946h310v-946h-301q0 108 30 238l-8 2q-49 -135 -129 -203t-205 -68q-156 0 -252 100t-96 291v586h318v-493q0 -103 41.5 -153t115.5 -50q77 0 126.5 56t49.5 173v467z" />
    <glyph glyph-name="Umacron" unicode="&#x16a;" horiz-adv-x="1456" 
d="M1012 1434h321v-861q0 -286 -158.5 -443t-445.5 -157q-288 0 -447 157.5t-159 442.5v861h323v-844q0 -142 76 -224.5t207 -82.5q130 0 206.5 82.5t76.5 224.5v844z" />
    <glyph glyph-name="umacron" unicode="&#x16b;" horiz-adv-x="1159" 
d="M745 946h310v-946h-301q0 108 30 238l-8 2q-49 -135 -129 -203t-205 -68q-156 0 -252 100t-96 291v586h318v-493q0 -103 41.5 -153t115.5 -50q77 0 126.5 56t49.5 173v467z" />
    <glyph glyph-name="Ubreve" unicode="&#x16c;" horiz-adv-x="1456" 
d="M1012 1434h321v-861q0 -286 -158.5 -443t-445.5 -157q-288 0 -447 157.5t-159 442.5v861h323v-844q0 -142 76 -224.5t207 -82.5q130 0 206.5 82.5t76.5 224.5v844z" />
    <glyph glyph-name="ubreve" unicode="&#x16d;" horiz-adv-x="1159" 
d="M745 946h310v-946h-301q0 108 30 238l-8 2q-49 -135 -129 -203t-205 -68q-156 0 -252 100t-96 291v586h318v-493q0 -103 41.5 -153t115.5 -50q77 0 126.5 56t49.5 173v467z" />
    <glyph glyph-name="Uring" unicode="&#x16e;" horiz-adv-x="1456" 
d="M1012 1434h321v-861q0 -286 -158.5 -443t-445.5 -157q-288 0 -447 157.5t-159 442.5v861h323v-844q0 -142 76 -224.5t207 -82.5q130 0 206.5 82.5t76.5 224.5v844z" />
    <glyph glyph-name="uring" unicode="&#x16f;" horiz-adv-x="1159" 
d="M745 946h310v-946h-301q0 108 30 238l-8 2q-49 -135 -129 -203t-205 -68q-156 0 -252 100t-96 291v586h318v-493q0 -103 41.5 -153t115.5 -50q77 0 126.5 56t49.5 173v467z" />
    <glyph glyph-name="Uhungarumlaut" unicode="&#x170;" horiz-adv-x="1456" 
d="M1012 1434h321v-861q0 -286 -158.5 -443t-445.5 -157q-288 0 -447 157.5t-159 442.5v861h323v-844q0 -142 76 -224.5t207 -82.5q130 0 206.5 82.5t76.5 224.5v844z" />
    <glyph glyph-name="uhungarumlaut" unicode="&#x171;" horiz-adv-x="1159" 
d="M745 946h310v-946h-301q0 108 30 238l-8 2q-49 -135 -129 -203t-205 -68q-156 0 -252 100t-96 291v586h318v-493q0 -103 41.5 -153t115.5 -50q77 0 126.5 56t49.5 173v467z" />
    <glyph glyph-name="Uogonek" unicode="&#x172;" horiz-adv-x="1456" 
d="M1012 1434h321v-861q0 -286 -158.5 -443t-445.5 -157q-288 0 -447 157.5t-159 442.5v861h323v-844q0 -142 76 -224.5t207 -82.5q130 0 206.5 82.5t76.5 224.5v844z" />
    <glyph glyph-name="uogonek" unicode="&#x173;" horiz-adv-x="1159" 
d="M745 946h310v-946h-301q0 108 30 238l-8 2q-49 -135 -129 -203t-205 -68q-156 0 -252 100t-96 291v586h318v-493q0 -103 41.5 -153t115.5 -50q77 0 126.5 56t49.5 173v467z" />
    <glyph glyph-name="Wcircumflex" unicode="&#x174;" horiz-adv-x="2045" 
d="M1001 1454h43l299 -666q26 -59 36.5 -91.5t17.5 -88.5h8q12 98 43 187l225 639h363l-588 -1448h-66l-307 680q-36 81 -47 157h-8q-10 -69 -49 -157l-307 -680h-66l-588 1448h365l223 -639q34 -98 45 -187h8q7 56 17.5 88.5t36.5 91.5z" />
    <glyph glyph-name="wcircumflex" unicode="&#x175;" horiz-adv-x="1583" 
d="M537 -20h-84l-451 966h338l115 -287q32 -78 43.5 -112.5t17.5 -75.5h8q7 43 20.5 76t55.5 115l154 305h75l154 -305q42 -82 55.5 -115t20.5 -76h8q7 41 18 74.5t43 113.5l117 287h338l-453 -966h-83l-168 331q-5 10 -15.5 31.5t-14 28t-11.5 22.5t-10.5 22t-8 18.5
t-7.5 19t-5.5 16.5t-5.5 18.5t-4 18.5h-9q-10 -42 -25 -77.5t-56 -117.5z" />
    <glyph glyph-name="Ycircumflex" unicode="&#x176;" horiz-adv-x="1374" 
d="M987 1434h377l-518 -926v-508h-318v508l-518 926h377l221 -465q7 -14 19 -38.5t16 -33.5t11.5 -25.5t10.5 -24.5t7.5 -21t7.5 -24.5t6 -25.5h4q3 14 5 25t7 25l7.5 21t10.5 25t11.5 25t16 33.5t18.5 38.5z" />
    <glyph glyph-name="ycircumflex" unicode="&#x177;" horiz-adv-x="1099" 
d="M766 946h332l-604 -1356h-310l222 484l-404 872h332l158 -371q26 -63 37.5 -111.5t15.5 -121.5l8 2q6 92 43 180z" />
    <glyph glyph-name="Ydieresis" unicode="&#x178;" horiz-adv-x="1374" 
d="M987 1434h377l-518 -926v-508h-318v508l-518 926h377l221 -465q7 -14 19 -38.5t16 -33.5t11.5 -25.5t10.5 -24.5t7.5 -21t7.5 -24.5t6 -25.5h4q3 14 5 25t7 25l7.5 21t10.5 25t11.5 25t16 33.5t18.5 38.5z" />
    <glyph glyph-name="Zacute" unicode="&#x179;" horiz-adv-x="1349" 
d="M254 1434h1067l4 -11l-793 -1161l9 -4q39 23 84.5 31t122.5 8h589l-157 -297h-1164l-6 10l801 1164l-6 4q-63 -39 -209 -39h-494z" />
    <glyph glyph-name="zacute" unicode="&#x17a;" horiz-adv-x="1024" 
d="M858 0h-862l-4 10l557 715l-6 6q-38 -22 -74 -30.5t-104 -8.5h-287l145 254h797l4 -10l-545 -713l8 -6q35 23 73.5 30t119.5 7h334z" />
    <glyph glyph-name="Zdotaccent" unicode="&#x17b;" horiz-adv-x="1349" 
d="M254 1434h1067l4 -11l-793 -1161l9 -4q39 23 84.5 31t122.5 8h589l-157 -297h-1164l-6 10l801 1164l-6 4q-63 -39 -209 -39h-494z" />
    <glyph glyph-name="zdotaccent" unicode="&#x17c;" horiz-adv-x="1024" 
d="M858 0h-862l-4 10l557 715l-6 6q-38 -22 -74 -30.5t-104 -8.5h-287l145 254h797l4 -10l-545 -713l8 -6q35 23 73.5 30t119.5 7h334z" />
    <glyph glyph-name="Zcaron" unicode="&#x17d;" horiz-adv-x="1349" 
d="M254 1434h1067l4 -11l-793 -1161l9 -4q39 23 84.5 31t122.5 8h589l-157 -297h-1164l-6 10l801 1164l-6 4q-63 -39 -209 -39h-494z" />
    <glyph glyph-name="zcaron" unicode="&#x17e;" horiz-adv-x="1024" 
d="M858 0h-862l-4 10l557 715l-6 6q-38 -22 -74 -30.5t-104 -8.5h-287l145 254h797l4 -10l-545 -713l8 -6q35 23 73.5 30t119.5 7h334z" />
    <glyph glyph-name="AEacute" unicode="&#x1fc;" horiz-adv-x="2615" 
d="M358 0h-348l707 1460h65l707 -1460h-348l-133 299h-514zM1634 1434h889v-283h-520q-40 0 -57 10l-4 -4q10 -17 10 -61v-144q0 -46 -10 -63l4 -4q17 10 57 10h465v-279h-465q-39 0 -57 11l-4 -4q10 -17 10 -62v-223q0 -45 -10 -62l4 -4q18 11 57 11h528v-283h-897v1434z
M563 526l2 -2q32 11 92 11h185q60 0 92 -11l2 2q-27 30 -55 97l-82 194q-42 102 -45 148h-9q-3 -52 -43 -148l-81 -194q-31 -67 -58 -97z" />
    <glyph glyph-name="aeacute" unicode="&#x1fd;" horiz-adv-x="2148" 
d="M532 977q244 0 350.5 -88t106.5 -289v-600h-309q0 106 33 188l-11 7q-99 -226 -331 -226q-153 0 -245.5 91t-92.5 241q0 148 93.5 236t248.5 88q221 0 323 -176l9 4q-17 52 -17 151q0 57 -52.5 90t-143.5 33q-119 0 -289 -31l-43 246q187 35 370 35zM1636 975
q220 0 344.5 -130.5t124.5 -367.5v-82h-561q-44 0 -66 4.5t-44 20.5l-4 -6l8 -23q42 -168 235 -168q146 0 275 84l102 -235q-174 -103 -375 -103q-248 0 -394 135t-146 371q0 230 139 365t362 135zM1624 745q-82 0 -135.5 -46.5t-63.5 -129.5l5 -6q16 19 86 19h206
q63 0 78 -17l4 4q-4 86 -52 131t-128 45zM496 442q-58 0 -94.5 -33.5t-36.5 -86.5q0 -54 36.5 -87.5t94.5 -33.5t95.5 34t37.5 87t-37.5 86.5t-95.5 33.5z" />
    <glyph glyph-name="Oslashacute" unicode="&#x1fe;" horiz-adv-x="1615" 
d="M809 1464q162 0 302 -56t239.5 -154.5t156 -237.5t56.5 -299q0 -214 -96.5 -385t-269 -267t-388.5 -96q-217 0 -390 96t-269.5 267t-96.5 385q0 161 56.5 299.5t156 237t240 154.5t303.5 56zM809 1157q-192 0 -311 -122.5t-119 -317.5t119 -318t311 -123q190 0 309 123
t119 318t-119 317.5t-309 122.5z" />
    <glyph glyph-name="oslashacute" unicode="&#x1ff;" horiz-adv-x="1167" 
d="M584 977q231 0 380.5 -139.5t149.5 -364.5t-149.5 -364.5t-380.5 -139.5q-233 0 -383 139.5t-150 364.5t150 364.5t383 139.5zM584 694q-96 0 -159 -61t-63 -160t63 -160t159 -61t158.5 60.5t62.5 160.5t-62.5 160.5t-158.5 60.5z" />
    <glyph glyph-name="uni0218" unicode="&#x218;" horiz-adv-x="1118" 
d="M586 1464q234 0 452 -110l-139 -277q-169 94 -311 94q-137 0 -137 -81q0 -34 22 -60t86 -65l240 -154q143 -91 205.5 -187.5t62.5 -228.5q0 -205 -135.5 -315.5t-384.5 -110.5q-280 0 -527 144l144 284q203 -133 395 -133q87 0 134.5 31t47.5 86q0 40 -30.5 75.5
t-106.5 82.5l-221 141q-258 164 -258 405q0 177 122.5 278t338.5 101z" />
    <glyph glyph-name="uni0219" unicode="&#x219;" horiz-adv-x="876" 
d="M432 -31q-227 0 -420 99l115 243q153 -100 326 -100q50 0 71 10t21 35q0 18 -11.5 27.5t-52.5 27.5l-170 70q-223 88 -223 293q0 145 103.5 224t291.5 79q153 0 342 -62l-88 -239q-143 65 -270 65q-82 0 -82 -41q0 -20 15.5 -32t64.5 -33l158 -62q117 -47 169 -113.5
t52 -170.5q0 -152 -108 -236t-304 -84z" />
    <glyph glyph-name="uni021A" unicode="&#x21a;" horiz-adv-x="1110" 
d="M10 1434h1088v-289h-334q-36 0 -53 10l-4 -4q6 -15 6 -61v-1090h-318v1090q0 41 8 61l-4 4q-17 -10 -53 -10h-336v289z" />
    <glyph glyph-name="uni021B" unicode="&#x21b;" horiz-adv-x="710" 
d="M469 1452h31v-434q0 -55 -15 -82l4 -4q25 14 93 14h104v-260h-104q-70 0 -93 14l-4 -4q15 -27 15 -116v-580h-310v580q0 89 15 116l-4 4q-23 -14 -92 -14h-86v260h86q67 0 92 -14l4 4q-15 27 -15 82v246z" />
    <glyph glyph-name="uni0237" unicode="&#x237;" 
d="M92 1434h334v-344h-334v344zM104 946h310v-975q0 -411 -432 -411h-29v284h18q133 0 133 146v956z" />
    <glyph glyph-name="uni0394" unicode="&#x394;" horiz-adv-x="1286" 
d="M551 1434h184l510 -1434h-1204zM885 205l-242 764l-242 -764h484z" />
    <glyph glyph-name="uni03A9" unicode="&#x3a9;" horiz-adv-x="1527" 
d="M764 1464q210 0 370.5 -83t246 -227.5t85.5 -326.5q0 -118 -40 -218.5t-108 -169t-150 -113.5t-175 -66v-6q110 14 172 14h277v-268h-596v446q137 21 224 120.5t87 242.5q0 158 -106 258t-287 100q-180 0 -285.5 -100t-105.5 -258q0 -143 86.5 -243t222.5 -120v-446h-594
v268h277q60 0 170 -14v6q-92 21 -174 66t-150.5 113.5t-109 169t-40.5 218.5q0 136 50 253.5t140.5 202t222.5 133t290 48.5z" />
    <glyph glyph-name="uni03BC" unicode="&#x3bc;" horiz-adv-x="1159" 
d="M745 479v467h310v-946h-301q0 108 30 238l-8 2q-49 -135 -129 -203t-205 -68q-36 0 -71 6v-385h-277v1356h318v-493q0 -103 41.5 -153t115.5 -50q77 0 126.5 56t49.5 173z" />
    <glyph glyph-name="pi" unicode="&#x3c0;" horiz-adv-x="1310" 
d="M381 977h868v-268h-186v-709h-279v709h-198l-160 -709h-283l160 707q-136 -6 -242 -39v268q121 41 320 41z" />
    <glyph glyph-name="uni0401" unicode="&#x401;" horiz-adv-x="1114" 
d="M135 1434h889v-283h-520q-41 0 -58 10l-4 -4q11 -18 11 -61v-144q0 -45 -11 -63l4 -4q17 10 58 10h465v-279h-465q-40 0 -58 11l-4 -4q11 -18 11 -62v-223q0 -44 -11 -62l4 -4q18 11 58 11h528v-283h-897v1434z" />
    <glyph glyph-name="uni0404" unicode="&#x404;" horiz-adv-x="1384" 
d="M807 -31q-223 0 -394.5 93.5t-265.5 263.5t-94 391t94 390.5t265.5 263t394.5 93.5q305 0 536 -155l-155 -265q-174 111 -385 111q-146 0 -246 -66t-141 -190q-10 -26 -27 -43l4 -4q31 10 84 10h471v-291h-471q-50 0 -84 11l-4 -4q17 -17 27 -43q41 -124 141 -190
t246 -66q212 0 385 110l155 -264q-232 -156 -536 -156z" />
    <glyph glyph-name="uni0405" unicode="&#x405;" horiz-adv-x="1118" 
d="M586 1464q234 0 452 -110l-139 -277q-169 94 -311 94q-137 0 -137 -81q0 -34 22 -60t86 -65l240 -154q143 -91 205.5 -187.5t62.5 -228.5q0 -205 -135.5 -315.5t-384.5 -110.5q-280 0 -527 144l144 284q203 -133 395 -133q87 0 134.5 31t47.5 86q0 40 -30.5 75.5
t-106.5 82.5l-221 141q-258 164 -258 405q0 177 122.5 278t338.5 101z" />
    <glyph glyph-name="uni0406" unicode="&#x406;" horiz-adv-x="587" 
d="M135 1434h318v-1434h-318v1434z" />
    <glyph glyph-name="uni0408" unicode="&#x408;" horiz-adv-x="700" 
d="M248 1434h317v-1037q0 -209 -92.5 -308t-284.5 -99q-42 0 -155 10v291q52 -6 110 -6q54 0 79.5 34t25.5 107v1008z" />
    <glyph glyph-name="uni040F" unicode="&#x40f;" horiz-adv-x="1499" 
d="M899 -287h-299v232q0 41 8 61l-4 4q-17 -10 -55 -10h-414v1434h318v-1090q0 -43 -11 -61l4 -4q17 10 58 10h491q41 0 58 -10l4 4q-10 17 -10 61v1090h317v-1434h-414q-38 0 -55 10l-4 -4q8 -20 8 -61v-232z" />
    <glyph glyph-name="uni0410" unicode="&#x410;" horiz-adv-x="1499" 
d="M358 0h-348l707 1460h65l707 -1460h-348l-133 299h-514zM563 526l2 -2q32 11 92 11h185q60 0 92 -11l2 2q-27 30 -55 97l-82 194q-42 102 -45 148h-9q-3 -52 -43 -148l-81 -194q-31 -67 -58 -97z" />
    <glyph glyph-name="uni0411" unicode="&#x411;" horiz-adv-x="1298" 
d="M725 918q238 0 373 -120t135 -335q0 -219 -134.5 -341t-373.5 -122h-590v1434h1018v-289h-649q-43 0 -58 10l-4 -4q11 -18 11 -61v-117q0 -44 -11 -62l4 -4q16 11 58 11h221zM682 279q223 0 223 184q0 83 -58 128.5t-165 45.5h-178q-43 0 -58 10l-4 -4q11 -18 11 -61
v-246q0 -46 -11 -64l4 -4q16 11 58 11h178z" />
    <glyph glyph-name="uni0412" unicode="&#x412;" horiz-adv-x="1290" 
d="M756 0h-621v1434h596q189 0 300.5 -95t111.5 -256q0 -116 -54 -195t-153 -108q-65 -19 -123 -22v-8q61 0 127 -13q287 -60 287 -340q0 -186 -125.5 -291.5t-345.5 -105.5zM442 864l4 -4q16 8 58 8h151q85 0 130.5 40.5t45.5 115.5q0 71 -45 108t-131 37h-151
q-42 0 -58 11l-4 -4q11 -18 11 -60v-192q0 -42 -11 -60zM442 258l4 -4q2 0 20.5 5t39.5 5h184q103 0 156 45t53 133q0 164 -211 164h-184q-43 0 -58 10l-4 -4q11 -18 11 -63v-230q0 -43 -11 -61z" />
    <glyph glyph-name="uni0413" unicode="&#x413;" horiz-adv-x="1019" 
d="M135 1434h875v-289h-506q-41 0 -58 10l-4 -4q11 -18 11 -61v-1090h-318v1434z" />
    <glyph glyph-name="uni0414" unicode="&#x414;" horiz-adv-x="1492" 
d="M307 -287h-297v541h123q40 0 57 -10l5 4q0 43 14 61q135 306 135 756v369h934v-1125q0 -41 -8 -61l4 -4q17 10 55 10h131v-541h-297v201q0 45 11 63l-5 5q-22 -11 -57 -11h-754q-37 0 -55 11l-4 -5q8 -20 8 -63v-201zM516 248l4 -4q17 10 55 10h340q41 0 58 -10l4 4
q-10 17 -10 61v789q0 46 10 63l-4 4q-17 -10 -58 -10h-208q-39 0 -56 10l-4 -4q8 -20 8 -63v-103q0 -221 -40.5 -428.5t-98.5 -318.5z" />
    <glyph glyph-name="uni0415" unicode="&#x415;" horiz-adv-x="1114" 
d="M135 1434h889v-283h-520q-41 0 -58 10l-4 -4q11 -18 11 -61v-144q0 -45 -11 -63l4 -4q17 10 58 10h465v-279h-465q-40 0 -58 11l-4 -4q11 -18 11 -62v-223q0 -44 -11 -62l4 -4q18 11 58 11h528v-283h-897v1434z" />
    <glyph glyph-name="uni0416" unicode="&#x416;" horiz-adv-x="2043" 
d="M166 -12q-62 0 -143 8v303q75 -6 83 -6q51 0 78 25t41 98l33 141q24 109 101 146t262 42v9q-185 3 -255 33t-94 126l-43 168q-19 78 -104 78q-39 0 -82 -4v283q73 8 137 8q133 0 206 -43t106 -152l63 -213q24 -94 61.5 -130t120.5 -36h82q41 0 58 -10l4 4q-11 22 -11 66
v502h304v-502q0 -44 -11 -66l4 -4q17 10 58 10h82q83 0 120.5 36t61.5 130l63 213q31 109 105 152t207 43q64 0 137 -8v-283q-43 4 -82 4q-85 0 -104 -78l-43 -168q-24 -96 -93.5 -126t-255.5 -33v-9q186 -5 262.5 -42t100.5 -146l31 -141q16 -73 43 -98t77 -25q13 0 82 6
v-303q-79 -8 -143 -8q-145 0 -224 54.5t-108 176.5l-55 238q-20 96 -58.5 130t-123.5 34h-82q-41 0 -58 10l-4 -4q11 -22 11 -66v-561h-304v561q0 44 11 66l-4 4q-17 -10 -58 -10h-82q-85 0 -123.5 -34t-58.5 -130l-55 -238q-29 -122 -108.5 -176.5t-225.5 -54.5z" />
    <glyph glyph-name="uni0417" unicode="&#x417;" horiz-adv-x="1204" 
d="M582 -31q-295 0 -541 117l121 266q213 -86 411 -86q252 0 252 158q0 164 -299 164h-194v293h198q114 0 173 38.5t59 112.5q0 135 -211 135q-166 0 -361 -65l-98 287q263 75 481 75q253 0 381.5 -93.5t128.5 -276.5q0 -122 -58 -195.5t-187 -116.5q-59 -21 -144 -24v-8
q60 0 142 -15q158 -31 231.5 -114.5t73.5 -231.5q0 -207 -141.5 -313.5t-417.5 -106.5z" />
    <glyph glyph-name="uni0418" unicode="&#x418;" horiz-adv-x="1478" 
d="M526 686l748 768h69v-1454h-313v623q0 172 23 249l-9 2q-18 -36 -36.5 -61.5t-57.5 -64.5l-747 -768h-68v1454h314v-623q0 -177 -25 -250l8 -2q21 40 39 65t55 62z" />
    <glyph glyph-name="uni0419" unicode="&#x419;" horiz-adv-x="1478" 
d="M526 686l748 768h69v-1454h-313v623q0 172 23 249l-9 2q-18 -36 -36.5 -61.5t-57.5 -64.5l-747 -768h-68v1454h314v-623q0 -177 -25 -250l8 -2q21 40 39 65t55 62z" />
    <glyph glyph-name="uni041A" unicode="&#x41a;" horiz-adv-x="1347" 
d="M1165 -12q-282 0 -325 215l-52 250q-17 89 -59.5 128.5t-120.5 39.5h-104q-43 0 -58 10l-4 -4q11 -22 11 -66v-561h-318v1434h318v-504q0 -44 -11 -66l4 -4q15 10 58 10h104q72 0 114 40.5t64 131.5l56 209q25 103 97.5 149t207.5 46q93 0 156 -8v-287q-31 4 -82 4
q-43 0 -66.5 -18t-34.5 -58l-47 -166q-17 -65 -51.5 -98t-101.5 -47t-195 -16v-9q195 -3 272 -43t97 -147l30 -133q14 -72 38.5 -98.5t78.5 -26.5q15 0 84 6v-305q-99 -8 -160 -8z" />
    <glyph glyph-name="uni041B" unicode="&#x41b;" horiz-adv-x="1556" 
d="M254 1434h1167v-1434h-317v1090q0 44 10 61l-4 4q-15 -10 -57 -10h-432q-41 0 -56 10l-4 -4q10 -17 10 -61v-689q0 -213 -90.5 -312t-283.5 -99q-47 0 -164 10v295q52 -6 119 -6q102 0 102 141v1004z" />
    <glyph glyph-name="uni041C" unicode="&#x41c;" horiz-adv-x="1974" 
d="M1010 -14h-45l-312 641q-27 59 -36.5 93t-12.5 79h-8q-6 -84 -35 -176l-205 -623h-346l533 1454h57l346 -772q18 -40 25 -68t12 -73h8q4 31 6.5 47.5t10 41t20.5 52.5l346 772h56l532 -1454h-344l-205 623q-29 92 -35 176h-8q-3 -46 -13 -79.5t-38 -92.5z" />
    <glyph glyph-name="uni041D" unicode="&#x41d;" horiz-adv-x="1509" 
d="M1057 1434h317v-1434h-317v557q0 44 10 61l-4 5q-22 -11 -57 -11h-502q-40 0 -58 11l-4 -5q11 -18 11 -61v-557h-318v1434h318v-476q0 -45 -11 -63l4 -4q17 10 58 10h502q37 0 57 -10l4 4q-10 17 -10 63v476z" />
    <glyph glyph-name="uni041E" unicode="&#x41e;" horiz-adv-x="1615" 
d="M809 1464q162 0 302 -56t239.5 -154.5t156 -237.5t56.5 -299q0 -214 -96.5 -385t-269 -267t-388.5 -96q-217 0 -390 96t-269.5 267t-96.5 385q0 161 56.5 299.5t156 237t240 154.5t303.5 56zM809 1157q-192 0 -311 -122.5t-119 -317.5t119 -318t311 -123q190 0 309 123
t119 318t-119 317.5t-309 122.5z" />
    <glyph glyph-name="uni041F" unicode="&#x41f;" horiz-adv-x="1517" 
d="M135 1434h1247v-1434h-317v1090q0 44 10 61l-4 4q-17 -10 -57 -10h-510q-41 0 -58 10l-4 -4q11 -18 11 -61v-1090h-318v1434z" />
    <glyph glyph-name="uni0420" unicode="&#x420;" horiz-adv-x="1196" 
d="M135 1434h531q242 0 375 -116t133 -327t-129.5 -327.5t-362.5 -116.5h-178q-43 0 -58 10l-4 -4q11 -18 11 -61v-492h-318v1434zM446 1171l-4 -4q11 -18 11 -61v-229q0 -46 -11 -64l4 -4q15 10 58 10h172q84 0 134 47t50 125t-49.5 124t-134.5 46h-172q-43 0 -58 10z" />
    <glyph glyph-name="uni0421" unicode="&#x421;" horiz-adv-x="1392" 
d="M829 -31q-169 0 -313.5 56t-246 154.5t-159 237t-57.5 300.5q0 216 98 386t275.5 265.5t402.5 95.5q294 0 523 -159l-162 -258q-171 110 -354 110q-200 0 -324.5 -122t-124.5 -318q0 -195 125 -318t324 -123q181 0 354 111l162 -258q-231 -160 -523 -160z" />
    <glyph glyph-name="uni0422" unicode="&#x422;" horiz-adv-x="1110" 
d="M10 1434h1088v-289h-334q-36 0 -53 10l-4 -4q6 -15 6 -61v-1090h-318v1090q0 41 8 61l-4 4q-17 -10 -53 -10h-336v289z" />
    <glyph glyph-name="uni0423" unicode="&#x423;" horiz-adv-x="1445" 
d="M399 -14q-104 0 -219 16l2 289q104 -17 185 -17q108 0 184 101l-541 1059h389l263 -572q10 -21 28 -60.5t24 -53t15.5 -37t13.5 -40.5t7 -36h8q7 67 19 106t48 127l240 566h371l-484 -1024q-96 -220 -225 -322t-328 -102z" />
    <glyph glyph-name="uni0424" unicode="&#x424;" horiz-adv-x="1755" 
d="M1032 -82h-307v111q0 48 10 63l-4 4q-15 -10 -69 -10q-173 0 -312.5 82t-218 226t-78.5 323t78.5 323t218 226t312.5 82q52 0 69 -11l4 4q-10 15 -10 64v111h307v-111q0 -44 -10 -64l4 -4q16 11 68 11q129 0 242 -48t193.5 -131.5t126.5 -200.5t46 -251t-46 -251
t-126.5 -200.5t-193.5 -131.5t-242 -48q-53 0 -68 10l-4 -4q10 -20 10 -63v-111zM741 352l4 4q-10 15 -10 64v594q0 48 10 63l-4 4q-12 -7 -59 -10q-141 -4 -221 -98.5t-80 -255.5t80 -256t221 -99q47 -3 59 -10zM1012 356l4 -4q13 8 57 10q141 4 221 99t80 256t-80 255.5
t-221 98.5q-44 2 -57 10l-4 -4q10 -20 10 -63v-594q0 -44 -10 -64z" />
    <glyph glyph-name="uni0425" unicode="&#x425;" horiz-adv-x="1503" 
d="M1034 1434h406l-404 -564q-59 -88 -90 -112v-6q5 -3 9.5 -7.5t11 -11.5t10.5 -12t12.5 -16.5t13 -17.5t15.5 -21.5t16 -22.5l457 -643h-404l-278 422q-50 73 -61 137h-9q-10 -60 -57 -137l-268 -422h-404l455 655q67 95 90 111v8q-28 20 -92 109l-400 551h404l223 -340
q57 -88 64 -138h8q7 52 63 138z" />
    <glyph glyph-name="uni0426" unicode="&#x426;" horiz-adv-x="1579" 
d="M1546 -287h-299v230q0 46 10 63l-4 4q-17 -10 -57 -10h-1061v1434h318v-1090q0 -43 -11 -61l4 -4q17 10 58 10h489q41 0 58 -10l4 4q-11 18 -11 61v1090h318v-1090q0 -44 -10 -61l4 -4q20 10 57 10h133v-576z" />
    <glyph glyph-name="uni0427" unicode="&#x427;" horiz-adv-x="1318" 
d="M1184 0h-318v461q0 67 17 127l-4 4q-176 -72 -392 -72q-222 0 -348.5 133t-126.5 365v416h318v-371q0 -115 61.5 -178.5t171.5 -63.5q141 0 303 51v562h318v-1434z" />
    <glyph glyph-name="uni0428" unicode="&#x428;" horiz-adv-x="2265" 
d="M2130 0h-1995v1434h318v-1090q0 -43 -11 -61l4 -4q17 10 58 10h420q38 0 55 -10l4 4q-10 17 -10 61v1090h317v-1090q0 -41 -8 -61l4 -4q17 10 55 10h420q41 0 58 -10l4 4q-11 18 -11 61v1090h318v-1434z" />
    <glyph glyph-name="uni0429" unicode="&#x429;" horiz-adv-x="2347" 
d="M2181 289h131v-576h-297v230q0 46 10 63l-4 4q-17 -10 -57 -10h-1829v1434h318v-1090q0 -43 -11 -61l4 -4q17 10 58 10h420q38 0 55 -10l4 4q-10 17 -10 61v1090h317v-1090q0 -41 -8 -61l4 -4q17 10 55 10h420q41 0 58 -10l4 4q-11 18 -11 61v1090h318v-1090
q0 -44 -10 -61l4 -4q17 10 57 10z" />
    <glyph glyph-name="uni042A" unicode="&#x42a;" horiz-adv-x="1476" 
d="M733 918h223q235 0 366.5 -120.5t131.5 -334.5q0 -218 -131.5 -340.5t-366.5 -122.5h-591v1090q0 44 10 61l-4 4q-15 -10 -58 -10h-303v289h672v-461q0 -45 -10 -62l4 -4q19 11 57 11zM733 279h180q108 0 166 47.5t58 136.5q0 83 -58.5 128.5t-165.5 45.5h-180
q-39 0 -57 10l-4 -4q10 -17 10 -61v-246q0 -47 -10 -64l4 -4q19 11 57 11z" />
    <glyph glyph-name="uni042B" unicode="&#x42b;" horiz-adv-x="1777" 
d="M725 918q235 0 367.5 -120.5t132.5 -334.5q0 -218 -132.5 -340.5t-367.5 -122.5h-590v1434h318v-461q0 -44 -11 -62l4 -4q16 11 58 11h221zM1325 0v1434h317v-1434h-317zM682 279q109 0 166 47.5t57 136.5q0 83 -58 128.5t-165 45.5h-178q-43 0 -58 10l-4 -4
q11 -18 11 -61v-246q0 -46 -11 -64l4 -4q16 11 58 11h178z" />
    <glyph glyph-name="uni042C" unicode="&#x42c;" horiz-adv-x="1247" 
d="M725 918q235 0 367.5 -120.5t132.5 -334.5q0 -218 -132.5 -340.5t-367.5 -122.5h-590v1434h318v-461q0 -44 -11 -62l4 -4q16 11 58 11h221zM682 279q109 0 166 47.5t57 136.5q0 83 -58 128.5t-165 45.5h-178q-43 0 -58 10l-4 -4q11 -18 11 -61v-246q0 -46 -11 -64l4 -4
q16 11 58 11h178z" />
    <glyph glyph-name="uni042D" unicode="&#x42d;" horiz-adv-x="1384" 
d="M578 -31q-305 0 -537 156l156 264q173 -110 385 -110q146 0 246 66t141 190q10 27 26 43l-4 4q-34 -11 -84 -11h-471v291h471q53 0 84 -10l4 4q-16 16 -26 43q-41 124 -141 190t-246 66q-211 0 -385 -111l-156 265q231 155 537 155q223 0 394.5 -93.5t265 -263
t93.5 -390.5q0 -165 -54.5 -304.5t-152.5 -237t-238.5 -152t-307.5 -54.5z" />
    <glyph glyph-name="uni042E" unicode="&#x42e;" horiz-adv-x="2172" 
d="M1364 1464q163 0 303.5 -56t240 -154.5t156 -237t56.5 -299.5q0 -214 -96.5 -385t-269.5 -267t-390 -96q-289 0 -492 166.5t-249 435.5h-119q-43 0 -58 9l-4 -5q11 -18 11 -61v-514h-318v1434h318v-519q0 -45 -11 -63l4 -4q17 10 58 10h119q45 270 248 438t493 168z
M1364 276q191 0 309.5 122.5t118.5 318.5t-118.5 318t-309.5 122q-190 0 -309 -122.5t-119 -317.5t119 -318t309 -123z" />
    <glyph glyph-name="uni042F" unicode="&#x42f;" horiz-adv-x="1363" 
d="M662 1434h567v-1434h-318v498q0 59 17 108l-4 4q-8 -6 -31 -12q-27 -6 -64 -6l-442 -592h-387l403 504q40 50 76.5 78t81.5 41v4q-14 -2 -43 -2q-62 0 -122 27.5t-109 77t-79 126.5t-30 168q0 189 125 299.5t359 110.5zM922 1167l-4 4q-17 -10 -58 -10h-184
q-79 0 -123.5 -41.5t-44.5 -115.5q0 -77 44.5 -119.5t123.5 -42.5h184q40 0 58 -11l4 5q-11 18 -11 63v207q0 43 11 61z" />
    <glyph glyph-name="uni0430" unicode="&#x430;" horiz-adv-x="1083" 
d="M532 977q244 0 350.5 -88t106.5 -289v-600h-309q0 106 33 188l-11 7q-99 -226 -331 -226q-153 0 -245.5 91t-92.5 241q0 148 93.5 236t248.5 88q221 0 323 -176l9 4q-17 52 -17 151q0 57 -52.5 90t-143.5 33q-119 0 -289 -31l-43 246q187 35 370 35zM496 442
q-58 0 -94.5 -33.5t-36.5 -86.5q0 -54 36.5 -87.5t94.5 -33.5t95.5 34t37.5 87t-37.5 86.5t-95.5 33.5z" />
    <glyph glyph-name="uni0431" unicode="&#x431;" horiz-adv-x="1187" 
d="M614 -31q-94 0 -176.5 23t-154 73t-123 125t-80.5 185t-29 246q0 242 68 386t209 222q44 23 117 49t149 50t98 32q47 17 63.5 36.5t18.5 47.5h313q0 -224 -174 -287q-38 -15 -205 -57.5t-233 -71.5q-109 -50 -149.5 -136.5t-40.5 -234.5h6q36 147 145 220t252 73
q199 0 324 -130t125 -347q0 -226 -142.5 -365t-380.5 -139zM600 252q93 0 156 61t63 160t-63 160t-156 61q-94 0 -156.5 -61t-62.5 -160t62.5 -160t156.5 -61z" />
    <glyph glyph-name="uni0432" unicode="&#x432;" horiz-adv-x="1054" 
d="M870 471q58 -21 96 -72t38 -135q0 -58 -18 -103.5t-48.5 -75.5t-73.5 -49.5t-89 -27.5t-99 -8h-572v946h580q295 0 295 -227q0 -74 -26 -118t-83 -71q-60 -28 -174 -30v-8q116 0 174 -21zM406 733l-3 -2q11 -22 11 -53v-53q0 -32 -11 -54l3 -2q18 9 57 9h115
q42 0 66 19.5t24 55.5q0 35 -24 53.5t-66 18.5h-115q-41 0 -57 8zM592 221q47 0 74.5 21t27.5 63q0 82 -102 82h-129q-41 0 -57 8l-3 -2q11 -22 11 -51v-74q0 -31 -11 -53l3 -2q16 8 57 8h129z" />
    <glyph glyph-name="uni0433" unicode="&#x433;" horiz-adv-x="794" 
d="M414 0h-310v946h680v-268h-321q-41 0 -57 8l-3 -2q11 -22 11 -53v-631z" />
    <glyph glyph-name="uni0434" unicode="&#x434;" horiz-adv-x="1263" 
d="M299 -287h-279v518h97q35 0 51 -8l2 2q0 26 14 54q103 169 103 481v186h800v-667q0 -34 -10 -54l2 -2q16 8 58 8h94v-518h-277v221q0 32 11 54l-2 2q-16 -8 -58 -8h-557q-43 0 -57 8l-2 -2q10 -27 10 -54v-221zM461 225l2 -2q16 8 57 8h225q42 0 58 -8l2 2q-10 20 -10 54
v370q0 33 10 53l-2 3q-18 -9 -58 -9h-139q-39 0 -57 9l-2 -3q10 -20 10 -53v-49q0 -93 -27 -198.5t-69 -176.5z" />
    <glyph glyph-name="uni0435" unicode="&#x435;" horiz-adv-x="1064" 
d="M553 975q220 0 344.5 -130.5t124.5 -367.5v-82h-561q-44 0 -66.5 4.5t-44.5 20.5l-4 -6l8 -23q42 -168 236 -168q145 0 274 84l103 -235q-174 -103 -375 -103q-248 0 -394.5 135t-146.5 371q0 230 139.5 365t362.5 135zM541 745q-82 0 -135.5 -46.5t-63.5 -129.5l4 -6
q16 19 86 19h207q63 0 78 -17l4 4q-4 86 -52 131t-128 45z" />
    <glyph glyph-name="uni0436" unicode="&#x436;" horiz-adv-x="1536" 
d="M213 -6h-176v239h26q32 0 48.5 12t35.5 46l33 84q24 60 68 86.5t151 27.5v9q-74 1 -118 13t-64 31.5t-35 55.5l-30 68q-31 47 -84 47h-35v239h166q74 0 120 -26.5t70 -85.5l60 -133q20 -54 39.5 -74.5t58.5 -20.5h31q47 0 63 -4l2 2q-10 38 -10 82v254h270v-254
q0 -44 -10 -82l2 -2q20 4 63 4h31q39 0 60 21t41 74l59 133q23 59 68.5 85.5t121.5 26.5h166v-239h-37q-53 0 -84 -47l-30 -68q-15 -36 -35 -55.5t-64 -31.5t-118 -13v-9q108 -1 151.5 -27.5t67.5 -86.5l33 -84q19 -34 35.5 -46t48.5 -12h26v-239h-174q-149 0 -192 123
l-48 145q-17 63 -35 88t-61 25h-31q-43 0 -63 4l-2 -2q10 -38 10 -86v-291h-270v291q0 48 10 86l-2 2q-16 -4 -63 -4h-31q-41 0 -58.5 -24t-37.5 -89l-48 -145q-43 -123 -190 -123z" />
    <glyph glyph-name="uni0437" unicode="&#x437;" horiz-adv-x="950" 
d="M459 -31q-255 0 -447 80l99 230q163 -70 315 -70q95 0 135.5 22t40.5 66q0 76 -133 76h-141v217h125q106 0 106 72q0 75 -151 75q-138 0 -293 -61l-88 231q229 70 426 70q100 0 173 -12.5t128 -41t82.5 -78.5t27.5 -122q0 -206 -250 -223v-8q134 -6 208.5 -65t74.5 -175
q0 -142 -107.5 -212.5t-330.5 -70.5z" />
    <glyph glyph-name="uni0438" unicode="&#x438;" horiz-adv-x="1153" 
d="M186 -12h-82v958h310v-268q0 -67 -0.5 -90t-4.5 -53.5t-14 -61.5l8 -2q4 7 9 14t9.5 12.5t12 13l12 12t15 13.5t15.5 13t19 16t21 17l451 376h80v-958h-308v268q0 67 0.5 90t4.5 53.5t14 61.5l-8 2l-8 -12t-9.5 -12t-9.5 -10.5t-11.5 -11.5t-11 -10.5t-13.5 -12
t-14.5 -12t-17.5 -14t-18 -15.5z" />
    <glyph glyph-name="uni0439" unicode="&#x439;" horiz-adv-x="1153" 
d="M186 -12h-82v958h310v-268q0 -67 -0.5 -90t-4.5 -53.5t-14 -61.5l8 -2q4 7 9 14t9.5 12.5t12 13l12 12t15 13.5t15.5 13t19 16t21 17l451 376h80v-958h-308v268q0 67 0.5 90t4.5 53.5t14 61.5l-8 2l-8 -12t-9.5 -12t-9.5 -10.5t-11.5 -11.5t-11 -10.5t-13.5 -12
t-14.5 -12t-17.5 -14t-18 -15.5z" />
    <glyph glyph-name="uni043A" unicode="&#x43a;" horiz-adv-x="1071" 
d="M1034 -6h-174q-83 0 -127.5 31t-64.5 92l-47 145q-18 61 -41 87t-66 26h-45q-47 0 -63 4l-3 -2q11 -42 11 -86v-291h-310v946h310v-254q0 -40 -11 -82l3 -2q16 4 63 4h45q40 0 65 22t44 73l59 133q25 59 70.5 85.5t121.5 26.5h166v-239h-18q-82 0 -109 -47l-30 -68
q-20 -53 -63 -76t-148 -24v-9q103 -1 147 -28t66 -86l33 -84q21 -34 39 -46t51 -12h26v-239z" />
    <glyph glyph-name="uni043B" unicode="&#x43b;" horiz-adv-x="1167" 
d="M190 946h873v-946h-309v631q0 33 10 53l-2 2q-16 -8 -57 -8h-156q-41 0 -57 8l-3 -2q11 -22 11 -53v-262q0 -369 -369 -369h-121v268h76q55 0 79.5 27t24.5 100v551z" />
    <glyph glyph-name="uni043C" unicode="&#x43c;" horiz-adv-x="1523" 
d="M801 -18h-76l-174 346q-2 5 -14 29t-15.5 33.5t-9.5 29.5t-8 39h-8q-1 -17 -3 -31.5t-7 -30.5t-7 -23.5t-10 -28.5t-10 -28l-125 -317h-332l424 965h78l209 -406q38 -68 45 -115h8q7 47 45 115l209 406h78l424 -965h-332l-123 317q-33 84 -37 142h-8q-1 -9 -2.5 -17.5
t-3.5 -17t-4 -14.5t-5.5 -14.5t-5.5 -13t-7 -14t-6.5 -12.5t-7.5 -14t-7 -14z" />
    <glyph glyph-name="uni043D" unicode="&#x43d;" horiz-adv-x="1169" 
d="M756 686v260h309v-946h-309v324q0 33 10 53l-2 2q-16 -8 -57 -8h-244q-41 0 -57 8l-3 -2q11 -22 11 -53v-324h-310v946h310v-260q0 -31 -11 -53l3 -2q16 8 57 8h244q41 0 57 -8l2 2q-10 20 -10 53z" />
    <glyph glyph-name="uni043E" unicode="&#x43e;" horiz-adv-x="1167" 
d="M584 977q231 0 380.5 -139.5t149.5 -364.5t-149.5 -364.5t-380.5 -139.5q-233 0 -383 139.5t-150 364.5t150 364.5t383 139.5zM584 694q-96 0 -159 -61t-63 -160t63 -160t159 -61t158.5 60.5t62.5 160.5t-62.5 160.5t-158.5 60.5z" />
    <glyph glyph-name="uni043F" unicode="&#x43f;" horiz-adv-x="1173" 
d="M104 946h965v-946h-309v631q0 33 10 53l-2 2q-16 -8 -57 -8h-248q-41 0 -57 8l-3 -2q11 -22 11 -53v-631h-310v946z" />
    <glyph glyph-name="uni0440" unicode="&#x440;" horiz-adv-x="1230" 
d="M743 977q193 0 315 -138t122 -368q0 -229 -120 -365.5t-315 -136.5q-121 0 -212 62t-136 184l-8 -2q19 -117 19 -184v-439h-304v1356h306q0 -122 -23 -213l8 -2q106 246 348 246zM631 700q-105 0 -168.5 -61.5t-63.5 -165.5t63.5 -165.5t168.5 -61.5t168 61t63 166
t-63.5 166t-167.5 61z" />
    <glyph glyph-name="uni0441" unicode="&#x441;" horiz-adv-x="944" 
d="M578 -31q-233 0 -380 140.5t-147 363.5t147 363.5t380 140.5q187 0 342 -92l-125 -248q-92 57 -203 57q-101 0 -165.5 -61.5t-64.5 -159.5q0 -97 64.5 -159t165.5 -62q111 0 203 57l125 -248q-155 -92 -342 -92z" />
    <glyph glyph-name="uni0442" unicode="&#x442;" horiz-adv-x="935" 
d="M10 678v268h916v-268h-254q-42 0 -58 8l-2 -2q11 -22 11 -53v-631h-310v631q0 31 11 53l-2 2q-16 -8 -58 -8h-254z" />
    <glyph glyph-name="uni0443" unicode="&#x443;" horiz-adv-x="1099" 
d="M766 946h332l-604 -1356h-310l222 484l-404 872h332l158 -371q26 -63 37.5 -111.5t15.5 -121.5l8 2q6 92 43 180z" />
    <glyph glyph-name="uni0444" unicode="&#x444;" horiz-adv-x="1779" 
d="M1038 -410h-297v410q0 150 31 252l-8 4q-46 -142 -126 -214.5t-210 -72.5q-162 0 -264.5 137t-102.5 367t102.5 367t264.5 137q130 0 210 -72.5t126 -214.5l8 4q-31 102 -31 252v440h297v-440q0 -152 -28 -252l8 -4q47 142 125.5 214.5t208.5 72.5q163 0 264.5 -136.5
t101.5 -367.5t-101.5 -367.5t-264.5 -136.5q-130 0 -208.5 72.5t-125.5 214.5l-8 -4q28 -100 28 -252v-410zM563 252q82 0 135.5 60.5t53.5 160.5t-53.5 160.5t-135.5 60.5q-78 0 -130.5 -60t-53.5 -161q1 -101 53.5 -161t130.5 -60zM1217 252q79 0 131.5 60.5t52.5 160.5
t-52.5 160.5t-131.5 60.5q-80 0 -134.5 -60.5t-54.5 -160.5t54.5 -160.5t134.5 -60.5z" />
    <glyph glyph-name="uni0445" unicode="&#x445;" horiz-adv-x="1163" 
d="M375 0h-365l330 438q28 41 57 58v6q-37 26 -53 51l-299 393h367l110 -162q48 -67 58 -133h8q10 65 55 133l109 162h366l-299 -395q-26 -36 -55 -51v-6q27 -14 57 -58l330 -436h-365l-155 213q-39 54 -47 131h-9q-13 -76 -51 -131z" />
    <glyph glyph-name="uni0446" unicode="&#x446;" horiz-adv-x="1243" 
d="M1212 -287h-276v240q0 33 10 53l-2 2q-16 -8 -57 -8h-783v946h310v-631q0 -31 -11 -53l3 -2q16 8 57 8h246q41 0 57 -8l2 2q-10 20 -10 53v631h309v-631q0 -33 -10 -53l2 -2q16 8 57 8h96v-555z" />
    <glyph glyph-name="uni0447" unicode="&#x447;" horiz-adv-x="1064" 
d="M651 946h310v-946h-310v283q0 58 19 98l-4 4q-151 -80 -291 -80q-176 0 -270.5 97.5t-94.5 314.5v229h309v-215q0 -147 148 -147q76 0 184 41v321z" />
    <glyph glyph-name="uni0448" unicode="&#x448;" horiz-adv-x="1779" 
d="M1366 315v631h307v-946h-1569v946h310v-631q0 -31 -11 -53l3 -2q16 8 57 8h223q41 0 57 -8l2 2q-10 20 -10 53v631h309v-631q0 -33 -10 -53l2 -2q16 8 58 8h223q41 0 57 -8l2 2q-10 20 -10 53z" />
    <glyph glyph-name="uni0449" unicode="&#x449;" horiz-adv-x="1849" 
d="M1817 -287h-277v240q0 33 10 53l-2 2q-16 -8 -57 -8h-1387v946h310v-631q0 -31 -11 -53l3 -2q16 8 57 8h223q41 0 57 -8l2 2q-10 20 -10 53v631h309v-631q0 -33 -10 -53l2 -2q16 8 58 8h223q41 0 57 -8l2 2q-10 20 -10 53v631h307v-631q0 -33 -10 -53l2 -2q16 8 57 8h95
v-555z" />
    <glyph glyph-name="uni044A" unicode="&#x44a;" horiz-adv-x="1175" 
d="M797 688q170 0 268 -86t98 -258q0 -171 -99 -257.5t-267 -86.5h-518v631q0 33 10 53l-2 2q-16 -8 -58 -8h-219v268h578v-211q0 -26 -10 -53l2 -2q14 8 57 8h160zM731 238q55 0 85 27t30 79t-30.5 80.5t-84.5 28.5h-94q-43 0 -57 8l-2 -2q10 -27 10 -53v-121
q0 -27 -10 -54l2 -2q16 9 57 9h94z" />
    <glyph glyph-name="uni044B" unicode="&#x44b;" horiz-adv-x="1001" 
d="M614 688q173 0 274 -86t101 -258q0 -171 -101 -257.5t-274 -86.5h-510v946h310v-211q0 -31 -11 -53l3 -2q16 8 57 8h151zM559 238q53 0 83 27t30 79t-30 80.5t-83 28.5h-96q-41 0 -57 8l-3 -2q11 -22 11 -53v-121q0 -32 -11 -54l3 -2q18 9 57 9h96z" />
    <glyph glyph-name="uni044C" unicode="&#x44c;" horiz-adv-x="1001" 
d="M614 688q173 0 274 -86t101 -258q0 -171 -101 -257.5t-274 -86.5h-510v946h310v-211q0 -31 -11 -53l3 -2q16 8 57 8h151zM559 238q53 0 83 27t30 79t-30 80.5t-83 28.5h-96q-41 0 -57 8l-3 -2q11 -22 11 -53v-121q0 -32 -11 -54l3 -2q18 9 57 9h96z" />
    <glyph glyph-name="uni044D" unicode="&#x44d;" horiz-adv-x="942" 
d="M377 -31q-186 0 -354 84l108 232q111 -58 225 -58q166 0 203 125q3 4 8 16.5t8 16.5l-2 4q-21 -8 -61 -8h-238v184h238q40 0 61 -8l2 4q-3 4 -8 16.5t-8 16.5q-37 125 -203 125q-116 0 -225 -57l-108 231q168 84 354 84q230 0 367 -132.5t137 -371.5t-137 -371.5
t-367 -132.5z" />
    <glyph glyph-name="uni044E" unicode="&#x44e;" horiz-adv-x="1677" 
d="M1096 977q231 0 380.5 -139.5t149.5 -364.5t-149.5 -364.5t-380.5 -139.5q-196 0 -336.5 101.5t-181.5 273.5h-119q-42 0 -58 8l-2 -2q11 -22 11 -53v-297h-306v946h306v-297q0 -31 -11 -53l2 -2q16 8 58 8h119q41 172 181.5 273.5t336.5 101.5zM1096 252q94 0 157.5 61
t63.5 160t-63.5 160t-157.5 61q-96 0 -159 -61t-63 -160t63 -160t159 -61z" />
    <glyph glyph-name="uni044F" unicode="&#x44f;" horiz-adv-x="1107" 
d="M430 946h571v-946h-307v274q0 32 11 54l-3 2q-16 -8 -57 -8h-16l-242 -322h-367v12l207 234q41 47 68.5 67.5t66.5 32.5v6q-71 -9 -104 2q-97 31 -141.5 108.5t-44.5 168.5q0 150 92 232.5t266 82.5zM702 508l3 2q-11 22 -11 53v119q0 31 11 53l-3 2q-16 -8 -57 -8h-110
q-136 0 -136 -106q0 -107 136 -107h110q36 0 57 -8z" />
    <glyph glyph-name="uni0451" unicode="&#x451;" horiz-adv-x="1064" 
d="M553 975q220 0 344.5 -130.5t124.5 -367.5v-82h-561q-44 0 -66.5 4.5t-44.5 20.5l-4 -6l8 -23q42 -168 236 -168q145 0 274 84l103 -235q-174 -103 -375 -103q-248 0 -394.5 135t-146.5 371q0 230 139.5 365t362.5 135zM541 745q-82 0 -135.5 -46.5t-63.5 -129.5l4 -6
q16 19 86 19h207q63 0 78 -17l4 4q-4 86 -52 131t-128 45z" />
    <glyph glyph-name="uni0454" unicode="&#x454;" horiz-adv-x="942" 
d="M565 -31q-230 0 -367 132.5t-137 371.5t137 371.5t367 132.5q187 0 355 -84l-109 -231q-109 57 -225 57q-166 0 -203 -125q-3 -4 -8 -16.5t-8 -16.5l2 -4q21 8 61 8h238v-184h-238q-40 0 -61 8l-2 -4q3 -4 8 -16.5t8 -16.5q37 -125 203 -125q114 0 225 58l109 -232
q-168 -84 -355 -84z" />
    <glyph glyph-name="uni0455" unicode="&#x455;" horiz-adv-x="876" 
d="M432 -31q-227 0 -420 99l115 243q153 -100 326 -100q50 0 71 10t21 35q0 18 -11.5 27.5t-52.5 27.5l-170 70q-223 88 -223 293q0 145 103.5 224t291.5 79q153 0 342 -62l-88 -239q-143 65 -270 65q-82 0 -82 -41q0 -20 15.5 -32t64.5 -33l158 -62q117 -47 169 -113.5
t52 -170.5q0 -152 -108 -236t-304 -84z" />
    <glyph glyph-name="uni0458" unicode="&#x458;" 
d="M92 1434h334v-344h-334v344zM104 946h310v-975q0 -411 -432 -411h-29v284h18q133 0 133 146v956z" />
    <glyph glyph-name="Wgrave" unicode="&#x1e80;" horiz-adv-x="2045" 
d="M1001 1454h43l299 -666q26 -59 36.5 -91.5t17.5 -88.5h8q12 98 43 187l225 639h363l-588 -1448h-66l-307 680q-36 81 -47 157h-8q-10 -69 -49 -157l-307 -680h-66l-588 1448h365l223 -639q34 -98 45 -187h8q7 56 17.5 88.5t36.5 91.5z" />
    <glyph glyph-name="wgrave" unicode="&#x1e81;" horiz-adv-x="1583" 
d="M537 -20h-84l-451 966h338l115 -287q32 -78 43.5 -112.5t17.5 -75.5h8q7 43 20.5 76t55.5 115l154 305h75l154 -305q42 -82 55.5 -115t20.5 -76h8q7 41 18 74.5t43 113.5l117 287h338l-453 -966h-83l-168 331q-5 10 -15.5 31.5t-14 28t-11.5 22.5t-10.5 22t-8 18.5
t-7.5 19t-5.5 16.5t-5.5 18.5t-4 18.5h-9q-10 -42 -25 -77.5t-56 -117.5z" />
    <glyph glyph-name="Wacute" unicode="&#x1e82;" horiz-adv-x="2045" 
d="M1001 1454h43l299 -666q26 -59 36.5 -91.5t17.5 -88.5h8q12 98 43 187l225 639h363l-588 -1448h-66l-307 680q-36 81 -47 157h-8q-10 -69 -49 -157l-307 -680h-66l-588 1448h365l223 -639q34 -98 45 -187h8q7 56 17.5 88.5t36.5 91.5z" />
    <glyph glyph-name="wacute" unicode="&#x1e83;" horiz-adv-x="1583" 
d="M537 -20h-84l-451 966h338l115 -287q32 -78 43.5 -112.5t17.5 -75.5h8q7 43 20.5 76t55.5 115l154 305h75l154 -305q42 -82 55.5 -115t20.5 -76h8q7 41 18 74.5t43 113.5l117 287h338l-453 -966h-83l-168 331q-5 10 -15.5 31.5t-14 28t-11.5 22.5t-10.5 22t-8 18.5
t-7.5 19t-5.5 16.5t-5.5 18.5t-4 18.5h-9q-10 -42 -25 -77.5t-56 -117.5z" />
    <glyph glyph-name="Wdieresis" unicode="&#x1e84;" horiz-adv-x="2045" 
d="M1001 1454h43l299 -666q26 -59 36.5 -91.5t17.5 -88.5h8q12 98 43 187l225 639h363l-588 -1448h-66l-307 680q-36 81 -47 157h-8q-10 -69 -49 -157l-307 -680h-66l-588 1448h365l223 -639q34 -98 45 -187h8q7 56 17.5 88.5t36.5 91.5z" />
    <glyph glyph-name="wdieresis" unicode="&#x1e85;" horiz-adv-x="1583" 
d="M537 -20h-84l-451 966h338l115 -287q32 -78 43.5 -112.5t17.5 -75.5h8q7 43 20.5 76t55.5 115l154 305h75l154 -305q42 -82 55.5 -115t20.5 -76h8q7 41 18 74.5t43 113.5l117 287h338l-453 -966h-83l-168 331q-5 10 -15.5 31.5t-14 28t-11.5 22.5t-10.5 22t-8 18.5
t-7.5 19t-5.5 16.5t-5.5 18.5t-4 18.5h-9q-10 -42 -25 -77.5t-56 -117.5z" />
    <glyph glyph-name="Ygrave" unicode="&#x1ef2;" horiz-adv-x="1374" 
d="M987 1434h377l-518 -926v-508h-318v508l-518 926h377l221 -465q7 -14 19 -38.5t16 -33.5t11.5 -25.5t10.5 -24.5t7.5 -21t7.5 -24.5t6 -25.5h4q3 14 5 25t7 25l7.5 21t10.5 25t11.5 25t16 33.5t18.5 38.5z" />
    <glyph glyph-name="ygrave" unicode="&#x1ef3;" horiz-adv-x="1099" 
d="M766 946h332l-604 -1356h-310l222 484l-404 872h332l158 -371q26 -63 37.5 -111.5t15.5 -121.5l8 2q6 92 43 180z" />
    </font>
</defs>
</svg>
