<?xml version="1.0" standalone="no"?>
<!DOCTYPE svg PUBLIC "-//W3C//DTD SVG 1.1//EN" "http://www.w3.org/Graphics/SVG/1.1/DTD/svg11.dtd" >
<svg xmlns="http://www.w3.org/2000/svg" xmlns:xlink="http://www.w3.org/1999/xlink" version="1.1">
<metadata>
Created by FontForge 20170731 at Fri Apr 28 10:27:58 2023
 By Aleksey,,,
Copyright (c) 2015 by Grilli Type. All rights reserved.
</metadata>
<defs>
<font id="GTEestiTextTrial-Rg" horiz-adv-x="1056" >
  <font-face 
    font-family="GT Eesti Text Trial Rg"
    font-weight="400"
    font-stretch="normal"
    units-per-em="2048"
    panose-1="0 0 5 0 0 0 0 0 0 0"
    ascent="1536"
    descent="-512"
    x-height="946"
    cap-height="1434"
    bbox="-53 -440 2613 1516"
    underline-thickness="102"
    underline-position="-307"
    unicode-range="U+0020-1EF3"
  />
<missing-glyph horiz-adv-x="1126" 
d="M102 0v1434h922v-1434h-922zM371 821v-4q0 -25 -18.5 -46t-55.5 -21q-41 0 -62.5 28t-21.5 80q0 51 21.5 82t60.5 31q49 0 63 -47l62 24q-29 80 -123 80q-72 0 -112 -47t-40 -121q0 -72 37.5 -119t100.5 -47q65 0 88 41l8 -35h47v179h-137v-58h82zM616 1024v-59h66v59
h-66zM770 700v324h-59v-324h59zM864 700v324h-61v-324h61zM897 1024v-59h66v59h-66zM604 872v56q-12 4 -22 4q-38 0 -64 -43v37h-55v-226h59v103q0 31 15 51t47 20q14 0 20 -2zM618 926v-226h62v226h-62zM899 926v-226h62v226h-62zM623 633h-66v-62h66v62zM874 309h60v324
h-60v-324zM182 629v-60h90v-260h62v260h90v60h-242zM545 479v58q-6 2 -21 2q-42 0 -61 -43v36h-57v-223h61v101q0 71 57 71q13 0 21 -2zM788 309h60q-6 30 -6 43v82q0 55 -20.5 80t-73.5 25q-50 0 -76.5 -20t-28.5 -56h59q3 31 43 31q22 0 29.5 -11t7.5 -34q-62 -5 -102 -17
q-43 -17 -43 -59q0 -32 22 -51t56 -19q51 0 71 39q0 -23 2 -33zM621 532h-62v-223h62v223zM782 412v-6q0 -27 -13.5 -42.5t-35.5 -15.5q-16 0 -25.5 8t-9.5 19q0 27 47 33z" />
    <glyph glyph-name=".notdef" horiz-adv-x="1126" 
d="M102 0v1434h922v-1434h-922zM371 821v-4q0 -25 -18.5 -46t-55.5 -21q-41 0 -62.5 28t-21.5 80q0 51 21.5 82t60.5 31q49 0 63 -47l62 24q-29 80 -123 80q-72 0 -112 -47t-40 -121q0 -72 37.5 -119t100.5 -47q65 0 88 41l8 -35h47v179h-137v-58h82zM616 1024v-59h66v59
h-66zM770 700v324h-59v-324h59zM864 700v324h-61v-324h61zM897 1024v-59h66v59h-66zM604 872v56q-12 4 -22 4q-38 0 -64 -43v37h-55v-226h59v103q0 31 15 51t47 20q14 0 20 -2zM618 926v-226h62v226h-62zM899 926v-226h62v226h-62zM623 633h-66v-62h66v62zM874 309h60v324
h-60v-324zM182 629v-60h90v-260h62v260h90v60h-242zM545 479v58q-6 2 -21 2q-42 0 -61 -43v36h-57v-223h61v101q0 71 57 71q13 0 21 -2zM788 309h60q-6 30 -6 43v82q0 55 -20.5 80t-73.5 25q-50 0 -76.5 -20t-28.5 -56h59q3 31 43 31q22 0 29.5 -11t7.5 -34q-62 -5 -102 -17
q-43 -17 -43 -59q0 -32 22 -51t56 -19q51 0 71 39q0 -23 2 -33zM621 532h-62v-223h62v223zM782 412v-6q0 -27 -13.5 -42.5t-35.5 -15.5q-16 0 -25.5 8t-9.5 19q0 27 47 33z" />
    <glyph glyph-name=".null" horiz-adv-x="0" 
 />
    <glyph glyph-name="nonmarkingreturn" horiz-adv-x="682" 
 />
    <glyph glyph-name="space" unicode=" " horiz-adv-x="614" 
 />
    <glyph glyph-name="comma" unicode="," horiz-adv-x="495" 
d="M193 -342h-111l70 553h231z" />
    <glyph glyph-name="hyphen" unicode="-" horiz-adv-x="792" 
d="M92 645h608v-192h-608v192z" />
    <glyph glyph-name="period" unicode="." horiz-adv-x="458" 
d="M346 0h-233v254h233v-254z" />
    <glyph glyph-name="zero" unicode="0" horiz-adv-x="1187" 
d="M594 1413q239 0 370.5 -188.5t131.5 -532.5t-132 -533.5t-370 -189.5t-370 189.5t-132 533.5t131.5 532.5t370.5 188.5zM594 1229q-138 0 -215.5 -142t-77.5 -395t77.5 -395.5t215.5 -142.5t215.5 142.5t77.5 395.5t-77.5 395t-215.5 142z" />
    <glyph glyph-name="one" unicode="1" horiz-adv-x="706" 
d="M360 1382h152v-1382h-201v870q0 105 17 179l-6 4q-21 -36 -76 -64l-174 -94v201l254 178z" />
    <glyph glyph-name="two" unicode="2" horiz-adv-x="1005" 
d="M520 1413q183 0 289 -97t106 -263q0 -97 -40.5 -195t-129.5 -213l-239 -315q-73 -98 -139 -148l4 -6q59 21 168 21h413l2 -4l-110 -193h-830l-4 8l568 740q69 90 99 156t30 130q0 90 -52.5 141.5t-144.5 51.5q-135 0 -320 -133l-100 159q216 160 430 160z" />
    <glyph glyph-name="three" unicode="3" horiz-adv-x="987" 
d="M459 1413q177 0 277 -84t100 -235q0 -109 -54.5 -186.5t-152.5 -108.5q-45 -13 -103 -19v-8q65 0 101 -10q288 -71 288 -363q0 -200 -134 -315t-367 -115q-215 0 -394 101l68 186q172 -100 330 -100q138 0 212.5 66.5t74.5 189.5q0 133 -97.5 193.5t-312.5 60.5v180
q161 0 247.5 55t86.5 156q0 81 -53 127.5t-146 46.5q-129 0 -303 -103l-80 168q90 55 199.5 86t212.5 31z" />
    <glyph glyph-name="four" unicode="4" horiz-adv-x="1136" 
d="M700 1382h179v-880q0 -34 -5 -47l5 -4q12 6 39 6h198l-61 -191h-137q-27 0 -39 6l-5 -4q5 -10 5 -47v-221h-195v221q0 39 2 47l-2 4q-12 -6 -39 -6h-614v170zM694 1110l-8 2q-28 -86 -100 -188l-267 -377q-24 -33 -32.5 -45t-23.5 -29t-30 -29l5 -4q44 17 122 17h285
q25 0 37 -6l4 4q-4 10 -4 47v461q0 89 12 147z" />
    <glyph glyph-name="five" unicode="5" horiz-adv-x="978" 
d="M371 1382h598l-78 -202h-344q-41 0 -53 2l-2 -2q0 -23 -17 -93l-31 -104q-12 -40 -41 -82l3 -4q40 4 61 4q218 0 345.5 -120t127.5 -326q0 -223 -147 -354.5t-396 -131.5q-216 0 -387 99l70 184q177 -98 332 -98q149 0 234 77.5t85 214.5q0 135 -87 204t-257 69
q-119 0 -211 -25l-6 6z" />
    <glyph glyph-name="six" unicode="6" horiz-adv-x="1069" 
d="M561 1391h256l-352 -410q-109 -127 -156 -252l8 -2q98 174 289 174q186 0 304 -129t118 -330q0 -209 -136.5 -341t-354.5 -132q-217 0 -351.5 139t-134.5 363q0 151 65 299t208 326zM539 711q-129 0 -204 -77t-75 -212q0 -124 75.5 -198t203.5 -74q130 0 205 78.5
t75 213.5q0 126 -74 197.5t-206 71.5z" />
    <glyph glyph-name="seven" unicode="7" horiz-adv-x="890" 
d="M94 1382h795l2 -4l-574 -1378h-223l428 983q15 35 30 71.5t23 55l16 37t13.5 28.5t11.5 17l-4 4q-43 -14 -184 -14h-418z" />
    <glyph glyph-name="eight" unicode="8" horiz-adv-x="1085" 
d="M543 -31q-221 0 -346 107.5t-125 296.5q0 146 75.5 242.5t208.5 121.5v8q-110 23 -177.5 110t-67.5 206q0 160 118.5 256t313.5 96t313.5 -96t118.5 -256q0 -118 -68 -205.5t-178 -110.5v-8q134 -25 209.5 -121.5t75.5 -242.5q0 -189 -125 -296.5t-346 -107.5zM543 836
q102 0 162.5 54t60.5 146q0 90 -60.5 143.5t-162.5 53.5t-163 -53.5t-61 -143.5q0 -92 61 -146t163 -54zM543 150q122 0 191 64.5t69 178.5q0 115 -70 181.5t-190 66.5t-190 -66.5t-70 -181.5q0 -114 69 -178.5t191 -64.5z" />
    <glyph glyph-name="nine" unicode="9" horiz-adv-x="1040" 
d="M516 1413q218 0 350.5 -141t132.5 -373q0 -152 -54 -281t-179 -274l-281 -344h-239l383 465q99 122 135 190l-8 4q-112 -172 -301 -172q-180 0 -302 131.5t-122 325.5q0 207 135 338t350 131zM512 1229q-125 0 -198.5 -76t-73.5 -205q0 -126 72.5 -198t199.5 -72
q131 0 205 71.5t74 198.5q0 132 -74 206.5t-205 74.5z" />
    <glyph glyph-name="A" unicode="A" horiz-adv-x="1425" 
d="M260 0h-240l682 1464h21l682 -1464h-240l-168 377h-569zM485 557l2 -2q36 4 115 4h221q79 0 115 -4l2 2q-34 43 -66 117l-106 252q-45 108 -51 164h-8q-6 -53 -52 -164l-106 -252q-32 -74 -66 -117z" />
    <glyph glyph-name="B" unicode="B" horiz-adv-x="1265" 
d="M735 0h-581v1434h530q184 0 293.5 -98.5t109.5 -262.5q0 -102 -46.5 -175t-133.5 -107q-51 -21 -102 -23v-8q62 0 104 -12q124 -29 194.5 -122.5t70.5 -228.5q0 -180 -120.5 -288.5t-318.5 -108.5zM360 834l5 -5q21 9 51 9h213q114 0 176.5 53.5t62.5 150.5
q0 92 -58 141.5t-165 49.5h-229q-32 0 -51 8l-5 -4q7 -18 7 -53v-299q0 -33 -7 -51zM360 197l5 -4q19 8 51 8h280q254 0 254 213q0 112 -71 169.5t-209 57.5h-254q-32 0 -51 8l-5 -4q7 -17 7 -51v-344q0 -35 -7 -53z" />
    <glyph glyph-name="C" unicode="C" horiz-adv-x="1396" 
d="M840 -31q-226 0 -401 94t-271 264t-96 390q0 165 56 304t156 236.5t243.5 152t312.5 54.5q288 0 506 -157l-132 -187q-175 127 -383 127q-233 0 -379.5 -147.5t-146.5 -382.5t146.5 -383t379.5 -148q208 0 383 127l132 -186q-219 -158 -506 -158z" />
    <glyph glyph-name="D" unicode="D" horiz-adv-x="1411" 
d="M154 1434h448q335 0 536 -196t201 -521t-201 -521t-536 -196h-448v1434zM365 1241l-5 -4q7 -18 7 -51v-938q0 -33 -7 -51l5 -4q19 8 51 8h188q236 0 369 136.5t133 379.5t-133.5 379.5t-368.5 136.5h-188q-32 0 -51 8z" />
    <glyph glyph-name="E" unicode="E" 
d="M154 1434h813v-201h-551q-32 0 -51 8l-5 -4q7 -18 7 -53v-256q0 -34 -7 -51l5 -5q21 9 51 9h483v-201h-483q-32 0 -51 8l-5 -4q7 -18 7 -53v-381q0 -35 -7 -53l5 -4q19 8 51 8h559v-201h-821v1434z" />
    <glyph glyph-name="F" unicode="F" horiz-adv-x="1015" 
d="M154 1434h821v-201h-559q-32 0 -51 8l-5 -4q7 -18 7 -53v-281q0 -33 -7 -51l5 -4q19 8 51 8h512v-201h-512q-30 0 -51 9l-5 -5q7 -17 7 -51v-608h-213v1434z" />
    <glyph glyph-name="G" unicode="G" horiz-adv-x="1601" 
d="M831 1464q321 0 549 -192l-143 -178q-75 68 -181 110.5t-233 42.5q-154 0 -273 -70t-182 -190.5t-63 -271.5q0 -232 147 -380.5t384 -148.5q117 0 212 39t152 101.5t88 134t33 143.5l-4 4q-29 -18 -137 -18h-342v201h712v-78q0 -114 -27.5 -221.5t-86.5 -202.5
t-142.5 -166t-203 -112.5t-261.5 -41.5q-161 0 -300.5 53t-240.5 148.5t-158.5 235.5t-57.5 307q0 163 55.5 302.5t154 238t240.5 154.5t309 56z" />
    <glyph glyph-name="H" unicode="H" horiz-adv-x="1458" 
d="M1092 1434h213v-1434h-213v608q0 36 6 51l-4 5q-21 -9 -52 -9h-626q-30 0 -51 9l-5 -5q7 -17 7 -51v-608h-213v1434h213v-527q0 -33 -7 -51l5 -4q19 8 51 8h626q33 0 52 -8l4 4q-6 15 -6 51v527z" />
    <glyph glyph-name="I" unicode="I" horiz-adv-x="520" 
d="M154 1434h213v-1434h-213v1434z" />
    <glyph glyph-name="J" unicode="J" horiz-adv-x="616" 
d="M250 1434h213v-1080q0 -188 -77 -276t-239 -88q-41 0 -96 6v201q31 -2 76 -2q63 0 93 32.5t30 118.5v1088z" />
    <glyph glyph-name="K" unicode="K" horiz-adv-x="1261" 
d="M899 1434h287l-490 -566q-42 -46 -63 -65.5t-45 -34.5v-8q28 -18 43 -32.5t53 -59.5l567 -668h-286l-609 731l-6 -2q17 -104 17 -240v-489h-213v1434h213v-404q0 -137 -17 -237l6 -5z" />
    <glyph glyph-name="L" unicode="L" horiz-adv-x="1001" 
d="M154 1434h213v-1182q0 -34 -7 -51l5 -4q19 8 51 8h565v-205h-827v1434z" />
    <glyph glyph-name="M" unicode="M" horiz-adv-x="1802" 
d="M911 -14h-20l-332 753q-57 130 -67 230h-9q0 -133 -30 -232l-211 -737h-222l426 1454h31l385 -901q26 -63 35 -166h8q9 103 35 166l385 901h31l426 -1454h-221l-211 737q-31 103 -31 232h-8q-10 -97 -68 -230z" />
    <glyph glyph-name="N" unicode="N" horiz-adv-x="1511" 
d="M154 1454h18l872 -872q82 -82 113 -160l8 2q-20 78 -20 258v752h213v-1454h-19l-872 872q-82 82 -113 160l-8 -2q21 -82 21 -256v-754h-213v1454z" />
    <glyph glyph-name="O" unicode="O" horiz-adv-x="1638" 
d="M819 1464q214 0 385 -95.5t267 -266.5t96 -385t-96 -385t-267 -267t-385 -96t-385 96t-266.5 267t-95.5 385q0 160 56 299t154.5 237.5t237.5 154.5t299 56zM819 1247q-226 0 -370 -149t-144 -381t144.5 -381.5t369.5 -149.5t369.5 149.5t144.5 381.5t-144 381t-370 149z
" />
    <glyph glyph-name="P" unicode="P" horiz-adv-x="1118" 
d="M154 1434h460q210 0 331.5 -108.5t121.5 -299.5q0 -189 -117.5 -297t-316.5 -108h-217q-32 0 -51 8l-5 -4q7 -17 7 -52v-573h-213v1434zM365 1241l-5 -4q7 -18 7 -53v-314q0 -36 -7 -53l5 -4q19 8 51 8h200q107 0 164.5 55t57.5 150q0 96 -57.5 151.5t-164.5 55.5h-200
q-32 0 -51 8z" />
    <glyph glyph-name="Q" unicode="Q" horiz-adv-x="1630" 
d="M1550 -10h-727q-208 0 -379.5 94t-271.5 263.5t-100 379.5q0 159 55.5 296t153 234t236.5 152t300 55q164 0 303 -54.5t235 -150.5t150 -230.5t54 -291.5q0 -296 -248 -489q-103 -73 -238 -111l2 -8q80 19 118 27t93 15t105 7h159v-188zM823 215q216 0 359 146t143 372
q0 231 -136 372.5t-372 141.5q-233 0 -372.5 -144t-139.5 -376q0 -223 147 -367.5t371 -144.5z" />
    <glyph glyph-name="R" unicode="R" horiz-adv-x="1226" 
d="M154 1434h469q202 0 321 -107t119 -293q0 -84 -33 -156.5t-85 -120t-114.5 -74t-123.5 -26.5q-30 0 -72 11v-9q40 -13 74 -40t73 -76l435 -543h-277l-506 641h-20q-33 0 -49 8l-5 -4q7 -21 7 -55v-590h-213v1434zM365 1241l-5 -4q7 -18 7 -53v-291q0 -33 -7 -51l5 -4
q19 8 51 8h209q100 0 154.5 49.5t54.5 140.5q0 89 -53.5 143t-155.5 54h-209q-32 0 -51 8z" />
    <glyph glyph-name="S" unicode="S" horiz-adv-x="1013" 
d="M532 1464q191 0 379 -96l-96 -203q-147 84 -289 84q-164 0 -164 -123q0 -48 26 -87t85 -85l256 -196q115 -88 169 -178t54 -209q0 -192 -124.5 -297t-333.5 -105q-129 0 -250 37t-213 96l96 201q203 -117 369 -117q111 0 169 48t58 124q0 58 -35.5 109t-114.5 113
l-243 192q-98 77 -148.5 159t-50.5 187q0 159 106.5 252.5t294.5 93.5z" />
    <glyph glyph-name="T" unicode="T" horiz-adv-x="1064" 
d="M20 1434h1024v-205h-356q-32 0 -51 8l-4 -4q6 -15 6 -51v-1182h-213v1182q0 36 6 51l-4 4q-19 -8 -51 -8h-357v205z" />
    <glyph glyph-name="U" unicode="U" horiz-adv-x="1396" 
d="M1042 1434h222v-895q0 -261 -154 -414.5t-412 -153.5t-411.5 153.5t-153.5 414.5v895h221v-891q0 -167 93.5 -261t250.5 -94t250.5 94t93.5 261v891z" />
    <glyph glyph-name="V" unicode="V" horiz-adv-x="1310" 
d="M1061 1434h250l-643 -1452h-25l-643 1452h250l328 -795q22 -54 37 -105.5t21 -82t15 -86.5h8q25 154 74 274z" />
    <glyph glyph-name="W" unicode="W" horiz-adv-x="1949" 
d="M961 1454h28l287 -766q42 -113 55 -159.5t19 -108.5h8q6 61 19.5 111.5t49.5 154.5l259 748h243l-563 -1454h-25l-325 839q-31 81 -37 176h-8q-6 -95 -37 -176l-326 -839h-24l-564 1454h244l258 -748q37 -107 50.5 -156.5t19.5 -109.5h8q6 62 19 108.5t55 159.5z" />
    <glyph glyph-name="X" unicode="X" horiz-adv-x="1286" 
d="M954 1434h250l-346 -549q-51 -79 -86 -119v-4q30 -39 102 -150l392 -612h-250l-279 444q-81 132 -90 179h-8q-9 -47 -90 -179l-279 -444h-250l392 612q72 111 102 150v4q-35 40 -86 119l-346 549h250l217 -351q81 -129 90 -178h8q9 49 90 178z" />
    <glyph glyph-name="Y" unicode="Y" horiz-adv-x="1146" 
d="M885 1434h252l-457 -861v-573h-213v573l-457 861h252l211 -441q56 -117 72 -156t26 -92h4q9 49 25 89t58 127q10 21 16 32z" />
    <glyph glyph-name="Z" unicode="Z" horiz-adv-x="1196" 
d="M211 1434h950l4 -11l-792 -1245l4 -6q22 21 49.5 29t79.5 8h655l-108 -209h-1026l-7 10l795 1243l-4 7q-47 -35 -158 -35h-547z" />
    <glyph glyph-name="a" unicode="a" horiz-adv-x="1026" 
d="M506 977q206 0 301.5 -93t95.5 -292v-592h-203q0 88 29 150l-8 4q-108 -185 -318 -185q-153 0 -247.5 91.5t-94.5 240.5q0 154 94.5 244t250.5 90q104 0 184.5 -41t128.5 -117l6 4q-11 37 -16 131q-12 179 -220 179q-110 0 -272 -52l-55 181q174 57 344 57zM479 469
q-92 0 -148.5 -47.5t-56.5 -122.5q0 -76 56 -121t147 -45q94 0 154.5 46.5t60.5 121.5q0 74 -60 121t-153 47z" />
    <glyph glyph-name="b" unicode="b" horiz-adv-x="1191" 
d="M672 -31q-120 0 -209 55.5t-139 159.5l-9 -2q13 -57 13 -182h-195v1464h201v-495q0 -134 -19 -205l9 -2q50 104 139 159.5t209 55.5q201 0 329.5 -141.5t128.5 -362.5t-128.5 -362.5t-329.5 -141.5zM633 158q134 0 209.5 83.5t75.5 231.5t-75.5 231.5t-209.5 83.5
q-135 0 -221 -88t-86 -227t86 -227t221 -88z" />
    <glyph glyph-name="c" unicode="c" horiz-adv-x="956" 
d="M582 -31q-231 0 -376 140t-145 364t145 364t376 140q180 0 323 -96l-94 -170q-109 71 -236 71q-133 0 -217 -86t-84 -223t84 -223t217 -86q126 0 236 72l94 -170q-144 -97 -323 -97z" />
    <glyph glyph-name="d" unicode="d" horiz-adv-x="1191" 
d="M520 -31q-201 0 -330 141.5t-129 362.5t129 362.5t330 141.5q120 0 209 -55.5t139 -159.5l9 2q-19 71 -19 205v495h201v-1464h-195q0 125 13 182l-9 2q-50 -104 -139 -159.5t-209 -55.5zM559 158q135 0 221 88t86 227t-86 227t-221 88q-134 0 -209.5 -83.5t-75.5 -231.5
t75.5 -231.5t209.5 -83.5z" />
    <glyph glyph-name="e" unicode="e" 
d="M543 977q211 0 331.5 -134.5t120.5 -369.5v-39h-608q-92 0 -125 17l-4 -5l8 -24q15 -126 91 -194t202 -68q84 0 150.5 32t136.5 107l123 -133q-164 -197 -414 -197q-222 0 -358 137t-136 361q0 230 132 370t350 140zM537 795q-110 0 -182 -60t-87 -166l4 -4q40 21 117 21
h240q124 0 151 -19l4 4q-9 106 -74 165t-173 59z" />
    <glyph glyph-name="f" unicode="f" horiz-adv-x="659" 
d="M580 1452h28v-188h-14q-87 0 -131.5 -45t-44.5 -148v-70q-5 -57 -8 -67l6 -4q19 16 84 16h106v-192h-106q-65 0 -84 16l-6 -4q8 -35 8 -111v-655h-201v655q0 76 8 111l-4 4q-21 -16 -86 -16h-84v192h84q65 0 86 -16l4 4q-2 7 -8 63v54q0 89 22 160t57.5 115t84 73.5
t97.5 41t102 11.5z" />
    <glyph glyph-name="g" unicode="g" horiz-adv-x="1179" 
d="M518 977q120 0 209 -55.5t139 -159.5l8 2q-18 50 -18 182h201v-903q0 -483 -516 -483q-244 0 -418 112l98 181q157 -101 322 -101q140 0 229.5 71t89.5 181v41q0 88 12 137l-8 2q-51 -103 -140.5 -158t-207.5 -55q-201 0 -329 140.5t-128 361.5t128 362.5t329 141.5z
M557 788q-132 0 -207.5 -83.5t-75.5 -231.5t75.5 -231.5t207.5 -83.5q137 0 223 88t86 227t-86 227t-223 88z" />
    <glyph glyph-name="h" unicode="h" horiz-adv-x="1126" 
d="M133 1464h201v-512q0 -99 -21 -204l9 -3q105 232 348 232q158 0 246 -93.5t88 -260.5v-623h-201v565q0 107 -52.5 164t-152.5 57q-126 0 -195 -86.5t-69 -244.5v-455h-201v1464z" />
    <glyph glyph-name="i" unicode="i" horiz-adv-x="466" 
d="M121 1434h225v-271h-225v271zM133 946h201v-946h-201v946z" />
    <glyph glyph-name="j" unicode="j" horiz-adv-x="466" 
d="M121 1434h225v-271h-225v271zM133 946h201v-987q0 -202 -97.5 -300.5t-275.5 -98.5h-14v196h14q172 0 172 203v987z" />
    <glyph glyph-name="k" unicode="k" horiz-adv-x="1003" 
d="M133 1464h201v-747q0 -120 -17 -187l7 -2l364 418h262l-334 -352q-55 -60 -92 -78v-8q31 -16 86 -68l394 -440h-267l-413 481l-7 -4q17 -64 17 -182v-295h-201v1464z" />
    <glyph glyph-name="l" unicode="l" horiz-adv-x="466" 
d="M133 1464h201v-1464h-201v1464z" />
    <glyph glyph-name="m" unicode="m" horiz-adv-x="1658" 
d="M334 0h-201v946h201q0 -103 -23 -203l8 -4q41 123 116 180.5t194 57.5q229 0 282 -227h9q29 107 110.5 167t198.5 60q148 0 227.5 -93.5t79.5 -265.5v-618h-201v553q0 120 -46 176.5t-144 56.5q-213 0 -213 -311v-475h-195v553q0 120 -46 176.5t-144 56.5
q-213 0 -213 -311v-475z" />
    <glyph glyph-name="n" unicode="n" horiz-adv-x="1126" 
d="M666 977q161 0 249.5 -92.5t88.5 -261.5v-623h-201v565q0 107 -52.5 164t-152.5 57q-126 0 -195 -86.5t-69 -244.5v-455h-201v946h201q0 -125 -21 -217l9 -2q99 250 344 250z" />
    <glyph glyph-name="o" unicode="o" horiz-adv-x="1159" 
d="M580 977q224 0 371 -143.5t147 -360.5t-147 -360.5t-371 -143.5t-371.5 143.5t-147.5 360.5t147.5 360.5t371.5 143.5zM580 780q-137 0 -221.5 -84.5t-84.5 -222.5t84.5 -222.5t221.5 -84.5t221 84.5t84 222.5t-84 222.5t-221 84.5z" />
    <glyph glyph-name="p" unicode="p" horiz-adv-x="1191" 
d="M672 977q201 0 329.5 -141.5t128.5 -362.5t-128.5 -362.5t-329.5 -141.5q-118 0 -207.5 55.5t-140.5 159.5l-9 -2q19 -71 19 -198v-394h-201v1356h195q0 -125 -13 -182l9 -2q53 105 141.5 160t206.5 55zM633 788q-135 0 -221 -88t-86 -227t86 -227t221 -88
q134 0 209.5 83.5t75.5 231.5t-75.5 231.5t-209.5 83.5z" />
    <glyph glyph-name="q" unicode="q" horiz-adv-x="1191" 
d="M520 977q118 0 206.5 -55t141.5 -160l9 2q-13 57 -13 182h195v-1356h-201v394q0 127 19 198l-9 2q-51 -104 -140.5 -159.5t-207.5 -55.5q-201 0 -330 141.5t-129 362.5t129 362.5t330 141.5zM559 788q-134 0 -209.5 -83.5t-75.5 -231.5t75.5 -231.5t209.5 -83.5
q135 0 221 88t86 227t-86 227t-221 88z" />
    <glyph glyph-name="r" unicode="r" horiz-adv-x="716" 
d="M651 975q21 0 35 -2v-232q-37 4 -65 4q-141 0 -214 -84t-73 -245v-416h-201v946h201q0 -111 -25 -250l10 -2q74 281 332 281z" />
    <glyph glyph-name="s" unicode="s" horiz-adv-x="845" 
d="M428 -31q-212 0 -387 101l90 178q156 -90 301 -90q148 0 148 90q0 32 -22.5 56t-76.5 50l-172 84q-200 96 -200 275q0 125 87.5 194.5t245.5 69.5t330 -74l-82 -174q-148 62 -252 62q-60 0 -88 -18t-28 -56q0 -34 24 -59.5t82 -53.5l176 -84q100 -47 145.5 -110
t45.5 -154q0 -135 -97 -211t-270 -76z" />
    <glyph glyph-name="t" unicode="t" horiz-adv-x="643" 
d="M403 1452h13v-410q0 -71 -8 -108l6 -4q21 16 84 16h94v-192h-94q-63 0 -84 16l-6 -4q8 -35 8 -111v-655h-201v655q0 76 8 111l-6 4q-19 -16 -84 -16h-82v192h82q65 0 84 -16l6 4q-8 37 -8 108v273z" />
    <glyph glyph-name="u" unicode="u" horiz-adv-x="1073" 
d="M750 946h200v-946h-198q0 107 22 197l-8 2q-50 -118 -129 -174t-197 -56q-154 0 -240.5 102t-86.5 283v592h204v-555q0 -112 53 -171.5t152 -59.5q109 0 168.5 85.5t59.5 243.5v457z" />
    <glyph glyph-name="v" unicode="v" horiz-adv-x="1003" 
d="M750 946h233l-451 -956h-61l-451 956h234l170 -414q45 -109 56 -143.5t20 -89.5h4q9 55 20 89.5t56 143.5z" />
    <glyph glyph-name="w" unicode="w" horiz-adv-x="1445" 
d="M463 -10h-53l-390 956h226l153 -428q37 -104 41 -168h9q4 29 12 55.5t15.5 45.5t29.5 71l190 439h54l190 -439q22 -52 29.5 -71t15.5 -45.5t12 -55.5h9q4 64 41 168l153 428h225l-389 -956h-53l-213 477q-38 83 -43 139h-8q-5 -56 -43 -139z" />
    <glyph glyph-name="x" unicode="x" horiz-adv-x="1028" 
d="M258 0h-238l310 430q41 53 57 59v7q-20 10 -53 57l-273 393h238l129 -190q44 -65 61 -99t21 -69h8q4 35 21 69t61 99l129 190h238l-273 -393q-33 -47 -53 -57v-7q16 -6 57 -59l310 -430h-238l-172 240q-41 56 -57.5 87.5t-22.5 67.5h-8q-6 -36 -22.5 -67.5t-57.5 -87.5z
" />
    <glyph glyph-name="y" unicode="y" horiz-adv-x="1015" 
d="M776 946h219l-571 -1358h-209l201 473l-396 885h230l215 -522q41 -99 43 -184h8q3 74 35 151z" />
    <glyph glyph-name="z" unicode="z" horiz-adv-x="929" 
d="M801 0h-785l-6 10l580 776l-4 7q-43 -24 -79.5 -30.5t-111.5 -6.5h-327l118 190h729l5 -8l-570 -778l4 -6q35 23 78.5 29.5t142.5 6.5h343z" />
    <glyph glyph-name="ordfeminine" unicode="&#xaa;" horiz-adv-x="1026" 
d="M506 977q206 0 301.5 -93t95.5 -292v-592h-203q0 88 29 150l-8 4q-108 -185 -318 -185q-153 0 -247.5 91.5t-94.5 240.5q0 154 94.5 244t250.5 90q104 0 184.5 -41t128.5 -117l6 4q-11 37 -16 131q-12 179 -220 179q-110 0 -272 -52l-55 181q174 57 344 57zM479 469
q-92 0 -148.5 -47.5t-56.5 -122.5q0 -76 56 -121t147 -45q94 0 154.5 46.5t60.5 121.5q0 74 -60 121t-153 47z" />
    <glyph glyph-name="ordmasculine" unicode="&#xba;" horiz-adv-x="1159" 
d="M580 977q224 0 371 -143.5t147 -360.5t-147 -360.5t-371 -143.5t-371.5 143.5t-147.5 360.5t147.5 360.5t371.5 143.5zM580 780q-137 0 -221.5 -84.5t-84.5 -222.5t84.5 -222.5t221.5 -84.5t221 84.5t84 222.5t-84 222.5t-221 84.5z" />
    <glyph glyph-name="Agrave" unicode="&#xc0;" horiz-adv-x="1425" 
d="M260 0h-240l682 1464h21l682 -1464h-240l-168 377h-569zM485 557l2 -2q36 4 115 4h221q79 0 115 -4l2 2q-34 43 -66 117l-106 252q-45 108 -51 164h-8q-6 -53 -52 -164l-106 -252q-32 -74 -66 -117z" />
    <glyph glyph-name="Aacute" unicode="&#xc1;" horiz-adv-x="1425" 
d="M260 0h-240l682 1464h21l682 -1464h-240l-168 377h-569zM485 557l2 -2q36 4 115 4h221q79 0 115 -4l2 2q-34 43 -66 117l-106 252q-45 108 -51 164h-8q-6 -53 -52 -164l-106 -252q-32 -74 -66 -117z" />
    <glyph glyph-name="Acircumflex" unicode="&#xc2;" horiz-adv-x="1425" 
d="M260 0h-240l682 1464h21l682 -1464h-240l-168 377h-569zM485 557l2 -2q36 4 115 4h221q79 0 115 -4l2 2q-34 43 -66 117l-106 252q-45 108 -51 164h-8q-6 -53 -52 -164l-106 -252q-32 -74 -66 -117z" />
    <glyph glyph-name="Atilde" unicode="&#xc3;" horiz-adv-x="1425" 
d="M260 0h-240l682 1464h21l682 -1464h-240l-168 377h-569zM485 557l2 -2q36 4 115 4h221q79 0 115 -4l2 2q-34 43 -66 117l-106 252q-45 108 -51 164h-8q-6 -53 -52 -164l-106 -252q-32 -74 -66 -117z" />
    <glyph glyph-name="Adieresis" unicode="&#xc4;" horiz-adv-x="1425" 
d="M260 0h-240l682 1464h21l682 -1464h-240l-168 377h-569zM485 557l2 -2q36 4 115 4h221q79 0 115 -4l2 2q-34 43 -66 117l-106 252q-45 108 -51 164h-8q-6 -53 -52 -164l-106 -252q-32 -74 -66 -117z" />
    <glyph glyph-name="Aring" unicode="&#xc5;" horiz-adv-x="1425" 
d="M260 0h-240l682 1464h21l682 -1464h-240l-168 377h-569zM485 557l2 -2q36 4 115 4h221q79 0 115 -4l2 2q-34 43 -66 117l-106 252q-45 108 -51 164h-8q-6 -53 -52 -164l-106 -252q-32 -74 -66 -117z" />
    <glyph glyph-name="AE" unicode="&#xc6;" horiz-adv-x="2482" 
d="M260 0h-240l682 1464h21l682 -1464h-240l-168 377h-569zM1579 1434h813v-201h-551q-32 0 -51 8l-4 -4q6 -15 6 -53v-256q0 -36 -6 -51l4 -5q21 9 51 9h483v-201h-483q-32 0 -51 8l-4 -4q6 -15 6 -53v-381q0 -38 -6 -53l4 -4q19 8 51 8h559v-201h-821v1434zM485 557l2 -2
q36 4 115 4h221q79 0 115 -4l2 2q-34 43 -66 117l-106 252q-45 108 -51 164h-8q-6 -53 -52 -164l-106 -252q-32 -74 -66 -117z" />
    <glyph glyph-name="Ccedilla" unicode="&#xc7;" horiz-adv-x="1396" 
d="M840 -31q-226 0 -401 94t-271 264t-96 390q0 165 56 304t156 236.5t243.5 152t312.5 54.5q288 0 506 -157l-132 -187q-175 127 -383 127q-233 0 -379.5 -147.5t-146.5 -382.5t146.5 -383t379.5 -148q208 0 383 127l132 -186q-219 -158 -506 -158z" />
    <glyph glyph-name="Egrave" unicode="&#xc8;" 
d="M154 1434h813v-201h-551q-32 0 -51 8l-5 -4q7 -18 7 -53v-256q0 -34 -7 -51l5 -5q21 9 51 9h483v-201h-483q-32 0 -51 8l-5 -4q7 -18 7 -53v-381q0 -35 -7 -53l5 -4q19 8 51 8h559v-201h-821v1434z" />
    <glyph glyph-name="Eacute" unicode="&#xc9;" 
d="M154 1434h813v-201h-551q-32 0 -51 8l-5 -4q7 -18 7 -53v-256q0 -34 -7 -51l5 -5q21 9 51 9h483v-201h-483q-32 0 -51 8l-5 -4q7 -18 7 -53v-381q0 -35 -7 -53l5 -4q19 8 51 8h559v-201h-821v1434z" />
    <glyph glyph-name="Ecircumflex" unicode="&#xca;" 
d="M154 1434h813v-201h-551q-32 0 -51 8l-5 -4q7 -18 7 -53v-256q0 -34 -7 -51l5 -5q21 9 51 9h483v-201h-483q-32 0 -51 8l-5 -4q7 -18 7 -53v-381q0 -35 -7 -53l5 -4q19 8 51 8h559v-201h-821v1434z" />
    <glyph glyph-name="Edieresis" unicode="&#xcb;" 
d="M154 1434h813v-201h-551q-32 0 -51 8l-5 -4q7 -18 7 -53v-256q0 -34 -7 -51l5 -5q21 9 51 9h483v-201h-483q-32 0 -51 8l-5 -4q7 -18 7 -53v-381q0 -35 -7 -53l5 -4q19 8 51 8h559v-201h-821v1434z" />
    <glyph glyph-name="Igrave" unicode="&#xcc;" horiz-adv-x="520" 
d="M154 1434h213v-1434h-213v1434z" />
    <glyph glyph-name="Iacute" unicode="&#xcd;" horiz-adv-x="520" 
d="M154 1434h213v-1434h-213v1434z" />
    <glyph glyph-name="Icircumflex" unicode="&#xce;" horiz-adv-x="520" 
d="M154 1434h213v-1434h-213v1434z" />
    <glyph glyph-name="Idieresis" unicode="&#xcf;" horiz-adv-x="520" 
d="M154 1434h213v-1434h-213v1434z" />
    <glyph glyph-name="Eth" unicode="&#xd0;" horiz-adv-x="1411" 
d="M154 1434h448q335 0 536 -196t201 -521t-201 -521t-536 -196h-448v1434zM365 1241l-5 -4q7 -18 7 -51v-938q0 -33 -7 -51l5 -4q19 8 51 8h188q236 0 369 136.5t133 379.5t-133.5 379.5t-368.5 136.5h-188q-32 0 -51 8z" />
    <glyph glyph-name="Ntilde" unicode="&#xd1;" horiz-adv-x="1511" 
d="M154 1454h18l872 -872q82 -82 113 -160l8 2q-20 78 -20 258v752h213v-1454h-19l-872 872q-82 82 -113 160l-8 -2q21 -82 21 -256v-754h-213v1454z" />
    <glyph glyph-name="Ograve" unicode="&#xd2;" horiz-adv-x="1638" 
d="M819 1464q214 0 385 -95.5t267 -266.5t96 -385t-96 -385t-267 -267t-385 -96t-385 96t-266.5 267t-95.5 385q0 160 56 299t154.5 237.5t237.5 154.5t299 56zM819 1247q-226 0 -370 -149t-144 -381t144.5 -381.5t369.5 -149.5t369.5 149.5t144.5 381.5t-144 381t-370 149z
" />
    <glyph glyph-name="Oacute" unicode="&#xd3;" horiz-adv-x="1638" 
d="M819 1464q214 0 385 -95.5t267 -266.5t96 -385t-96 -385t-267 -267t-385 -96t-385 96t-266.5 267t-95.5 385q0 160 56 299t154.5 237.5t237.5 154.5t299 56zM819 1247q-226 0 -370 -149t-144 -381t144.5 -381.5t369.5 -149.5t369.5 149.5t144.5 381.5t-144 381t-370 149z
" />
    <glyph glyph-name="Ocircumflex" unicode="&#xd4;" horiz-adv-x="1638" 
d="M819 1464q214 0 385 -95.5t267 -266.5t96 -385t-96 -385t-267 -267t-385 -96t-385 96t-266.5 267t-95.5 385q0 160 56 299t154.5 237.5t237.5 154.5t299 56zM819 1247q-226 0 -370 -149t-144 -381t144.5 -381.5t369.5 -149.5t369.5 149.5t144.5 381.5t-144 381t-370 149z
" />
    <glyph glyph-name="Otilde" unicode="&#xd5;" horiz-adv-x="1638" 
d="M819 1464q214 0 385 -95.5t267 -266.5t96 -385t-96 -385t-267 -267t-385 -96t-385 96t-266.5 267t-95.5 385q0 160 56 299t154.5 237.5t237.5 154.5t299 56zM819 1247q-226 0 -370 -149t-144 -381t144.5 -381.5t369.5 -149.5t369.5 149.5t144.5 381.5t-144 381t-370 149z
" />
    <glyph glyph-name="Odieresis" unicode="&#xd6;" horiz-adv-x="1638" 
d="M819 1464q214 0 385 -95.5t267 -266.5t96 -385t-96 -385t-267 -267t-385 -96t-385 96t-266.5 267t-95.5 385q0 160 56 299t154.5 237.5t237.5 154.5t299 56zM819 1247q-226 0 -370 -149t-144 -381t144.5 -381.5t369.5 -149.5t369.5 149.5t144.5 381.5t-144 381t-370 149z
" />
    <glyph glyph-name="Oslash" unicode="&#xd8;" horiz-adv-x="1638" 
d="M819 1464q214 0 385 -95.5t267 -266.5t96 -385t-96 -385t-267 -267t-385 -96t-385 96t-266.5 267t-95.5 385q0 160 56 299t154.5 237.5t237.5 154.5t299 56zM819 1247q-226 0 -370 -149t-144 -381t144.5 -381.5t369.5 -149.5t369.5 149.5t144.5 381.5t-144 381t-370 149z
" />
    <glyph glyph-name="Ugrave" unicode="&#xd9;" horiz-adv-x="1396" 
d="M1042 1434h222v-895q0 -261 -154 -414.5t-412 -153.5t-411.5 153.5t-153.5 414.5v895h221v-891q0 -167 93.5 -261t250.5 -94t250.5 94t93.5 261v891z" />
    <glyph glyph-name="Uacute" unicode="&#xda;" horiz-adv-x="1396" 
d="M1042 1434h222v-895q0 -261 -154 -414.5t-412 -153.5t-411.5 153.5t-153.5 414.5v895h221v-891q0 -167 93.5 -261t250.5 -94t250.5 94t93.5 261v891z" />
    <glyph glyph-name="Ucircumflex" unicode="&#xdb;" horiz-adv-x="1396" 
d="M1042 1434h222v-895q0 -261 -154 -414.5t-412 -153.5t-411.5 153.5t-153.5 414.5v895h221v-891q0 -167 93.5 -261t250.5 -94t250.5 94t93.5 261v891z" />
    <glyph glyph-name="Udieresis" unicode="&#xdc;" horiz-adv-x="1396" 
d="M1042 1434h222v-895q0 -261 -154 -414.5t-412 -153.5t-411.5 153.5t-153.5 414.5v895h221v-891q0 -167 93.5 -261t250.5 -94t250.5 94t93.5 261v891z" />
    <glyph glyph-name="Yacute" unicode="&#xdd;" horiz-adv-x="1146" 
d="M885 1434h252l-457 -861v-573h-213v573l-457 861h252l211 -441q56 -117 72 -156t26 -92h4q9 49 25 89t58 127q10 21 16 32z" />
    <glyph glyph-name="Thorn" unicode="&#xde;" horiz-adv-x="1118" 
d="M154 1434h460q210 0 331.5 -108.5t121.5 -299.5q0 -189 -117.5 -297t-316.5 -108h-217q-32 0 -51 8l-5 -4q7 -17 7 -52v-573h-213v1434zM365 1241l-5 -4q7 -18 7 -53v-314q0 -36 -7 -53l5 -4q19 8 51 8h200q107 0 164.5 55t57.5 150q0 96 -57.5 151.5t-164.5 55.5h-200
q-32 0 -51 8z" />
    <glyph glyph-name="agrave" unicode="&#xe0;" horiz-adv-x="1026" 
d="M506 977q206 0 301.5 -93t95.5 -292v-592h-203q0 88 29 150l-8 4q-108 -185 -318 -185q-153 0 -247.5 91.5t-94.5 240.5q0 154 94.5 244t250.5 90q104 0 184.5 -41t128.5 -117l6 4q-11 37 -16 131q-12 179 -220 179q-110 0 -272 -52l-55 181q174 57 344 57zM479 469
q-92 0 -148.5 -47.5t-56.5 -122.5q0 -76 56 -121t147 -45q94 0 154.5 46.5t60.5 121.5q0 74 -60 121t-153 47z" />
    <glyph glyph-name="aacute" unicode="&#xe1;" horiz-adv-x="1026" 
d="M506 977q206 0 301.5 -93t95.5 -292v-592h-203q0 88 29 150l-8 4q-108 -185 -318 -185q-153 0 -247.5 91.5t-94.5 240.5q0 154 94.5 244t250.5 90q104 0 184.5 -41t128.5 -117l6 4q-11 37 -16 131q-12 179 -220 179q-110 0 -272 -52l-55 181q174 57 344 57zM479 469
q-92 0 -148.5 -47.5t-56.5 -122.5q0 -76 56 -121t147 -45q94 0 154.5 46.5t60.5 121.5q0 74 -60 121t-153 47z" />
    <glyph glyph-name="acircumflex" unicode="&#xe2;" horiz-adv-x="1026" 
d="M506 977q206 0 301.5 -93t95.5 -292v-592h-203q0 88 29 150l-8 4q-108 -185 -318 -185q-153 0 -247.5 91.5t-94.5 240.5q0 154 94.5 244t250.5 90q104 0 184.5 -41t128.5 -117l6 4q-11 37 -16 131q-12 179 -220 179q-110 0 -272 -52l-55 181q174 57 344 57zM479 469
q-92 0 -148.5 -47.5t-56.5 -122.5q0 -76 56 -121t147 -45q94 0 154.5 46.5t60.5 121.5q0 74 -60 121t-153 47z" />
    <glyph glyph-name="atilde" unicode="&#xe3;" horiz-adv-x="1026" 
d="M506 977q206 0 301.5 -93t95.5 -292v-592h-203q0 88 29 150l-8 4q-108 -185 -318 -185q-153 0 -247.5 91.5t-94.5 240.5q0 154 94.5 244t250.5 90q104 0 184.5 -41t128.5 -117l6 4q-11 37 -16 131q-12 179 -220 179q-110 0 -272 -52l-55 181q174 57 344 57zM479 469
q-92 0 -148.5 -47.5t-56.5 -122.5q0 -76 56 -121t147 -45q94 0 154.5 46.5t60.5 121.5q0 74 -60 121t-153 47z" />
    <glyph glyph-name="adieresis" unicode="&#xe4;" horiz-adv-x="1026" 
d="M506 977q206 0 301.5 -93t95.5 -292v-592h-203q0 88 29 150l-8 4q-108 -185 -318 -185q-153 0 -247.5 91.5t-94.5 240.5q0 154 94.5 244t250.5 90q104 0 184.5 -41t128.5 -117l6 4q-11 37 -16 131q-12 179 -220 179q-110 0 -272 -52l-55 181q174 57 344 57zM479 469
q-92 0 -148.5 -47.5t-56.5 -122.5q0 -76 56 -121t147 -45q94 0 154.5 46.5t60.5 121.5q0 74 -60 121t-153 47z" />
    <glyph glyph-name="aring" unicode="&#xe5;" horiz-adv-x="1026" 
d="M506 977q206 0 301.5 -93t95.5 -292v-592h-203q0 88 29 150l-8 4q-108 -185 -318 -185q-153 0 -247.5 91.5t-94.5 240.5q0 154 94.5 244t250.5 90q104 0 184.5 -41t128.5 -117l6 4q-11 37 -16 131q-12 179 -220 179q-110 0 -272 -52l-55 181q174 57 344 57zM479 469
q-92 0 -148.5 -47.5t-56.5 -122.5q0 -76 56 -121t147 -45q94 0 154.5 46.5t60.5 121.5q0 74 -60 121t-153 47z" />
    <glyph glyph-name="ae" unicode="&#xe6;" horiz-adv-x="2082" 
d="M506 977q206 0 301.5 -93t95.5 -292v-592h-203q0 88 29 150l-8 4q-108 -185 -318 -185q-153 0 -247.5 91.5t-94.5 240.5q0 154 94.5 244t250.5 90q104 0 184.5 -41t128.5 -117l6 4q-11 37 -16 131q-12 179 -220 179q-110 0 -272 -52l-55 181q174 57 344 57zM1569 977
q211 0 331.5 -134.5t120.5 -369.5v-39h-608q-92 0 -125 17l-4 -5l8 -24q15 -126 91 -194t202 -68q84 0 150.5 32t136.5 107l123 -133q-164 -197 -414 -197q-222 0 -358 137t-136 361q0 230 132 370t350 140zM1563 795q-110 0 -182 -60t-87 -166l4 -4q40 21 117 21h240
q124 0 151 -19l4 4q-9 106 -74 165t-173 59zM479 469q-92 0 -148.5 -47.5t-56.5 -122.5q0 -76 56 -121t147 -45q94 0 154.5 46.5t60.5 121.5q0 74 -60 121t-153 47z" />
    <glyph glyph-name="ccedilla" unicode="&#xe7;" horiz-adv-x="956" 
d="M582 -31q-231 0 -376 140t-145 364t145 364t376 140q180 0 323 -96l-94 -170q-109 71 -236 71q-133 0 -217 -86t-84 -223t84 -223t217 -86q126 0 236 72l94 -170q-144 -97 -323 -97z" />
    <glyph glyph-name="egrave" unicode="&#xe8;" 
d="M543 977q211 0 331.5 -134.5t120.5 -369.5v-39h-608q-92 0 -125 17l-4 -5l8 -24q15 -126 91 -194t202 -68q84 0 150.5 32t136.5 107l123 -133q-164 -197 -414 -197q-222 0 -358 137t-136 361q0 230 132 370t350 140zM537 795q-110 0 -182 -60t-87 -166l4 -4q40 21 117 21
h240q124 0 151 -19l4 4q-9 106 -74 165t-173 59z" />
    <glyph glyph-name="eacute" unicode="&#xe9;" 
d="M543 977q211 0 331.5 -134.5t120.5 -369.5v-39h-608q-92 0 -125 17l-4 -5l8 -24q15 -126 91 -194t202 -68q84 0 150.5 32t136.5 107l123 -133q-164 -197 -414 -197q-222 0 -358 137t-136 361q0 230 132 370t350 140zM537 795q-110 0 -182 -60t-87 -166l4 -4q40 21 117 21
h240q124 0 151 -19l4 4q-9 106 -74 165t-173 59z" />
    <glyph glyph-name="ecircumflex" unicode="&#xea;" 
d="M543 977q211 0 331.5 -134.5t120.5 -369.5v-39h-608q-92 0 -125 17l-4 -5l8 -24q15 -126 91 -194t202 -68q84 0 150.5 32t136.5 107l123 -133q-164 -197 -414 -197q-222 0 -358 137t-136 361q0 230 132 370t350 140zM537 795q-110 0 -182 -60t-87 -166l4 -4q40 21 117 21
h240q124 0 151 -19l4 4q-9 106 -74 165t-173 59z" />
    <glyph glyph-name="edieresis" unicode="&#xeb;" 
d="M543 977q211 0 331.5 -134.5t120.5 -369.5v-39h-608q-92 0 -125 17l-4 -5l8 -24q15 -126 91 -194t202 -68q84 0 150.5 32t136.5 107l123 -133q-164 -197 -414 -197q-222 0 -358 137t-136 361q0 230 132 370t350 140zM537 795q-110 0 -182 -60t-87 -166l4 -4q40 21 117 21
h240q124 0 151 -19l4 4q-9 106 -74 165t-173 59z" />
    <glyph glyph-name="igrave" unicode="&#xec;" horiz-adv-x="466" 
d="M121 1434h225v-271h-225v271zM133 946h201v-946h-201v946z" />
    <glyph glyph-name="iacute" unicode="&#xed;" horiz-adv-x="466" 
d="M121 1434h225v-271h-225v271zM133 946h201v-946h-201v946z" />
    <glyph glyph-name="icircumflex" unicode="&#xee;" horiz-adv-x="466" 
d="M121 1434h225v-271h-225v271zM133 946h201v-946h-201v946z" />
    <glyph glyph-name="idieresis" unicode="&#xef;" horiz-adv-x="466" 
d="M121 1434h225v-271h-225v271zM133 946h201v-946h-201v946z" />
    <glyph glyph-name="ntilde" unicode="&#xf1;" horiz-adv-x="1126" 
d="M666 977q161 0 249.5 -92.5t88.5 -261.5v-623h-201v565q0 107 -52.5 164t-152.5 57q-126 0 -195 -86.5t-69 -244.5v-455h-201v946h201q0 -125 -21 -217l9 -2q99 250 344 250z" />
    <glyph glyph-name="ograve" unicode="&#xf2;" horiz-adv-x="1159" 
d="M580 977q224 0 371 -143.5t147 -360.5t-147 -360.5t-371 -143.5t-371.5 143.5t-147.5 360.5t147.5 360.5t371.5 143.5zM580 780q-137 0 -221.5 -84.5t-84.5 -222.5t84.5 -222.5t221.5 -84.5t221 84.5t84 222.5t-84 222.5t-221 84.5z" />
    <glyph glyph-name="oacute" unicode="&#xf3;" horiz-adv-x="1159" 
d="M580 977q224 0 371 -143.5t147 -360.5t-147 -360.5t-371 -143.5t-371.5 143.5t-147.5 360.5t147.5 360.5t371.5 143.5zM580 780q-137 0 -221.5 -84.5t-84.5 -222.5t84.5 -222.5t221.5 -84.5t221 84.5t84 222.5t-84 222.5t-221 84.5z" />
    <glyph glyph-name="ocircumflex" unicode="&#xf4;" horiz-adv-x="1159" 
d="M580 977q224 0 371 -143.5t147 -360.5t-147 -360.5t-371 -143.5t-371.5 143.5t-147.5 360.5t147.5 360.5t371.5 143.5zM580 780q-137 0 -221.5 -84.5t-84.5 -222.5t84.5 -222.5t221.5 -84.5t221 84.5t84 222.5t-84 222.5t-221 84.5z" />
    <glyph glyph-name="otilde" unicode="&#xf5;" horiz-adv-x="1159" 
d="M580 977q224 0 371 -143.5t147 -360.5t-147 -360.5t-371 -143.5t-371.5 143.5t-147.5 360.5t147.5 360.5t371.5 143.5zM580 780q-137 0 -221.5 -84.5t-84.5 -222.5t84.5 -222.5t221.5 -84.5t221 84.5t84 222.5t-84 222.5t-221 84.5z" />
    <glyph glyph-name="odieresis" unicode="&#xf6;" horiz-adv-x="1159" 
d="M580 977q224 0 371 -143.5t147 -360.5t-147 -360.5t-371 -143.5t-371.5 143.5t-147.5 360.5t147.5 360.5t371.5 143.5zM580 780q-137 0 -221.5 -84.5t-84.5 -222.5t84.5 -222.5t221.5 -84.5t221 84.5t84 222.5t-84 222.5t-221 84.5z" />
    <glyph glyph-name="oslash" unicode="&#xf8;" horiz-adv-x="1159" 
d="M580 977q224 0 371 -143.5t147 -360.5t-147 -360.5t-371 -143.5t-371.5 143.5t-147.5 360.5t147.5 360.5t371.5 143.5zM580 780q-137 0 -221.5 -84.5t-84.5 -222.5t84.5 -222.5t221.5 -84.5t221 84.5t84 222.5t-84 222.5t-221 84.5z" />
    <glyph glyph-name="ugrave" unicode="&#xf9;" horiz-adv-x="1073" 
d="M750 946h200v-946h-198q0 107 22 197l-8 2q-50 -118 -129 -174t-197 -56q-154 0 -240.5 102t-86.5 283v592h204v-555q0 -112 53 -171.5t152 -59.5q109 0 168.5 85.5t59.5 243.5v457z" />
    <glyph glyph-name="uacute" unicode="&#xfa;" horiz-adv-x="1073" 
d="M750 946h200v-946h-198q0 107 22 197l-8 2q-50 -118 -129 -174t-197 -56q-154 0 -240.5 102t-86.5 283v592h204v-555q0 -112 53 -171.5t152 -59.5q109 0 168.5 85.5t59.5 243.5v457z" />
    <glyph glyph-name="ucircumflex" unicode="&#xfb;" horiz-adv-x="1073" 
d="M750 946h200v-946h-198q0 107 22 197l-8 2q-50 -118 -129 -174t-197 -56q-154 0 -240.5 102t-86.5 283v592h204v-555q0 -112 53 -171.5t152 -59.5q109 0 168.5 85.5t59.5 243.5v457z" />
    <glyph glyph-name="udieresis" unicode="&#xfc;" horiz-adv-x="1073" 
d="M750 946h200v-946h-198q0 107 22 197l-8 2q-50 -118 -129 -174t-197 -56q-154 0 -240.5 102t-86.5 283v592h204v-555q0 -112 53 -171.5t152 -59.5q109 0 168.5 85.5t59.5 243.5v457z" />
    <glyph glyph-name="yacute" unicode="&#xfd;" horiz-adv-x="1015" 
d="M776 946h219l-571 -1358h-209l201 473l-396 885h230l215 -522q41 -99 43 -184h8q3 74 35 151z" />
    <glyph glyph-name="thorn" unicode="&#xfe;" horiz-adv-x="1191" 
d="M672 977q201 0 329.5 -141.5t128.5 -362.5t-128.5 -362.5t-329.5 -141.5q-118 0 -207.5 55.5t-140.5 159.5l-9 -2q19 -71 19 -198v-394h-201v1356h195q0 -125 -13 -182l9 -2q53 105 141.5 160t206.5 55zM633 788q-135 0 -221 -88t-86 -227t86 -227t221 -88
q134 0 209.5 83.5t75.5 231.5t-75.5 231.5t-209.5 83.5z" />
    <glyph glyph-name="ydieresis" unicode="&#xff;" horiz-adv-x="1015" 
d="M776 946h219l-571 -1358h-209l201 473l-396 885h230l215 -522q41 -99 43 -184h8q3 74 35 151z" />
    <glyph glyph-name="Amacron" unicode="&#x100;" horiz-adv-x="1425" 
d="M260 0h-240l682 1464h21l682 -1464h-240l-168 377h-569zM485 557l2 -2q36 4 115 4h221q79 0 115 -4l2 2q-34 43 -66 117l-106 252q-45 108 -51 164h-8q-6 -53 -52 -164l-106 -252q-32 -74 -66 -117z" />
    <glyph glyph-name="amacron" unicode="&#x101;" horiz-adv-x="1026" 
d="M506 977q206 0 301.5 -93t95.5 -292v-592h-203q0 88 29 150l-8 4q-108 -185 -318 -185q-153 0 -247.5 91.5t-94.5 240.5q0 154 94.5 244t250.5 90q104 0 184.5 -41t128.5 -117l6 4q-11 37 -16 131q-12 179 -220 179q-110 0 -272 -52l-55 181q174 57 344 57zM479 469
q-92 0 -148.5 -47.5t-56.5 -122.5q0 -76 56 -121t147 -45q94 0 154.5 46.5t60.5 121.5q0 74 -60 121t-153 47z" />
    <glyph glyph-name="Abreve" unicode="&#x102;" horiz-adv-x="1425" 
d="M260 0h-240l682 1464h21l682 -1464h-240l-168 377h-569zM485 557l2 -2q36 4 115 4h221q79 0 115 -4l2 2q-34 43 -66 117l-106 252q-45 108 -51 164h-8q-6 -53 -52 -164l-106 -252q-32 -74 -66 -117z" />
    <glyph glyph-name="abreve" unicode="&#x103;" horiz-adv-x="1026" 
d="M506 977q206 0 301.5 -93t95.5 -292v-592h-203q0 88 29 150l-8 4q-108 -185 -318 -185q-153 0 -247.5 91.5t-94.5 240.5q0 154 94.5 244t250.5 90q104 0 184.5 -41t128.5 -117l6 4q-11 37 -16 131q-12 179 -220 179q-110 0 -272 -52l-55 181q174 57 344 57zM479 469
q-92 0 -148.5 -47.5t-56.5 -122.5q0 -76 56 -121t147 -45q94 0 154.5 46.5t60.5 121.5q0 74 -60 121t-153 47z" />
    <glyph glyph-name="Aogonek" unicode="&#x104;" horiz-adv-x="1425" 
d="M260 0h-240l682 1464h21l682 -1464h-240l-168 377h-569zM485 557l2 -2q36 4 115 4h221q79 0 115 -4l2 2q-34 43 -66 117l-106 252q-45 108 -51 164h-8q-6 -53 -52 -164l-106 -252q-32 -74 -66 -117z" />
    <glyph glyph-name="aogonek" unicode="&#x105;" horiz-adv-x="1026" 
d="M506 977q206 0 301.5 -93t95.5 -292v-592h-203q0 88 29 150l-8 4q-108 -185 -318 -185q-153 0 -247.5 91.5t-94.5 240.5q0 154 94.5 244t250.5 90q104 0 184.5 -41t128.5 -117l6 4q-11 37 -16 131q-12 179 -220 179q-110 0 -272 -52l-55 181q174 57 344 57zM479 469
q-92 0 -148.5 -47.5t-56.5 -122.5q0 -76 56 -121t147 -45q94 0 154.5 46.5t60.5 121.5q0 74 -60 121t-153 47z" />
    <glyph glyph-name="Cacute" unicode="&#x106;" horiz-adv-x="1396" 
d="M840 -31q-226 0 -401 94t-271 264t-96 390q0 165 56 304t156 236.5t243.5 152t312.5 54.5q288 0 506 -157l-132 -187q-175 127 -383 127q-233 0 -379.5 -147.5t-146.5 -382.5t146.5 -383t379.5 -148q208 0 383 127l132 -186q-219 -158 -506 -158z" />
    <glyph glyph-name="cacute" unicode="&#x107;" horiz-adv-x="956" 
d="M582 -31q-231 0 -376 140t-145 364t145 364t376 140q180 0 323 -96l-94 -170q-109 71 -236 71q-133 0 -217 -86t-84 -223t84 -223t217 -86q126 0 236 72l94 -170q-144 -97 -323 -97z" />
    <glyph glyph-name="Ccircumflex" unicode="&#x108;" horiz-adv-x="1396" 
d="M840 -31q-226 0 -401 94t-271 264t-96 390q0 165 56 304t156 236.5t243.5 152t312.5 54.5q288 0 506 -157l-132 -187q-175 127 -383 127q-233 0 -379.5 -147.5t-146.5 -382.5t146.5 -383t379.5 -148q208 0 383 127l132 -186q-219 -158 -506 -158z" />
    <glyph glyph-name="ccircumflex" unicode="&#x109;" horiz-adv-x="956" 
d="M582 -31q-231 0 -376 140t-145 364t145 364t376 140q180 0 323 -96l-94 -170q-109 71 -236 71q-133 0 -217 -86t-84 -223t84 -223t217 -86q126 0 236 72l94 -170q-144 -97 -323 -97z" />
    <glyph glyph-name="Cdotaccent" unicode="&#x10a;" horiz-adv-x="1396" 
d="M840 -31q-226 0 -401 94t-271 264t-96 390q0 165 56 304t156 236.5t243.5 152t312.5 54.5q288 0 506 -157l-132 -187q-175 127 -383 127q-233 0 -379.5 -147.5t-146.5 -382.5t146.5 -383t379.5 -148q208 0 383 127l132 -186q-219 -158 -506 -158z" />
    <glyph glyph-name="cdotaccent" unicode="&#x10b;" horiz-adv-x="956" 
d="M582 -31q-231 0 -376 140t-145 364t145 364t376 140q180 0 323 -96l-94 -170q-109 71 -236 71q-133 0 -217 -86t-84 -223t84 -223t217 -86q126 0 236 72l94 -170q-144 -97 -323 -97z" />
    <glyph glyph-name="Ccaron" unicode="&#x10c;" horiz-adv-x="1396" 
d="M840 -31q-226 0 -401 94t-271 264t-96 390q0 165 56 304t156 236.5t243.5 152t312.5 54.5q288 0 506 -157l-132 -187q-175 127 -383 127q-233 0 -379.5 -147.5t-146.5 -382.5t146.5 -383t379.5 -148q208 0 383 127l132 -186q-219 -158 -506 -158z" />
    <glyph glyph-name="ccaron" unicode="&#x10d;" horiz-adv-x="956" 
d="M582 -31q-231 0 -376 140t-145 364t145 364t376 140q180 0 323 -96l-94 -170q-109 71 -236 71q-133 0 -217 -86t-84 -223t84 -223t217 -86q126 0 236 72l94 -170q-144 -97 -323 -97z" />
    <glyph glyph-name="Dcaron" unicode="&#x10e;" horiz-adv-x="1411" 
d="M154 1434h448q335 0 536 -196t201 -521t-201 -521t-536 -196h-448v1434zM365 1241l-5 -4q7 -18 7 -51v-938q0 -33 -7 -51l5 -4q19 8 51 8h188q236 0 369 136.5t133 379.5t-133.5 379.5t-368.5 136.5h-188q-32 0 -51 8z" />
    <glyph glyph-name="dcaron" unicode="&#x10f;" horiz-adv-x="1191" 
d="M520 -31q-201 0 -330 141.5t-129 362.5t129 362.5t330 141.5q120 0 209 -55.5t139 -159.5l9 2q-19 71 -19 205v495h201v-1464h-195q0 125 13 182l-9 2q-50 -104 -139 -159.5t-209 -55.5zM559 158q135 0 221 88t86 227t-86 227t-221 88q-134 0 -209.5 -83.5t-75.5 -231.5
t75.5 -231.5t209.5 -83.5z" />
    <glyph glyph-name="Dcroat" unicode="&#x110;" horiz-adv-x="1411" 
d="M154 1434h448q335 0 536 -196t201 -521t-201 -521t-536 -196h-448v1434zM365 1241l-5 -4q7 -18 7 -51v-938q0 -33 -7 -51l5 -4q19 8 51 8h188q236 0 369 136.5t133 379.5t-133.5 379.5t-368.5 136.5h-188q-32 0 -51 8z" />
    <glyph glyph-name="dcroat" unicode="&#x111;" horiz-adv-x="1191" 
d="M520 -31q-201 0 -330 141.5t-129 362.5t129 362.5t330 141.5q120 0 209 -55.5t139 -159.5l9 2q-19 71 -19 205v495h201v-1464h-195q0 125 13 182l-9 2q-50 -104 -139 -159.5t-209 -55.5zM559 158q135 0 221 88t86 227t-86 227t-221 88q-134 0 -209.5 -83.5t-75.5 -231.5
t75.5 -231.5t209.5 -83.5z" />
    <glyph glyph-name="Emacron" unicode="&#x112;" 
d="M154 1434h813v-201h-551q-32 0 -51 8l-5 -4q7 -18 7 -53v-256q0 -34 -7 -51l5 -5q21 9 51 9h483v-201h-483q-32 0 -51 8l-5 -4q7 -18 7 -53v-381q0 -35 -7 -53l5 -4q19 8 51 8h559v-201h-821v1434z" />
    <glyph glyph-name="emacron" unicode="&#x113;" 
d="M543 977q211 0 331.5 -134.5t120.5 -369.5v-39h-608q-92 0 -125 17l-4 -5l8 -24q15 -126 91 -194t202 -68q84 0 150.5 32t136.5 107l123 -133q-164 -197 -414 -197q-222 0 -358 137t-136 361q0 230 132 370t350 140zM537 795q-110 0 -182 -60t-87 -166l4 -4q40 21 117 21
h240q124 0 151 -19l4 4q-9 106 -74 165t-173 59z" />
    <glyph glyph-name="Ebreve" unicode="&#x114;" 
d="M154 1434h813v-201h-551q-32 0 -51 8l-5 -4q7 -18 7 -53v-256q0 -34 -7 -51l5 -5q21 9 51 9h483v-201h-483q-32 0 -51 8l-5 -4q7 -18 7 -53v-381q0 -35 -7 -53l5 -4q19 8 51 8h559v-201h-821v1434z" />
    <glyph glyph-name="ebreve" unicode="&#x115;" 
d="M543 977q211 0 331.5 -134.5t120.5 -369.5v-39h-608q-92 0 -125 17l-4 -5l8 -24q15 -126 91 -194t202 -68q84 0 150.5 32t136.5 107l123 -133q-164 -197 -414 -197q-222 0 -358 137t-136 361q0 230 132 370t350 140zM537 795q-110 0 -182 -60t-87 -166l4 -4q40 21 117 21
h240q124 0 151 -19l4 4q-9 106 -74 165t-173 59z" />
    <glyph glyph-name="Edotaccent" unicode="&#x116;" 
d="M154 1434h813v-201h-551q-32 0 -51 8l-5 -4q7 -18 7 -53v-256q0 -34 -7 -51l5 -5q21 9 51 9h483v-201h-483q-32 0 -51 8l-5 -4q7 -18 7 -53v-381q0 -35 -7 -53l5 -4q19 8 51 8h559v-201h-821v1434z" />
    <glyph glyph-name="edotaccent" unicode="&#x117;" 
d="M543 977q211 0 331.5 -134.5t120.5 -369.5v-39h-608q-92 0 -125 17l-4 -5l8 -24q15 -126 91 -194t202 -68q84 0 150.5 32t136.5 107l123 -133q-164 -197 -414 -197q-222 0 -358 137t-136 361q0 230 132 370t350 140zM537 795q-110 0 -182 -60t-87 -166l4 -4q40 21 117 21
h240q124 0 151 -19l4 4q-9 106 -74 165t-173 59z" />
    <glyph glyph-name="Eogonek" unicode="&#x118;" 
d="M154 1434h813v-201h-551q-32 0 -51 8l-5 -4q7 -18 7 -53v-256q0 -34 -7 -51l5 -5q21 9 51 9h483v-201h-483q-32 0 -51 8l-5 -4q7 -18 7 -53v-381q0 -35 -7 -53l5 -4q19 8 51 8h559v-201h-821v1434z" />
    <glyph glyph-name="eogonek" unicode="&#x119;" 
d="M543 977q211 0 331.5 -134.5t120.5 -369.5v-39h-608q-92 0 -125 17l-4 -5l8 -24q15 -126 91 -194t202 -68q84 0 150.5 32t136.5 107l123 -133q-164 -197 -414 -197q-222 0 -358 137t-136 361q0 230 132 370t350 140zM537 795q-110 0 -182 -60t-87 -166l4 -4q40 21 117 21
h240q124 0 151 -19l4 4q-9 106 -74 165t-173 59z" />
    <glyph glyph-name="Ecaron" unicode="&#x11a;" 
d="M154 1434h813v-201h-551q-32 0 -51 8l-5 -4q7 -18 7 -53v-256q0 -34 -7 -51l5 -5q21 9 51 9h483v-201h-483q-32 0 -51 8l-5 -4q7 -18 7 -53v-381q0 -35 -7 -53l5 -4q19 8 51 8h559v-201h-821v1434z" />
    <glyph glyph-name="ecaron" unicode="&#x11b;" 
d="M543 977q211 0 331.5 -134.5t120.5 -369.5v-39h-608q-92 0 -125 17l-4 -5l8 -24q15 -126 91 -194t202 -68q84 0 150.5 32t136.5 107l123 -133q-164 -197 -414 -197q-222 0 -358 137t-136 361q0 230 132 370t350 140zM537 795q-110 0 -182 -60t-87 -166l4 -4q40 21 117 21
h240q124 0 151 -19l4 4q-9 106 -74 165t-173 59z" />
    <glyph glyph-name="Gcircumflex" unicode="&#x11c;" horiz-adv-x="1601" 
d="M831 1464q321 0 549 -192l-143 -178q-75 68 -181 110.5t-233 42.5q-154 0 -273 -70t-182 -190.5t-63 -271.5q0 -232 147 -380.5t384 -148.5q117 0 212 39t152 101.5t88 134t33 143.5l-4 4q-29 -18 -137 -18h-342v201h712v-78q0 -114 -27.5 -221.5t-86.5 -202.5
t-142.5 -166t-203 -112.5t-261.5 -41.5q-161 0 -300.5 53t-240.5 148.5t-158.5 235.5t-57.5 307q0 163 55.5 302.5t154 238t240.5 154.5t309 56z" />
    <glyph glyph-name="gcircumflex" unicode="&#x11d;" horiz-adv-x="1179" 
d="M518 977q120 0 209 -55.5t139 -159.5l8 2q-18 50 -18 182h201v-903q0 -483 -516 -483q-244 0 -418 112l98 181q157 -101 322 -101q140 0 229.5 71t89.5 181v41q0 88 12 137l-8 2q-51 -103 -140.5 -158t-207.5 -55q-201 0 -329 140.5t-128 361.5t128 362.5t329 141.5z
M557 788q-132 0 -207.5 -83.5t-75.5 -231.5t75.5 -231.5t207.5 -83.5q137 0 223 88t86 227t-86 227t-223 88z" />
    <glyph glyph-name="Gbreve" unicode="&#x11e;" horiz-adv-x="1601" 
d="M831 1464q321 0 549 -192l-143 -178q-75 68 -181 110.5t-233 42.5q-154 0 -273 -70t-182 -190.5t-63 -271.5q0 -232 147 -380.5t384 -148.5q117 0 212 39t152 101.5t88 134t33 143.5l-4 4q-29 -18 -137 -18h-342v201h712v-78q0 -114 -27.5 -221.5t-86.5 -202.5
t-142.5 -166t-203 -112.5t-261.5 -41.5q-161 0 -300.5 53t-240.5 148.5t-158.5 235.5t-57.5 307q0 163 55.5 302.5t154 238t240.5 154.5t309 56z" />
    <glyph glyph-name="gbreve" unicode="&#x11f;" horiz-adv-x="1179" 
d="M518 977q120 0 209 -55.5t139 -159.5l8 2q-18 50 -18 182h201v-903q0 -483 -516 -483q-244 0 -418 112l98 181q157 -101 322 -101q140 0 229.5 71t89.5 181v41q0 88 12 137l-8 2q-51 -103 -140.5 -158t-207.5 -55q-201 0 -329 140.5t-128 361.5t128 362.5t329 141.5z
M557 788q-132 0 -207.5 -83.5t-75.5 -231.5t75.5 -231.5t207.5 -83.5q137 0 223 88t86 227t-86 227t-223 88z" />
    <glyph glyph-name="Gdotaccent" unicode="&#x120;" horiz-adv-x="1601" 
d="M831 1464q321 0 549 -192l-143 -178q-75 68 -181 110.5t-233 42.5q-154 0 -273 -70t-182 -190.5t-63 -271.5q0 -232 147 -380.5t384 -148.5q117 0 212 39t152 101.5t88 134t33 143.5l-4 4q-29 -18 -137 -18h-342v201h712v-78q0 -114 -27.5 -221.5t-86.5 -202.5
t-142.5 -166t-203 -112.5t-261.5 -41.5q-161 0 -300.5 53t-240.5 148.5t-158.5 235.5t-57.5 307q0 163 55.5 302.5t154 238t240.5 154.5t309 56z" />
    <glyph glyph-name="gdotaccent" unicode="&#x121;" horiz-adv-x="1179" 
d="M518 977q120 0 209 -55.5t139 -159.5l8 2q-18 50 -18 182h201v-903q0 -483 -516 -483q-244 0 -418 112l98 181q157 -101 322 -101q140 0 229.5 71t89.5 181v41q0 88 12 137l-8 2q-51 -103 -140.5 -158t-207.5 -55q-201 0 -329 140.5t-128 361.5t128 362.5t329 141.5z
M557 788q-132 0 -207.5 -83.5t-75.5 -231.5t75.5 -231.5t207.5 -83.5q137 0 223 88t86 227t-86 227t-223 88z" />
    <glyph glyph-name="uni0122" unicode="&#x122;" horiz-adv-x="1601" 
d="M831 1464q321 0 549 -192l-143 -178q-75 68 -181 110.5t-233 42.5q-154 0 -273 -70t-182 -190.5t-63 -271.5q0 -232 147 -380.5t384 -148.5q117 0 212 39t152 101.5t88 134t33 143.5l-4 4q-29 -18 -137 -18h-342v201h712v-78q0 -114 -27.5 -221.5t-86.5 -202.5
t-142.5 -166t-203 -112.5t-261.5 -41.5q-161 0 -300.5 53t-240.5 148.5t-158.5 235.5t-57.5 307q0 163 55.5 302.5t154 238t240.5 154.5t309 56z" />
    <glyph glyph-name="uni0123" unicode="&#x123;" horiz-adv-x="1179" 
d="M518 977q120 0 209 -55.5t139 -159.5l8 2q-18 50 -18 182h201v-903q0 -483 -516 -483q-244 0 -418 112l98 181q157 -101 322 -101q140 0 229.5 71t89.5 181v41q0 88 12 137l-8 2q-51 -103 -140.5 -158t-207.5 -55q-201 0 -329 140.5t-128 361.5t128 362.5t329 141.5z
M557 788q-132 0 -207.5 -83.5t-75.5 -231.5t75.5 -231.5t207.5 -83.5q137 0 223 88t86 227t-86 227t-223 88z" />
    <glyph glyph-name="Hcircumflex" unicode="&#x124;" horiz-adv-x="1458" 
d="M1092 1434h213v-1434h-213v608q0 36 6 51l-4 5q-21 -9 -52 -9h-626q-30 0 -51 9l-5 -5q7 -17 7 -51v-608h-213v1434h213v-527q0 -33 -7 -51l5 -4q19 8 51 8h626q33 0 52 -8l4 4q-6 15 -6 51v527z" />
    <glyph glyph-name="hcircumflex" unicode="&#x125;" horiz-adv-x="1126" 
d="M133 1464h201v-512q0 -99 -21 -204l9 -3q105 232 348 232q158 0 246 -93.5t88 -260.5v-623h-201v565q0 107 -52.5 164t-152.5 57q-126 0 -195 -86.5t-69 -244.5v-455h-201v1464z" />
    <glyph glyph-name="Hbar" unicode="&#x126;" horiz-adv-x="1458" 
d="M1092 1434h213v-1434h-213v608q0 36 6 51l-4 5q-21 -9 -52 -9h-626q-30 0 -51 9l-5 -5q7 -17 7 -51v-608h-213v1434h213v-527q0 -33 -7 -51l5 -4q19 8 51 8h626q33 0 52 -8l4 4q-6 15 -6 51v527z" />
    <glyph glyph-name="hbar" unicode="&#x127;" horiz-adv-x="1126" 
d="M133 1464h201v-512q0 -99 -21 -204l9 -3q105 232 348 232q158 0 246 -93.5t88 -260.5v-623h-201v565q0 107 -52.5 164t-152.5 57q-126 0 -195 -86.5t-69 -244.5v-455h-201v1464z" />
    <glyph glyph-name="Itilde" unicode="&#x128;" horiz-adv-x="520" 
d="M154 1434h213v-1434h-213v1434z" />
    <glyph glyph-name="itilde" unicode="&#x129;" horiz-adv-x="466" 
d="M121 1434h225v-271h-225v271zM133 946h201v-946h-201v946z" />
    <glyph glyph-name="Imacron" unicode="&#x12a;" horiz-adv-x="520" 
d="M154 1434h213v-1434h-213v1434z" />
    <glyph glyph-name="imacron" unicode="&#x12b;" horiz-adv-x="466" 
d="M121 1434h225v-271h-225v271zM133 946h201v-946h-201v946z" />
    <glyph glyph-name="Ibreve" unicode="&#x12c;" horiz-adv-x="520" 
d="M154 1434h213v-1434h-213v1434z" />
    <glyph glyph-name="ibreve" unicode="&#x12d;" horiz-adv-x="466" 
d="M121 1434h225v-271h-225v271zM133 946h201v-946h-201v946z" />
    <glyph glyph-name="Iogonek" unicode="&#x12e;" horiz-adv-x="520" 
d="M154 1434h213v-1434h-213v1434z" />
    <glyph glyph-name="iogonek" unicode="&#x12f;" horiz-adv-x="466" 
d="M121 1434h225v-271h-225v271zM133 946h201v-946h-201v946z" />
    <glyph glyph-name="Idotaccent" unicode="&#x130;" horiz-adv-x="520" 
d="M154 1434h213v-1434h-213v1434z" />
    <glyph glyph-name="dotlessi" unicode="&#x131;" horiz-adv-x="466" 
d="M121 1434h225v-271h-225v271zM133 946h201v-946h-201v946z" />
    <glyph glyph-name="IJ" unicode="&#x132;" horiz-adv-x="1136" 
d="M154 1434h213v-1434h-213v1434zM770 1434h213v-1080q0 -188 -76.5 -276t-238.5 -88q-41 0 -97 6v201q31 -2 76 -2q63 0 93 32.5t30 118.5v1088z" />
    <glyph glyph-name="ij" unicode="&#x133;" horiz-adv-x="933" 
d="M121 1434h225v-271h-225v271zM588 1434h225v-271h-225v271zM133 946h201v-946h-201v946zM600 946h201v-987q0 -202 -97.5 -300.5t-275.5 -98.5h-14v196h14q172 0 172 203v987z" />
    <glyph glyph-name="Jcircumflex" unicode="&#x134;" horiz-adv-x="616" 
d="M250 1434h213v-1080q0 -188 -77 -276t-239 -88q-41 0 -96 6v201q31 -2 76 -2q63 0 93 32.5t30 118.5v1088z" />
    <glyph glyph-name="jcircumflex" unicode="&#x135;" horiz-adv-x="466" 
d="M121 1434h225v-271h-225v271zM133 946h201v-987q0 -202 -97.5 -300.5t-275.5 -98.5h-14v196h14q172 0 172 203v987z" />
    <glyph glyph-name="uni0136" unicode="&#x136;" horiz-adv-x="1261" 
d="M899 1434h287l-490 -566q-42 -46 -63 -65.5t-45 -34.5v-8q28 -18 43 -32.5t53 -59.5l567 -668h-286l-609 731l-6 -2q17 -104 17 -240v-489h-213v1434h213v-404q0 -137 -17 -237l6 -5z" />
    <glyph glyph-name="uni0137" unicode="&#x137;" horiz-adv-x="1003" 
d="M133 1464h201v-747q0 -120 -17 -187l7 -2l364 418h262l-334 -352q-55 -60 -92 -78v-8q31 -16 86 -68l394 -440h-267l-413 481l-7 -4q17 -64 17 -182v-295h-201v1464z" />
    <glyph glyph-name="kgreenlandic" unicode="&#x138;" horiz-adv-x="1003" 
d="M133 1464h201v-747q0 -120 -17 -187l7 -2l364 418h262l-334 -352q-55 -60 -92 -78v-8q31 -16 86 -68l394 -440h-267l-413 481l-7 -4q17 -64 17 -182v-295h-201v1464z" />
    <glyph glyph-name="Lacute" unicode="&#x139;" horiz-adv-x="1001" 
d="M154 1434h213v-1182q0 -34 -7 -51l5 -4q19 8 51 8h565v-205h-827v1434z" />
    <glyph glyph-name="lacute" unicode="&#x13a;" horiz-adv-x="466" 
d="M133 1464h201v-1464h-201v1464z" />
    <glyph glyph-name="uni013B" unicode="&#x13b;" horiz-adv-x="1001" 
d="M154 1434h213v-1182q0 -34 -7 -51l5 -4q19 8 51 8h565v-205h-827v1434z" />
    <glyph glyph-name="uni013C" unicode="&#x13c;" horiz-adv-x="466" 
d="M133 1464h201v-1464h-201v1464z" />
    <glyph glyph-name="Lcaron" unicode="&#x13d;" horiz-adv-x="1001" 
d="M154 1434h213v-1182q0 -34 -7 -51l5 -4q19 8 51 8h565v-205h-827v1434z" />
    <glyph glyph-name="lcaron" unicode="&#x13e;" horiz-adv-x="466" 
d="M133 1464h201v-1464h-201v1464z" />
    <glyph glyph-name="Ldot" unicode="&#x13f;" horiz-adv-x="1001" 
d="M154 1434h213v-1182q0 -34 -7 -51l5 -4q19 8 51 8h565v-205h-827v1434z" />
    <glyph glyph-name="ldot" unicode="&#x140;" horiz-adv-x="466" 
d="M133 1464h201v-1464h-201v1464z" />
    <glyph glyph-name="Lslash" unicode="&#x141;" horiz-adv-x="1001" 
d="M154 1434h213v-1182q0 -34 -7 -51l5 -4q19 8 51 8h565v-205h-827v1434z" />
    <glyph glyph-name="lslash" unicode="&#x142;" horiz-adv-x="466" 
d="M133 1464h201v-1464h-201v1464z" />
    <glyph glyph-name="Nacute" unicode="&#x143;" horiz-adv-x="1511" 
d="M154 1454h18l872 -872q82 -82 113 -160l8 2q-20 78 -20 258v752h213v-1454h-19l-872 872q-82 82 -113 160l-8 -2q21 -82 21 -256v-754h-213v1454z" />
    <glyph glyph-name="nacute" unicode="&#x144;" horiz-adv-x="1126" 
d="M666 977q161 0 249.5 -92.5t88.5 -261.5v-623h-201v565q0 107 -52.5 164t-152.5 57q-126 0 -195 -86.5t-69 -244.5v-455h-201v946h201q0 -125 -21 -217l9 -2q99 250 344 250z" />
    <glyph glyph-name="uni0145" unicode="&#x145;" horiz-adv-x="1511" 
d="M154 1454h18l872 -872q82 -82 113 -160l8 2q-20 78 -20 258v752h213v-1454h-19l-872 872q-82 82 -113 160l-8 -2q21 -82 21 -256v-754h-213v1454z" />
    <glyph glyph-name="uni0146" unicode="&#x146;" horiz-adv-x="1126" 
d="M666 977q161 0 249.5 -92.5t88.5 -261.5v-623h-201v565q0 107 -52.5 164t-152.5 57q-126 0 -195 -86.5t-69 -244.5v-455h-201v946h201q0 -125 -21 -217l9 -2q99 250 344 250z" />
    <glyph glyph-name="Ncaron" unicode="&#x147;" horiz-adv-x="1511" 
d="M154 1454h18l872 -872q82 -82 113 -160l8 2q-20 78 -20 258v752h213v-1454h-19l-872 872q-82 82 -113 160l-8 -2q21 -82 21 -256v-754h-213v1454z" />
    <glyph glyph-name="ncaron" unicode="&#x148;" horiz-adv-x="1126" 
d="M666 977q161 0 249.5 -92.5t88.5 -261.5v-623h-201v565q0 107 -52.5 164t-152.5 57q-126 0 -195 -86.5t-69 -244.5v-455h-201v946h201q0 -125 -21 -217l9 -2q99 250 344 250z" />
    <glyph glyph-name="napostrophe" unicode="&#x149;" horiz-adv-x="1126" 
d="M666 977q161 0 249.5 -92.5t88.5 -261.5v-623h-201v565q0 107 -52.5 164t-152.5 57q-126 0 -195 -86.5t-69 -244.5v-455h-201v946h201q0 -125 -21 -217l9 -2q99 250 344 250z" />
    <glyph glyph-name="Eng" unicode="&#x14a;" horiz-adv-x="1511" 
d="M154 1454h18l872 -872q82 -82 113 -160l8 2q-20 78 -20 258v752h213v-1454h-19l-872 872q-82 82 -113 160l-8 -2q21 -82 21 -256v-754h-213v1454z" />
    <glyph glyph-name="eng" unicode="&#x14b;" horiz-adv-x="1126" 
d="M666 977q161 0 249.5 -92.5t88.5 -261.5v-623h-201v565q0 107 -52.5 164t-152.5 57q-126 0 -195 -86.5t-69 -244.5v-455h-201v946h201q0 -125 -21 -217l9 -2q99 250 344 250z" />
    <glyph glyph-name="Omacron" unicode="&#x14c;" horiz-adv-x="1638" 
d="M819 1464q214 0 385 -95.5t267 -266.5t96 -385t-96 -385t-267 -267t-385 -96t-385 96t-266.5 267t-95.5 385q0 160 56 299t154.5 237.5t237.5 154.5t299 56zM819 1247q-226 0 -370 -149t-144 -381t144.5 -381.5t369.5 -149.5t369.5 149.5t144.5 381.5t-144 381t-370 149z
" />
    <glyph glyph-name="omacron" unicode="&#x14d;" horiz-adv-x="1159" 
d="M580 977q224 0 371 -143.5t147 -360.5t-147 -360.5t-371 -143.5t-371.5 143.5t-147.5 360.5t147.5 360.5t371.5 143.5zM580 780q-137 0 -221.5 -84.5t-84.5 -222.5t84.5 -222.5t221.5 -84.5t221 84.5t84 222.5t-84 222.5t-221 84.5z" />
    <glyph glyph-name="Obreve" unicode="&#x14e;" horiz-adv-x="1638" 
d="M819 1464q214 0 385 -95.5t267 -266.5t96 -385t-96 -385t-267 -267t-385 -96t-385 96t-266.5 267t-95.5 385q0 160 56 299t154.5 237.5t237.5 154.5t299 56zM819 1247q-226 0 -370 -149t-144 -381t144.5 -381.5t369.5 -149.5t369.5 149.5t144.5 381.5t-144 381t-370 149z
" />
    <glyph glyph-name="obreve" unicode="&#x14f;" horiz-adv-x="1159" 
d="M580 977q224 0 371 -143.5t147 -360.5t-147 -360.5t-371 -143.5t-371.5 143.5t-147.5 360.5t147.5 360.5t371.5 143.5zM580 780q-137 0 -221.5 -84.5t-84.5 -222.5t84.5 -222.5t221.5 -84.5t221 84.5t84 222.5t-84 222.5t-221 84.5z" />
    <glyph glyph-name="Ohungarumlaut" unicode="&#x150;" horiz-adv-x="1638" 
d="M819 1464q214 0 385 -95.5t267 -266.5t96 -385t-96 -385t-267 -267t-385 -96t-385 96t-266.5 267t-95.5 385q0 160 56 299t154.5 237.5t237.5 154.5t299 56zM819 1247q-226 0 -370 -149t-144 -381t144.5 -381.5t369.5 -149.5t369.5 149.5t144.5 381.5t-144 381t-370 149z
" />
    <glyph glyph-name="ohungarumlaut" unicode="&#x151;" horiz-adv-x="1159" 
d="M580 977q224 0 371 -143.5t147 -360.5t-147 -360.5t-371 -143.5t-371.5 143.5t-147.5 360.5t147.5 360.5t371.5 143.5zM580 780q-137 0 -221.5 -84.5t-84.5 -222.5t84.5 -222.5t221.5 -84.5t221 84.5t84 222.5t-84 222.5t-221 84.5z" />
    <glyph glyph-name="OE" unicode="&#x152;" horiz-adv-x="2695" 
d="M819 1464q214 0 385 -95.5t267 -266.5t96 -385t-96 -385t-267 -267t-385 -96t-385 96t-266.5 267t-95.5 385q0 160 56 299t154.5 237.5t237.5 154.5t299 56zM1792 1434h813v-201h-551q-32 0 -51 8l-4 -4q6 -15 6 -53v-256q0 -36 -6 -51l4 -5q21 9 51 9h483v-201h-483
q-32 0 -51 8l-4 -4q6 -15 6 -53v-381q0 -38 -6 -53l4 -4q19 8 51 8h559v-201h-821v1434zM819 1247q-226 0 -370 -149t-144 -381t144.5 -381.5t369.5 -149.5t369.5 149.5t144.5 381.5t-144 381t-370 149z" />
    <glyph glyph-name="oe" unicode="&#x153;" horiz-adv-x="2215" 
d="M580 977q224 0 371 -143.5t147 -360.5t-147 -360.5t-371 -143.5t-371.5 143.5t-147.5 360.5t147.5 360.5t371.5 143.5zM1702 977q211 0 331.5 -134.5t120.5 -369.5v-39h-608q-92 0 -125 17l-4 -5l8 -24q15 -126 91 -194t202 -68q84 0 150.5 32t136.5 107l123 -133
q-164 -197 -414 -197q-221 0 -357 137t-136 361q0 231 131.5 370.5t349.5 139.5zM1696 795q-110 0 -182 -60t-87 -166l5 -4q40 21 116 21h240q124 0 151 -19l5 4q-9 106 -74 165t-174 59zM580 780q-137 0 -221.5 -84.5t-84.5 -222.5t84.5 -222.5t221.5 -84.5t221 84.5
t84 222.5t-84 222.5t-221 84.5z" />
    <glyph glyph-name="Racute" unicode="&#x154;" horiz-adv-x="1226" 
d="M154 1434h469q202 0 321 -107t119 -293q0 -84 -33 -156.5t-85 -120t-114.5 -74t-123.5 -26.5q-30 0 -72 11v-9q40 -13 74 -40t73 -76l435 -543h-277l-506 641h-20q-33 0 -49 8l-5 -4q7 -21 7 -55v-590h-213v1434zM365 1241l-5 -4q7 -18 7 -53v-291q0 -33 -7 -51l5 -4
q19 8 51 8h209q100 0 154.5 49.5t54.5 140.5q0 89 -53.5 143t-155.5 54h-209q-32 0 -51 8z" />
    <glyph glyph-name="racute" unicode="&#x155;" horiz-adv-x="716" 
d="M651 975q21 0 35 -2v-232q-37 4 -65 4q-141 0 -214 -84t-73 -245v-416h-201v946h201q0 -111 -25 -250l10 -2q74 281 332 281z" />
    <glyph glyph-name="uni0156" unicode="&#x156;" horiz-adv-x="1226" 
d="M154 1434h469q202 0 321 -107t119 -293q0 -84 -33 -156.5t-85 -120t-114.5 -74t-123.5 -26.5q-30 0 -72 11v-9q40 -13 74 -40t73 -76l435 -543h-277l-506 641h-20q-33 0 -49 8l-5 -4q7 -21 7 -55v-590h-213v1434zM365 1241l-5 -4q7 -18 7 -53v-291q0 -33 -7 -51l5 -4
q19 8 51 8h209q100 0 154.5 49.5t54.5 140.5q0 89 -53.5 143t-155.5 54h-209q-32 0 -51 8z" />
    <glyph glyph-name="uni0157" unicode="&#x157;" horiz-adv-x="716" 
d="M651 975q21 0 35 -2v-232q-37 4 -65 4q-141 0 -214 -84t-73 -245v-416h-201v946h201q0 -111 -25 -250l10 -2q74 281 332 281z" />
    <glyph glyph-name="Rcaron" unicode="&#x158;" horiz-adv-x="1226" 
d="M154 1434h469q202 0 321 -107t119 -293q0 -84 -33 -156.5t-85 -120t-114.5 -74t-123.5 -26.5q-30 0 -72 11v-9q40 -13 74 -40t73 -76l435 -543h-277l-506 641h-20q-33 0 -49 8l-5 -4q7 -21 7 -55v-590h-213v1434zM365 1241l-5 -4q7 -18 7 -53v-291q0 -33 -7 -51l5 -4
q19 8 51 8h209q100 0 154.5 49.5t54.5 140.5q0 89 -53.5 143t-155.5 54h-209q-32 0 -51 8z" />
    <glyph glyph-name="rcaron" unicode="&#x159;" horiz-adv-x="716" 
d="M651 975q21 0 35 -2v-232q-37 4 -65 4q-141 0 -214 -84t-73 -245v-416h-201v946h201q0 -111 -25 -250l10 -2q74 281 332 281z" />
    <glyph glyph-name="Sacute" unicode="&#x15a;" horiz-adv-x="1013" 
d="M532 1464q191 0 379 -96l-96 -203q-147 84 -289 84q-164 0 -164 -123q0 -48 26 -87t85 -85l256 -196q115 -88 169 -178t54 -209q0 -192 -124.5 -297t-333.5 -105q-129 0 -250 37t-213 96l96 201q203 -117 369 -117q111 0 169 48t58 124q0 58 -35.5 109t-114.5 113
l-243 192q-98 77 -148.5 159t-50.5 187q0 159 106.5 252.5t294.5 93.5z" />
    <glyph glyph-name="sacute" unicode="&#x15b;" horiz-adv-x="845" 
d="M428 -31q-212 0 -387 101l90 178q156 -90 301 -90q148 0 148 90q0 32 -22.5 56t-76.5 50l-172 84q-200 96 -200 275q0 125 87.5 194.5t245.5 69.5t330 -74l-82 -174q-148 62 -252 62q-60 0 -88 -18t-28 -56q0 -34 24 -59.5t82 -53.5l176 -84q100 -47 145.5 -110
t45.5 -154q0 -135 -97 -211t-270 -76z" />
    <glyph glyph-name="Scircumflex" unicode="&#x15c;" horiz-adv-x="1013" 
d="M532 1464q191 0 379 -96l-96 -203q-147 84 -289 84q-164 0 -164 -123q0 -48 26 -87t85 -85l256 -196q115 -88 169 -178t54 -209q0 -192 -124.5 -297t-333.5 -105q-129 0 -250 37t-213 96l96 201q203 -117 369 -117q111 0 169 48t58 124q0 58 -35.5 109t-114.5 113
l-243 192q-98 77 -148.5 159t-50.5 187q0 159 106.5 252.5t294.5 93.5z" />
    <glyph glyph-name="scircumflex" unicode="&#x15d;" horiz-adv-x="845" 
d="M428 -31q-212 0 -387 101l90 178q156 -90 301 -90q148 0 148 90q0 32 -22.5 56t-76.5 50l-172 84q-200 96 -200 275q0 125 87.5 194.5t245.5 69.5t330 -74l-82 -174q-148 62 -252 62q-60 0 -88 -18t-28 -56q0 -34 24 -59.5t82 -53.5l176 -84q100 -47 145.5 -110
t45.5 -154q0 -135 -97 -211t-270 -76z" />
    <glyph glyph-name="Scedilla" unicode="&#x15e;" horiz-adv-x="1013" 
d="M532 1464q191 0 379 -96l-96 -203q-147 84 -289 84q-164 0 -164 -123q0 -48 26 -87t85 -85l256 -196q115 -88 169 -178t54 -209q0 -192 -124.5 -297t-333.5 -105q-129 0 -250 37t-213 96l96 201q203 -117 369 -117q111 0 169 48t58 124q0 58 -35.5 109t-114.5 113
l-243 192q-98 77 -148.5 159t-50.5 187q0 159 106.5 252.5t294.5 93.5z" />
    <glyph glyph-name="scedilla" unicode="&#x15f;" horiz-adv-x="845" 
d="M428 -31q-212 0 -387 101l90 178q156 -90 301 -90q148 0 148 90q0 32 -22.5 56t-76.5 50l-172 84q-200 96 -200 275q0 125 87.5 194.5t245.5 69.5t330 -74l-82 -174q-148 62 -252 62q-60 0 -88 -18t-28 -56q0 -34 24 -59.5t82 -53.5l176 -84q100 -47 145.5 -110
t45.5 -154q0 -135 -97 -211t-270 -76z" />
    <glyph glyph-name="Scaron" unicode="&#x160;" horiz-adv-x="1013" 
d="M532 1464q191 0 379 -96l-96 -203q-147 84 -289 84q-164 0 -164 -123q0 -48 26 -87t85 -85l256 -196q115 -88 169 -178t54 -209q0 -192 -124.5 -297t-333.5 -105q-129 0 -250 37t-213 96l96 201q203 -117 369 -117q111 0 169 48t58 124q0 58 -35.5 109t-114.5 113
l-243 192q-98 77 -148.5 159t-50.5 187q0 159 106.5 252.5t294.5 93.5z" />
    <glyph glyph-name="scaron" unicode="&#x161;" horiz-adv-x="845" 
d="M428 -31q-212 0 -387 101l90 178q156 -90 301 -90q148 0 148 90q0 32 -22.5 56t-76.5 50l-172 84q-200 96 -200 275q0 125 87.5 194.5t245.5 69.5t330 -74l-82 -174q-148 62 -252 62q-60 0 -88 -18t-28 -56q0 -34 24 -59.5t82 -53.5l176 -84q100 -47 145.5 -110
t45.5 -154q0 -135 -97 -211t-270 -76z" />
    <glyph glyph-name="uni0162" unicode="&#x162;" horiz-adv-x="1064" 
d="M20 1434h1024v-205h-356q-32 0 -51 8l-4 -4q6 -15 6 -51v-1182h-213v1182q0 36 6 51l-4 4q-19 -8 -51 -8h-357v205z" />
    <glyph glyph-name="uni0163" unicode="&#x163;" horiz-adv-x="643" 
d="M403 1452h13v-410q0 -71 -8 -108l6 -4q21 16 84 16h94v-192h-94q-63 0 -84 16l-6 -4q8 -35 8 -111v-655h-201v655q0 76 8 111l-6 4q-19 -16 -84 -16h-82v192h82q65 0 84 -16l6 4q-8 37 -8 108v273z" />
    <glyph glyph-name="Tcaron" unicode="&#x164;" horiz-adv-x="1064" 
d="M20 1434h1024v-205h-356q-32 0 -51 8l-4 -4q6 -15 6 -51v-1182h-213v1182q0 36 6 51l-4 4q-19 -8 -51 -8h-357v205z" />
    <glyph glyph-name="tcaron" unicode="&#x165;" horiz-adv-x="643" 
d="M403 1452h13v-410q0 -71 -8 -108l6 -4q21 16 84 16h94v-192h-94q-63 0 -84 16l-6 -4q8 -35 8 -111v-655h-201v655q0 76 8 111l-6 4q-19 -16 -84 -16h-82v192h82q65 0 84 -16l6 4q-8 37 -8 108v273z" />
    <glyph glyph-name="Tbar" unicode="&#x166;" horiz-adv-x="1064" 
d="M20 1434h1024v-205h-356q-32 0 -51 8l-4 -4q6 -15 6 -51v-1182h-213v1182q0 36 6 51l-4 4q-19 -8 -51 -8h-357v205z" />
    <glyph glyph-name="tbar" unicode="&#x167;" horiz-adv-x="643" 
d="M403 1452h13v-410q0 -71 -8 -108l6 -4q21 16 84 16h94v-192h-94q-63 0 -84 16l-6 -4q8 -35 8 -111v-655h-201v655q0 76 8 111l-6 4q-19 -16 -84 -16h-82v192h82q65 0 84 -16l6 4q-8 37 -8 108v273z" />
    <glyph glyph-name="Utilde" unicode="&#x168;" horiz-adv-x="1396" 
d="M1042 1434h222v-895q0 -261 -154 -414.5t-412 -153.5t-411.5 153.5t-153.5 414.5v895h221v-891q0 -167 93.5 -261t250.5 -94t250.5 94t93.5 261v891z" />
    <glyph glyph-name="utilde" unicode="&#x169;" horiz-adv-x="1073" 
d="M750 946h200v-946h-198q0 107 22 197l-8 2q-50 -118 -129 -174t-197 -56q-154 0 -240.5 102t-86.5 283v592h204v-555q0 -112 53 -171.5t152 -59.5q109 0 168.5 85.5t59.5 243.5v457z" />
    <glyph glyph-name="Umacron" unicode="&#x16a;" horiz-adv-x="1396" 
d="M1042 1434h222v-895q0 -261 -154 -414.5t-412 -153.5t-411.5 153.5t-153.5 414.5v895h221v-891q0 -167 93.5 -261t250.5 -94t250.5 94t93.5 261v891z" />
    <glyph glyph-name="umacron" unicode="&#x16b;" horiz-adv-x="1073" 
d="M750 946h200v-946h-198q0 107 22 197l-8 2q-50 -118 -129 -174t-197 -56q-154 0 -240.5 102t-86.5 283v592h204v-555q0 -112 53 -171.5t152 -59.5q109 0 168.5 85.5t59.5 243.5v457z" />
    <glyph glyph-name="Ubreve" unicode="&#x16c;" horiz-adv-x="1396" 
d="M1042 1434h222v-895q0 -261 -154 -414.5t-412 -153.5t-411.5 153.5t-153.5 414.5v895h221v-891q0 -167 93.5 -261t250.5 -94t250.5 94t93.5 261v891z" />
    <glyph glyph-name="ubreve" unicode="&#x16d;" horiz-adv-x="1073" 
d="M750 946h200v-946h-198q0 107 22 197l-8 2q-50 -118 -129 -174t-197 -56q-154 0 -240.5 102t-86.5 283v592h204v-555q0 -112 53 -171.5t152 -59.5q109 0 168.5 85.5t59.5 243.5v457z" />
    <glyph glyph-name="Uring" unicode="&#x16e;" horiz-adv-x="1396" 
d="M1042 1434h222v-895q0 -261 -154 -414.5t-412 -153.5t-411.5 153.5t-153.5 414.5v895h221v-891q0 -167 93.5 -261t250.5 -94t250.5 94t93.5 261v891z" />
    <glyph glyph-name="uring" unicode="&#x16f;" horiz-adv-x="1073" 
d="M750 946h200v-946h-198q0 107 22 197l-8 2q-50 -118 -129 -174t-197 -56q-154 0 -240.5 102t-86.5 283v592h204v-555q0 -112 53 -171.5t152 -59.5q109 0 168.5 85.5t59.5 243.5v457z" />
    <glyph glyph-name="Uhungarumlaut" unicode="&#x170;" horiz-adv-x="1396" 
d="M1042 1434h222v-895q0 -261 -154 -414.5t-412 -153.5t-411.5 153.5t-153.5 414.5v895h221v-891q0 -167 93.5 -261t250.5 -94t250.5 94t93.5 261v891z" />
    <glyph glyph-name="uhungarumlaut" unicode="&#x171;" horiz-adv-x="1073" 
d="M750 946h200v-946h-198q0 107 22 197l-8 2q-50 -118 -129 -174t-197 -56q-154 0 -240.5 102t-86.5 283v592h204v-555q0 -112 53 -171.5t152 -59.5q109 0 168.5 85.5t59.5 243.5v457z" />
    <glyph glyph-name="Uogonek" unicode="&#x172;" horiz-adv-x="1396" 
d="M1042 1434h222v-895q0 -261 -154 -414.5t-412 -153.5t-411.5 153.5t-153.5 414.5v895h221v-891q0 -167 93.5 -261t250.5 -94t250.5 94t93.5 261v891z" />
    <glyph glyph-name="uogonek" unicode="&#x173;" horiz-adv-x="1073" 
d="M750 946h200v-946h-198q0 107 22 197l-8 2q-50 -118 -129 -174t-197 -56q-154 0 -240.5 102t-86.5 283v592h204v-555q0 -112 53 -171.5t152 -59.5q109 0 168.5 85.5t59.5 243.5v457z" />
    <glyph glyph-name="Wcircumflex" unicode="&#x174;" horiz-adv-x="1949" 
d="M961 1454h28l287 -766q42 -113 55 -159.5t19 -108.5h8q6 61 19.5 111.5t49.5 154.5l259 748h243l-563 -1454h-25l-325 839q-31 81 -37 176h-8q-6 -95 -37 -176l-326 -839h-24l-564 1454h244l258 -748q37 -107 50.5 -156.5t19.5 -109.5h8q6 62 19 108.5t55 159.5z" />
    <glyph glyph-name="wcircumflex" unicode="&#x175;" horiz-adv-x="1445" 
d="M463 -10h-53l-390 956h226l153 -428q37 -104 41 -168h9q4 29 12 55.5t15.5 45.5t29.5 71l190 439h54l190 -439q22 -52 29.5 -71t15.5 -45.5t12 -55.5h9q4 64 41 168l153 428h225l-389 -956h-53l-213 477q-38 83 -43 139h-8q-5 -56 -43 -139z" />
    <glyph glyph-name="Ycircumflex" unicode="&#x176;" horiz-adv-x="1146" 
d="M885 1434h252l-457 -861v-573h-213v573l-457 861h252l211 -441q56 -117 72 -156t26 -92h4q9 49 25 89t58 127q10 21 16 32z" />
    <glyph glyph-name="ycircumflex" unicode="&#x177;" horiz-adv-x="1015" 
d="M776 946h219l-571 -1358h-209l201 473l-396 885h230l215 -522q41 -99 43 -184h8q3 74 35 151z" />
    <glyph glyph-name="Ydieresis" unicode="&#x178;" horiz-adv-x="1146" 
d="M885 1434h252l-457 -861v-573h-213v573l-457 861h252l211 -441q56 -117 72 -156t26 -92h4q9 49 25 89t58 127q10 21 16 32z" />
    <glyph glyph-name="Zacute" unicode="&#x179;" horiz-adv-x="1196" 
d="M211 1434h950l4 -11l-792 -1245l4 -6q22 21 49.5 29t79.5 8h655l-108 -209h-1026l-7 10l795 1243l-4 7q-47 -35 -158 -35h-547z" />
    <glyph glyph-name="zacute" unicode="&#x17a;" horiz-adv-x="929" 
d="M801 0h-785l-6 10l580 776l-4 7q-43 -24 -79.5 -30.5t-111.5 -6.5h-327l118 190h729l5 -8l-570 -778l4 -6q35 23 78.5 29.5t142.5 6.5h343z" />
    <glyph glyph-name="Zdotaccent" unicode="&#x17b;" horiz-adv-x="1196" 
d="M211 1434h950l4 -11l-792 -1245l4 -6q22 21 49.5 29t79.5 8h655l-108 -209h-1026l-7 10l795 1243l-4 7q-47 -35 -158 -35h-547z" />
    <glyph glyph-name="zdotaccent" unicode="&#x17c;" horiz-adv-x="929" 
d="M801 0h-785l-6 10l580 776l-4 7q-43 -24 -79.5 -30.5t-111.5 -6.5h-327l118 190h729l5 -8l-570 -778l4 -6q35 23 78.5 29.5t142.5 6.5h343z" />
    <glyph glyph-name="Zcaron" unicode="&#x17d;" horiz-adv-x="1196" 
d="M211 1434h950l4 -11l-792 -1245l4 -6q22 21 49.5 29t79.5 8h655l-108 -209h-1026l-7 10l795 1243l-4 7q-47 -35 -158 -35h-547z" />
    <glyph glyph-name="zcaron" unicode="&#x17e;" horiz-adv-x="929" 
d="M801 0h-785l-6 10l580 776l-4 7q-43 -24 -79.5 -30.5t-111.5 -6.5h-327l118 190h729l5 -8l-570 -778l4 -6q35 23 78.5 29.5t142.5 6.5h343z" />
    <glyph glyph-name="AEacute" unicode="&#x1fc;" horiz-adv-x="2482" 
d="M260 0h-240l682 1464h21l682 -1464h-240l-168 377h-569zM1579 1434h813v-201h-551q-32 0 -51 8l-4 -4q6 -15 6 -53v-256q0 -36 -6 -51l4 -5q21 9 51 9h483v-201h-483q-32 0 -51 8l-4 -4q6 -15 6 -53v-381q0 -38 -6 -53l4 -4q19 8 51 8h559v-201h-821v1434zM485 557l2 -2
q36 4 115 4h221q79 0 115 -4l2 2q-34 43 -66 117l-106 252q-45 108 -51 164h-8q-6 -53 -52 -164l-106 -252q-32 -74 -66 -117z" />
    <glyph glyph-name="aeacute" unicode="&#x1fd;" horiz-adv-x="2082" 
d="M506 977q206 0 301.5 -93t95.5 -292v-592h-203q0 88 29 150l-8 4q-108 -185 -318 -185q-153 0 -247.5 91.5t-94.5 240.5q0 154 94.5 244t250.5 90q104 0 184.5 -41t128.5 -117l6 4q-11 37 -16 131q-12 179 -220 179q-110 0 -272 -52l-55 181q174 57 344 57zM1569 977
q211 0 331.5 -134.5t120.5 -369.5v-39h-608q-92 0 -125 17l-4 -5l8 -24q15 -126 91 -194t202 -68q84 0 150.5 32t136.5 107l123 -133q-164 -197 -414 -197q-222 0 -358 137t-136 361q0 230 132 370t350 140zM1563 795q-110 0 -182 -60t-87 -166l4 -4q40 21 117 21h240
q124 0 151 -19l4 4q-9 106 -74 165t-173 59zM479 469q-92 0 -148.5 -47.5t-56.5 -122.5q0 -76 56 -121t147 -45q94 0 154.5 46.5t60.5 121.5q0 74 -60 121t-153 47z" />
    <glyph glyph-name="Oslashacute" unicode="&#x1fe;" horiz-adv-x="1638" 
d="M819 1464q214 0 385 -95.5t267 -266.5t96 -385t-96 -385t-267 -267t-385 -96t-385 96t-266.5 267t-95.5 385q0 160 56 299t154.5 237.5t237.5 154.5t299 56zM819 1247q-226 0 -370 -149t-144 -381t144.5 -381.5t369.5 -149.5t369.5 149.5t144.5 381.5t-144 381t-370 149z
" />
    <glyph glyph-name="oslashacute" unicode="&#x1ff;" horiz-adv-x="1159" 
d="M580 977q224 0 371 -143.5t147 -360.5t-147 -360.5t-371 -143.5t-371.5 143.5t-147.5 360.5t147.5 360.5t371.5 143.5zM580 780q-137 0 -221.5 -84.5t-84.5 -222.5t84.5 -222.5t221.5 -84.5t221 84.5t84 222.5t-84 222.5t-221 84.5z" />
    <glyph glyph-name="uni0218" unicode="&#x218;" horiz-adv-x="1013" 
d="M532 1464q191 0 379 -96l-96 -203q-147 84 -289 84q-164 0 -164 -123q0 -48 26 -87t85 -85l256 -196q115 -88 169 -178t54 -209q0 -192 -124.5 -297t-333.5 -105q-129 0 -250 37t-213 96l96 201q203 -117 369 -117q111 0 169 48t58 124q0 58 -35.5 109t-114.5 113
l-243 192q-98 77 -148.5 159t-50.5 187q0 159 106.5 252.5t294.5 93.5z" />
    <glyph glyph-name="uni0219" unicode="&#x219;" horiz-adv-x="845" 
d="M428 -31q-212 0 -387 101l90 178q156 -90 301 -90q148 0 148 90q0 32 -22.5 56t-76.5 50l-172 84q-200 96 -200 275q0 125 87.5 194.5t245.5 69.5t330 -74l-82 -174q-148 62 -252 62q-60 0 -88 -18t-28 -56q0 -34 24 -59.5t82 -53.5l176 -84q100 -47 145.5 -110
t45.5 -154q0 -135 -97 -211t-270 -76z" />
    <glyph glyph-name="uni021A" unicode="&#x21a;" horiz-adv-x="1064" 
d="M20 1434h1024v-205h-356q-32 0 -51 8l-4 -4q6 -15 6 -51v-1182h-213v1182q0 36 6 51l-4 4q-19 -8 -51 -8h-357v205z" />
    <glyph glyph-name="uni021B" unicode="&#x21b;" horiz-adv-x="643" 
d="M403 1452h13v-410q0 -71 -8 -108l6 -4q21 16 84 16h94v-192h-94q-63 0 -84 16l-6 -4q8 -35 8 -111v-655h-201v655q0 76 8 111l-6 4q-19 -16 -84 -16h-82v192h82q65 0 84 -16l6 4q-8 37 -8 108v273z" />
    <glyph glyph-name="uni0237" unicode="&#x237;" horiz-adv-x="466" 
d="M121 1434h225v-271h-225v271zM133 946h201v-987q0 -202 -97.5 -300.5t-275.5 -98.5h-14v196h14q172 0 172 203v987z" />
    <glyph glyph-name="uni0394" unicode="&#x394;" horiz-adv-x="1286" 
d="M551 1434h184l510 -1434h-1204zM997 100l-354 1061l-356 -1061h710z" />
    <glyph glyph-name="uni03A9" unicode="&#x3a9;" horiz-adv-x="1536" 
d="M768 1464q310 0 503 -184.5t193 -480.5q0 -230 -138.5 -400.5t-373.5 -232.5v-6q84 16 185 16h299v-176h-586v303q187 41 297 172t110 313q0 223 -132.5 353.5t-356.5 130.5t-356.5 -130.5t-132.5 -353.5q0 -182 110 -313t297 -172v-303h-586v176h299q101 0 185 -16v6
q-235 62 -373.5 232.5t-138.5 400.5q0 296 193 480.5t503 184.5z" />
    <glyph glyph-name="uni03BC" unicode="&#x3bc;" horiz-adv-x="1073" 
d="M750 489v457h200v-946h-198q0 107 22 197l-8 2q-50 -118 -129 -174t-197 -56q-77 0 -143 29v-408h-184v1356h204v-555q0 -112 53 -171.5t152 -59.5q109 0 168.5 85.5t59.5 243.5z" />
    <glyph glyph-name="pi" unicode="&#x3c0;" horiz-adv-x="1241" 
d="M346 977h834v-184h-217v-793h-195v793h-262l-193 -793h-192l190 793q-146 -6 -250 -41v184q116 41 285 41z" />
    <glyph glyph-name="uni0401" unicode="&#x401;" 
d="M154 1434h813v-201h-551q-32 0 -51 8l-5 -4q7 -18 7 -53v-256q0 -34 -7 -51l5 -5q21 9 51 9h483v-201h-483q-32 0 -51 8l-5 -4q7 -18 7 -53v-381q0 -35 -7 -53l5 -4q19 8 51 8h559v-201h-821v1434z" />
    <glyph glyph-name="uni0404" unicode="&#x404;" horiz-adv-x="1380" 
d="M817 -31q-340 0 -542.5 203.5t-202.5 544.5t202.5 544t542.5 203q290 0 512 -147l-106 -191q-185 123 -418 123q-186 0 -314 -100.5t-169 -280.5q-8 -36 -17 -51l4 -4q18 6 62 6h596v-205h-596q-41 0 -62 7l-4 -5q10 -16 17 -51q41 -180 169 -280.5t314 -100.5
q233 0 418 123l106 -190q-224 -148 -512 -148z" />
    <glyph glyph-name="uni0405" unicode="&#x405;" horiz-adv-x="1013" 
d="M532 1464q191 0 379 -96l-96 -203q-147 84 -289 84q-164 0 -164 -123q0 -48 26 -87t85 -85l256 -196q115 -88 169 -178t54 -209q0 -192 -124.5 -297t-333.5 -105q-129 0 -250 37t-213 96l96 201q203 -117 369 -117q111 0 169 48t58 124q0 58 -35.5 109t-114.5 113
l-243 192q-98 77 -148.5 159t-50.5 187q0 159 106.5 252.5t294.5 93.5z" />
    <glyph glyph-name="uni0406" unicode="&#x406;" horiz-adv-x="520" 
d="M154 1434h213v-1434h-213v1434z" />
    <glyph glyph-name="uni0408" unicode="&#x408;" horiz-adv-x="616" 
d="M250 1434h213v-1080q0 -188 -77 -276t-239 -88q-41 0 -96 6v201q31 -2 76 -2q63 0 93 32.5t30 118.5v1088z" />
    <glyph glyph-name="uni040F" unicode="&#x40f;" horiz-adv-x="1458" 
d="M829 -287h-200v240q0 36 6 51l-4 4q-19 -8 -51 -8h-426v1434h213v-1186q0 -33 -7 -51l5 -4q19 8 51 8h626q33 0 52 -8l4 4q-6 15 -6 51v1186h213v-1434h-426q-33 0 -52 8l-4 -4q6 -15 6 -51v-240z" />
    <glyph glyph-name="uni0410" unicode="&#x410;" horiz-adv-x="1425" 
d="M260 0h-240l682 1464h21l682 -1464h-240l-168 377h-569zM485 557l2 -2q36 4 115 4h221q79 0 115 -4l2 2q-34 43 -66 117l-106 252q-45 108 -51 164h-8q-6 -53 -52 -164l-106 -252q-32 -74 -66 -117z" />
    <glyph glyph-name="uni0411" unicode="&#x411;" horiz-adv-x="1249" 
d="M694 868q98 0 181.5 -27.5t146.5 -80.5t99 -136.5t36 -189.5t-36 -189.5t-99 -136.5t-146.5 -80.5t-181.5 -27.5h-540v1434h927v-201h-665q-32 0 -51 8l-5 -4q7 -18 7 -53v-269q0 -33 -7 -51l5 -4q19 8 51 8h278zM670 201q128 0 195 60t67 173q0 108 -68 171t-194 63
h-254q-32 0 -51 8l-5 -4q7 -18 7 -51v-371q0 -35 -7 -53l5 -4q19 8 51 8h254z" />
    <glyph glyph-name="uni0412" unicode="&#x412;" horiz-adv-x="1265" 
d="M735 0h-581v1434h530q184 0 293.5 -98.5t109.5 -262.5q0 -102 -46.5 -175t-133.5 -107q-51 -21 -102 -23v-8q62 0 104 -12q124 -29 194.5 -122.5t70.5 -228.5q0 -180 -120.5 -288.5t-318.5 -108.5zM360 834l5 -5q21 9 51 9h213q114 0 176.5 53.5t62.5 150.5
q0 92 -58 141.5t-165 49.5h-229q-32 0 -51 8l-5 -4q7 -18 7 -53v-299q0 -33 -7 -51zM360 197l5 -4q19 8 51 8h280q254 0 254 213q0 112 -71 169.5t-209 57.5h-254q-32 0 -51 8l-5 -4q7 -17 7 -51v-344q0 -35 -7 -53z" />
    <glyph glyph-name="uni0413" unicode="&#x413;" horiz-adv-x="983" 
d="M154 1434h809v-201h-547q-32 0 -51 8l-5 -4q7 -18 7 -51v-1186h-213v1434z" />
    <glyph glyph-name="uni0414" unicode="&#x414;" horiz-adv-x="1398" 
d="M211 -287h-201v471h105q36 0 55 -8l4 4q3 33 14 53q93 185 136 388t43 469v344h815v-1201q0 -38 -6 -53l4 -4q19 8 53 8h104v-471h-200v221q0 41 8 54l-4 4q-19 -8 -54 -8h-827q-35 0 -51 8l-4 -4q6 -15 6 -54v-221zM383 178l4 -4q17 10 53 10h480q32 0 51 -8l4 4
q-6 15 -6 53v951q0 38 6 53l-4 4q-19 -8 -51 -8h-291q-32 0 -51 8l-5 -4q7 -18 7 -53v-115q0 -274 -53 -515t-144 -376z" />
    <glyph glyph-name="uni0415" unicode="&#x415;" 
d="M154 1434h813v-201h-551q-32 0 -51 8l-5 -4q7 -18 7 -53v-256q0 -34 -7 -51l5 -5q21 9 51 9h483v-201h-483q-32 0 -51 8l-5 -4q7 -18 7 -53v-381q0 -35 -7 -53l5 -4q19 8 51 8h559v-201h-821v1434z" />
    <glyph glyph-name="uni0416" unicode="&#x416;" horiz-adv-x="1871" 
d="M156 -8q-62 0 -103 8v211q50 -4 64 -4q111 0 137 110l55 242q26 116 77.5 154.5t184.5 42.5v8q-149 7 -209.5 51t-89.5 164l-41 174q-18 86 -131 86q-19 0 -59 -4v199q79 6 102 6q126 0 189.5 -44.5t91.5 -150.5l59 -237q15 -76 70 -117t143 -41h80q46 0 64 -6l2 2
q-11 37 -11 82v506h209v-506q0 -48 -10 -82l2 -2q18 6 64 6h80q175 0 213 158l59 237q25 106 89 150.5t192 44.5q23 0 102 -6v-199q-40 4 -59 4q-114 0 -132 -86l-41 -174q-29 -120 -89.5 -164t-209.5 -51v-8q134 -5 185.5 -43.5t77.5 -153.5l55 -242q26 -110 137 -110
q14 0 64 4v-211q-41 -8 -103 -8q-129 0 -198 52.5t-95 172.5l-61 287q-19 85 -64 124.5t-122 39.5h-80q-40 0 -64 4l-2 -2q10 -34 10 -84v-586h-209v586q0 47 11 84l-2 2q-24 -4 -64 -4h-80q-77 0 -122 -39.5t-64 -124.5l-61 -287q-26 -120 -95 -172.5t-198 -52.5z" />
    <glyph glyph-name="uni0417" unicode="&#x417;" horiz-adv-x="1148" 
d="M528 -31q-283 0 -477 113l96 194q189 -100 394 -100q288 0 288 227q0 125 -87.5 184.5t-270.5 59.5h-197v209h195q309 0 309 215q0 186 -241 186q-171 0 -375 -92l-76 199q247 100 475 100q225 0 336 -88t111 -268q0 -250 -230 -320q-65 -19 -139 -22v-8q78 0 141 -13
q277 -62 277 -360q0 -205 -134 -310.5t-395 -105.5z" />
    <glyph glyph-name="uni0418" unicode="&#x418;" horiz-adv-x="1511" 
d="M467 567l872 887h19v-1454h-213v768q0 178 20 256l-8 2q-31 -78 -113 -160l-872 -886h-18v1454h213v-766q0 -176 -21 -258l8 -2q31 77 113 159z" />
    <glyph glyph-name="uni0419" unicode="&#x419;" horiz-adv-x="1511" 
d="M467 567l872 887h19v-1454h-213v768q0 178 20 256l-8 2q-31 -78 -113 -160l-872 -886h-18v1454h213v-766q0 -176 -21 -258l8 -2q31 77 113 159z" />
    <glyph glyph-name="uni041A" unicode="&#x41a;" horiz-adv-x="1271" 
d="M1083 -12q-220 0 -266 233l-47 232q-22 112 -71.5 158t-149.5 46h-127q-50 0 -64 7l-2 -5q11 -32 11 -81v-578h-213v1434h213v-523q0 -48 -11 -80l2 -2q21 7 64 7h127q94 0 144 47t75 159l45 201q46 203 287 203q64 0 108 -8v-199q-38 6 -63 6q-63 0 -95.5 -21.5
t-43.5 -68.5l-39 -178q-28 -126 -93.5 -173t-218.5 -52v-9q153 -5 223 -54.5t93 -172.5l41 -203q13 -69 42.5 -97t88.5 -28q7 0 88 7v-199q-65 -8 -148 -8z" />
    <glyph glyph-name="uni041B" unicode="&#x41b;" horiz-adv-x="1519" 
d="M285 1434h1081v-1434h-213v1186q0 36 6 51l-4 4q-19 -8 -51 -8h-557q-32 0 -51 8l-4 -4q6 -15 6 -51v-832q0 -187 -76.5 -275.5t-239.5 -88.5q-58 0 -131 8v197q56 -5 111 -5q66 0 94.5 35t28.5 117v1092z" />
    <glyph glyph-name="uni041C" unicode="&#x41c;" horiz-adv-x="1802" 
d="M911 -14h-20l-332 753q-57 130 -67 230h-9q0 -133 -30 -232l-211 -737h-222l426 1454h31l385 -901q26 -63 35 -166h8q9 103 35 166l385 901h31l426 -1454h-221l-211 737q-31 103 -31 232h-8q-10 -97 -68 -230z" />
    <glyph glyph-name="uni041D" unicode="&#x41d;" horiz-adv-x="1458" 
d="M1092 1434h213v-1434h-213v608q0 36 6 51l-4 5q-21 -9 -52 -9h-626q-30 0 -51 9l-5 -5q7 -17 7 -51v-608h-213v1434h213v-527q0 -33 -7 -51l5 -4q19 8 51 8h626q33 0 52 -8l4 4q-6 15 -6 51v527z" />
    <glyph glyph-name="uni041E" unicode="&#x41e;" horiz-adv-x="1638" 
d="M819 1464q214 0 385 -95.5t267 -266.5t96 -385t-96 -385t-267 -267t-385 -96t-385 96t-266.5 267t-95.5 385q0 160 56 299t154.5 237.5t237.5 154.5t299 56zM819 1247q-226 0 -370 -149t-144 -381t144.5 -381.5t369.5 -149.5t369.5 149.5t144.5 381.5t-144 381t-370 149z
" />
    <glyph glyph-name="uni041F" unicode="&#x41f;" horiz-adv-x="1429" 
d="M154 1434h1122v-1434h-213v1186q0 36 6 51l-4 4q-19 -8 -51 -8h-598q-32 0 -51 8l-5 -4q7 -18 7 -51v-1186h-213v1434z" />
    <glyph glyph-name="uni0420" unicode="&#x420;" horiz-adv-x="1118" 
d="M154 1434h460q210 0 331.5 -108.5t121.5 -299.5q0 -189 -117.5 -297t-316.5 -108h-217q-32 0 -51 8l-5 -4q7 -17 7 -52v-573h-213v1434zM365 1241l-5 -4q7 -18 7 -53v-314q0 -36 -7 -53l5 -4q19 8 51 8h200q107 0 164.5 55t57.5 150q0 96 -57.5 151.5t-164.5 55.5h-200
q-32 0 -51 8z" />
    <glyph glyph-name="uni0421" unicode="&#x421;" horiz-adv-x="1396" 
d="M840 -31q-226 0 -401 94t-271 264t-96 390q0 165 56 304t156 236.5t243.5 152t312.5 54.5q288 0 506 -157l-132 -187q-175 127 -383 127q-233 0 -379.5 -147.5t-146.5 -382.5t146.5 -383t379.5 -148q208 0 383 127l132 -186q-219 -158 -506 -158z" />
    <glyph glyph-name="uni0422" unicode="&#x422;" horiz-adv-x="1064" 
d="M20 1434h1024v-205h-356q-32 0 -51 8l-4 -4q6 -15 6 -51v-1182h-213v1182q0 36 6 51l-4 4q-19 -8 -51 -8h-357v205z" />
    <glyph glyph-name="uni0423" unicode="&#x423;" horiz-adv-x="1271" 
d="M344 -18q-84 0 -174 10l2 207q86 -15 164 -15q66 0 116 41.5t91 132.5l-533 1076h254l303 -660q4 -8 11 -23q59 -127 70 -174q4 -17 7 -36h9q7 73 19 116t46 123l291 654h242l-504 -1112q-73 -177 -173 -258.5t-241 -81.5z" />
    <glyph glyph-name="uni0424" unicode="&#x424;" horiz-adv-x="1720" 
d="M965 -82h-209v88q0 37 10 62l-2 2q-21 -7 -72 -7q-173 0 -315.5 85.5t-223.5 235.5t-81 333t81 332.5t223.5 235t315.5 85.5q54 0 72 -6l2 2q-10 22 -10 61v89h209v-89q0 -36 -11 -61l2 -2q21 6 72 6q174 0 316 -85.5t223.5 -235t81.5 -332.5t-81.5 -333t-224 -235.5
t-315.5 -85.5q-48 0 -72 7l-2 -2q11 -27 11 -62v-88zM772 258l4 2q-10 22 -10 64v786q0 42 10 64l-4 2q-9 -2 -61 -5q-186 -4 -296 -127.5t-110 -326.5t110 -327t296 -128q57 -3 61 -4zM946 260l2 -2q3 1 64 4q186 4 295.5 128t109.5 327t-109.5 326.5t-295.5 127.5
q-56 3 -64 5l-2 -2q10 -22 10 -64v-786q0 -42 -10 -64z" />
    <glyph glyph-name="uni0425" unicode="&#x425;" horiz-adv-x="1286" 
d="M954 1434h250l-346 -549q-51 -79 -86 -119v-4q30 -39 102 -150l392 -612h-250l-279 444q-81 132 -90 179h-8q-9 -47 -90 -179l-279 -444h-250l392 612q72 111 102 150v4q-35 40 -86 119l-346 549h250l217 -351q81 -129 90 -178h8q9 49 90 178z" />
    <glyph glyph-name="uni0426" unicode="&#x426;" horiz-adv-x="1495" 
d="M1434 -283h-201v236q0 31 8 51l-4 4q-16 -8 -53 -8h-1030v1434h213v-1186q0 -28 -9 -51l4 -4q19 8 54 8h588q34 0 53 -8l4 4q-8 20 -8 51v1186h213v-1186q0 -28 -9 -51l5 -4q16 8 53 8h119v-484z" />
    <glyph glyph-name="uni0427" unicode="&#x427;" horiz-adv-x="1247" 
d="M1094 0h-213v526q0 73 12 95l-4 4q-206 -76 -438 -76q-420 0 -420 459v426h213v-422q0 -129 57.5 -195.5t169.5 -66.5q175 0 410 69v615h213v-1434z" />
    <glyph glyph-name="uni0428" unicode="&#x428;" horiz-adv-x="2011" 
d="M1858 0h-1704v1434h213v-1186q0 -28 -9 -51l4 -4q19 8 54 8h434q34 0 53 -8l4 4q-8 20 -8 51v1186h213v-1186q0 -31 -8 -51l4 -4q16 8 53 8h434q35 0 54 -8l4 4q-8 20 -8 51v1186h213v-1434z" />
    <glyph glyph-name="uni0429" unicode="&#x429;" horiz-adv-x="2091" 
d="M1907 201h123v-484h-201v236q0 31 8 51l-4 4q-19 -8 -53 -8h-1626v1434h213v-1186q0 -28 -9 -51l4 -4q19 8 54 8h434q34 0 53 -8l4 4q-8 20 -8 51v1186h213v-1186q0 -31 -8 -51l4 -4q16 8 53 8h434q35 0 54 -8l4 4q-8 20 -8 51v1186h213v-1186q0 -28 -9 -51l4 -4
q19 8 54 8z" />
    <glyph glyph-name="uni042A" unicode="&#x42a;" horiz-adv-x="1439" 
d="M653 868h279q214 0 340.5 -118t126.5 -316t-126.5 -316t-340.5 -118h-541v1186q0 38 8 51l-4 4q-19 -8 -53 -8h-322v201h584v-519q0 -36 -6 -51l4 -4q19 8 51 8zM653 201h254q126 0 194 60.5t68 172.5q0 109 -69.5 171.5t-192.5 62.5h-254q-32 0 -51 8l-4 -4q6 -15 6 -51
v-371q0 -38 -6 -53l4 -4q19 8 51 8z" />
    <glyph glyph-name="uni042B" unicode="&#x42b;" horiz-adv-x="1632" 
d="M694 868q214 0 340.5 -118t126.5 -316t-126.5 -316t-340.5 -118h-540v1434h213v-519q0 -33 -7 -51l5 -4q19 8 51 8h278zM1266 0v1434h213v-1434h-213zM670 201q126 0 194 60.5t68 172.5q0 109 -69.5 171.5t-192.5 62.5h-254q-32 0 -51 8l-5 -4q7 -18 7 -51v-371
q0 -35 -7 -53l5 -4q19 8 51 8h254z" />
    <glyph glyph-name="uni042C" unicode="&#x42c;" horiz-adv-x="1202" 
d="M694 868q214 0 340.5 -118t126.5 -316t-126.5 -316t-340.5 -118h-540v1434h213v-519q0 -33 -7 -51l5 -4q19 8 51 8h278zM670 201q126 0 194 60.5t68 172.5q0 109 -69.5 171.5t-192.5 62.5h-254q-32 0 -51 8l-5 -4q7 -18 7 -51v-371q0 -35 -7 -53l5 -4q19 8 51 8h254z" />
    <glyph glyph-name="uni042D" unicode="&#x42d;" horiz-adv-x="1380" 
d="M563 -31q-288 0 -512 148l107 190q184 -123 417 -123q186 0 314.5 100.5t169.5 280.5q8 37 16 51l-4 5q-21 -7 -61 -7h-596v205h596q43 0 61 -6l4 4q-7 12 -16 51q-41 180 -169.5 280.5t-314.5 100.5q-233 0 -417 -123l-107 191q222 147 512 147q340 0 543 -203t203 -544
t-203 -544.5t-543 -203.5z" />
    <glyph glyph-name="uni042E" unicode="&#x42e;" horiz-adv-x="2086" 
d="M1268 1460q160 0 299 -56t237.5 -154.5t154.5 -237.5t56 -299q0 -214 -95.5 -385t-266.5 -267t-385 -96q-301 0 -507 183.5t-237 474.5h-108q-32 0 -51 8l-5 -4q7 -18 7 -52v-575h-213v1434h213v-564q0 -34 -7 -51l5 -4q19 8 51 8h110q37 283 241.5 460t500.5 177z
M1268 182q225 0 369.5 149.5t144.5 381.5t-144 381t-370 149t-370 -149t-144 -381t144.5 -381.5t369.5 -149.5z" />
    <glyph glyph-name="uni042F" unicode="&#x42f;" horiz-adv-x="1257" 
d="M604 1434h500v-1434h-213v590q0 37 6 55l-4 4q-16 -8 -49 -8h-51l-506 -641h-277l434 543q38 49 72 75.5t76 40.5v9q-50 -11 -72 -11q-142 0 -249 113t-107 264q0 185 118 292.5t322 107.5zM897 1237l-4 4q-19 -8 -51 -8h-240q-98 0 -153.5 -52.5t-55.5 -144.5
q0 -91 54.5 -140.5t154.5 -49.5h240q32 0 51 -8l4 4q-6 15 -6 51v291q0 38 6 53z" />
    <glyph glyph-name="uni0430" unicode="&#x430;" horiz-adv-x="1026" 
d="M506 977q206 0 301.5 -93t95.5 -292v-592h-203q0 88 29 150l-8 4q-108 -185 -318 -185q-153 0 -247.5 91.5t-94.5 240.5q0 154 94.5 244t250.5 90q104 0 184.5 -41t128.5 -117l6 4q-11 37 -16 131q-12 179 -220 179q-110 0 -272 -52l-55 181q174 57 344 57zM479 469
q-92 0 -148.5 -47.5t-56.5 -122.5q0 -76 56 -121t147 -45q94 0 154.5 46.5t60.5 121.5q0 74 -60 121t-153 47z" />
    <glyph glyph-name="uni0431" unicode="&#x431;" horiz-adv-x="1171" 
d="M594 -31q-254 0 -393.5 163.5t-139.5 461.5q0 467 250 627q37 24 93.5 45.5t100.5 33.5t115 30t99 26q103 27 106 88h199q0 -107 -42 -163t-146 -87q-39 -12 -128.5 -32t-163.5 -41t-120 -46q-91 -51 -136.5 -155t-49.5 -273h8q37 152 140 234t257 84q212 1 339.5 -130
t127.5 -350q0 -230 -143 -373t-373 -143zM596 168q132 0 216.5 86.5t84.5 222.5t-85 220.5t-222 84.5q-132 0 -217.5 -86.5t-85.5 -220.5q0 -136 86 -221.5t223 -85.5z" />
    <glyph glyph-name="uni0432" unicode="&#x432;" horiz-adv-x="999" 
d="M797 475q141 -41 141 -213q0 -117 -84 -189.5t-219 -72.5h-502v946h498q132 0 204 -60.5t72 -172.5q0 -139 -108 -191q-48 -23 -121 -26v-9q66 0 119 -12zM326 772l-2 -2q10 -20 10 -57v-105q0 -26 -10 -53l2 -2q16 8 57 8h184q54 0 85.5 29t31.5 78q0 96 -119 96h-182
q-41 0 -57 8zM596 182q119 0 119 113t-121 113h-211q-41 0 -57 8l-2 -2q10 -27 10 -54v-131q0 -26 -10 -53l2 -2q16 8 57 8h213z" />
    <glyph glyph-name="uni0433" unicode="&#x433;" horiz-adv-x="757" 
d="M334 0h-201v946h615v-186h-365q-41 0 -57 8l-2 -2q10 -20 10 -53v-713z" />
    <glyph glyph-name="uni0434" unicode="&#x434;" horiz-adv-x="1093" 
d="M205 -287h-185v471h80q34 0 47 -8l3 2q-3 20 12 51q72 138 101.5 256.5t29.5 266.5v194h647v-715q0 -26 -10 -53l2 -2q16 8 57 8h64v-471h-183v238q0 24 11 53l-2 2q-16 -8 -58 -8h-567q-41 0 -57 8l-2 -2q10 -27 10 -53v-238zM342 178l2 -4q20 10 62 10h296q42 0 58 -8
l2 2q-10 27 -10 53v488q0 26 10 53l-2 2q-16 -8 -58 -8h-170q-41 0 -57 8l-2 -2q10 -27 10 -53v-41q0 -131 -40.5 -277t-100.5 -223z" />
    <glyph glyph-name="uni0435" unicode="&#x435;" 
d="M543 977q211 0 331.5 -134.5t120.5 -369.5v-39h-608q-92 0 -125 17l-4 -5l8 -24q15 -126 91 -194t202 -68q84 0 150.5 32t136.5 107l123 -133q-164 -197 -414 -197q-222 0 -358 137t-136 361q0 230 132 370t350 140zM537 795q-110 0 -182 -60t-87 -166l4 -4q40 21 117 21
h240q124 0 151 -19l4 4q-9 106 -74 165t-173 59z" />
    <glyph glyph-name="uni0436" unicode="&#x436;" horiz-adv-x="1421" 
d="M160 -6h-119v174h53q44 0 64 13.5t32 51.5l37 134q19 64 65.5 92t135.5 30v9q-165 6 -201 116l-30 86q-19 46 -40.5 62t-66.5 16h-45v174h100q67 0 114 -25t67 -71l69 -168q26 -71 52.5 -93t84.5 -22h27q40 0 64 -4l2 2q-11 37 -11 82v293h193v-293q0 -48 -10 -82l2 -2
q24 4 63 4h27q58 0 84.5 22t52.5 93l70 168q42 96 180 96h100v-174h-45q-45 0 -66 -16t-40 -62l-31 -86q-36 -110 -201 -116v-9q89 -2 135.5 -30t65.5 -92l37 -134q12 -38 32 -51.5t64 -13.5h53v-174h-118q-80 0 -125 29.5t-64 93.5l-49 168q-20 72 -50 100.5t-85 28.5h-27
q-39 0 -63 4l-2 -2q10 -34 10 -86v-330h-193v330q0 49 11 86l-2 2q-24 -4 -64 -4h-27q-55 0 -85 -28.5t-50 -100.5l-49 -168q-19 -64 -63.5 -93.5t-124.5 -29.5z" />
    <glyph glyph-name="uni0437" unicode="&#x437;" horiz-adv-x="905" 
d="M430 -31q-221 0 -389 97l82 174q151 -86 313 -86q109 0 158 29.5t49 95.5q0 71 -43 103t-139 32h-133v180h121q139 0 139 98q0 51 -39 75t-125 24q-133 0 -295 -76l-74 174q208 88 387 88q170 0 263.5 -63.5t93.5 -180.5q0 -97 -62.5 -154.5t-177.5 -66.5v-8
q141 -7 213 -69t72 -175q0 -139 -108 -215t-306 -76z" />
    <glyph glyph-name="uni0438" unicode="&#x438;" horiz-adv-x="1103" 
d="M197 -12h-64v958h201v-364q0 -134 -10 -236l8 -2q24 58 104 141l471 473h64v-958h-201v365q0 133 10 235l-8 2q-24 -58 -104 -141z" />
    <glyph glyph-name="uni0439" unicode="&#x439;" horiz-adv-x="1103" 
d="M197 -12h-64v958h201v-364q0 -134 -10 -236l8 -2q24 58 104 141l471 473h64v-958h-201v365q0 133 10 235l-8 2q-24 -58 -104 -141z" />
    <glyph glyph-name="uni043A" unicode="&#x43a;" horiz-adv-x="1011" 
d="M971 -6h-119q-82 0 -129 30t-66 93l-47 168q-19 73 -47.5 101t-85.5 28h-88q-39 0 -63 4l-2 -2q10 -34 10 -86v-330h-201v946h201v-293q0 -48 -10 -82l2 -2q24 4 63 4h88q58 0 83.5 21.5t51.5 93.5l70 168q20 51 63.5 73.5t120.5 22.5h101v-180h-43q-44 0 -66 -14.5
t-41 -57.5l-33 -86q-20 -59 -68.5 -87t-131.5 -29v-9q90 -1 135.5 -29t64.5 -93l39 -134q12 -38 29.5 -48.5t67.5 -10.5h51v-180z" />
    <glyph glyph-name="uni043B" unicode="&#x43b;" horiz-adv-x="1081" 
d="M209 946h749v-946h-200v713q0 26 10 53l-2 2q-16 -8 -57 -8h-250q-42 0 -58 8l-2 -2q11 -29 11 -53v-394q0 -161 -78.5 -243t-231.5 -82h-80v182h78q60 0 85.5 35.5t25.5 118.5v616z" />
    <glyph glyph-name="uni043C" unicode="&#x43c;" horiz-adv-x="1363" 
d="M711 -10h-58l-178 401q-4 10 -13 30.5t-12 27t-9 21.5t-8 20.5t-6 16t-5.5 16.5l-3.5 14l-4 16h-8q-2 -28 -7.5 -53.5t-11 -42t-22.5 -68.5l-129 -389h-216l345 956h53l221 -495q31 -70 39 -113h8q8 43 39 113l221 495h53l344 -956h-215l-129 389q-17 52 -22.5 68.5
t-11 42t-7.5 53.5h-8l-4 -16l-3.5 -14t-5.5 -16.5t-6 -16t-8 -20.5t-9 -21.5t-12 -27t-13 -30.5z" />
    <glyph glyph-name="uni043D" unicode="&#x43d;" horiz-adv-x="1148" 
d="M815 645v301h201v-946h-201v365q0 33 10 53l-2 2q-16 -8 -57 -8h-383q-41 0 -57 8l-2 -2q10 -20 10 -53v-365h-201v946h201v-301q0 -33 -10 -53l2 -2q16 8 57 8h383q41 0 57 -8l2 2q-10 20 -10 53z" />
    <glyph glyph-name="uni043E" unicode="&#x43e;" horiz-adv-x="1159" 
d="M580 977q224 0 371 -143.5t147 -360.5t-147 -360.5t-371 -143.5t-371.5 143.5t-147.5 360.5t147.5 360.5t371.5 143.5zM580 780q-137 0 -221.5 -84.5t-84.5 -222.5t84.5 -222.5t221.5 -84.5t221 84.5t84 222.5t-84 222.5t-221 84.5z" />
    <glyph glyph-name="uni043F" unicode="&#x43f;" horiz-adv-x="1087" 
d="M123 946h842v-946h-201v713q0 33 10 53l-2 2q-16 -8 -57 -8h-342q-42 0 -58 8l-2 -2q11 -22 11 -53v-713h-201v946z" />
    <glyph glyph-name="uni0440" unicode="&#x440;" horiz-adv-x="1191" 
d="M672 977q201 0 329.5 -141.5t128.5 -362.5t-128.5 -362.5t-329.5 -141.5q-118 0 -207.5 55.5t-140.5 159.5l-9 -2q19 -71 19 -198v-394h-201v1356h195q0 -125 -13 -182l9 -2q53 105 141.5 160t206.5 55zM633 788q-135 0 -221 -88t-86 -227t86 -227t221 -88
q134 0 209.5 83.5t75.5 231.5t-75.5 231.5t-209.5 83.5z" />
    <glyph glyph-name="uni0441" unicode="&#x441;" horiz-adv-x="956" 
d="M582 -31q-231 0 -376 140t-145 364t145 364t376 140q180 0 323 -96l-94 -170q-109 71 -236 71q-133 0 -217 -86t-84 -223t84 -223t217 -86q126 0 236 72l94 -170q-144 -97 -323 -97z" />
    <glyph glyph-name="uni0442" unicode="&#x442;" horiz-adv-x="913" 
d="M10 760v186h893v-186h-297q-41 0 -57 8l-2 -2q10 -20 10 -53v-713h-201v713q0 31 11 53l-2 2q-16 -8 -58 -8h-297z" />
    <glyph glyph-name="uni0443" unicode="&#x443;" horiz-adv-x="1015" 
d="M776 946h219l-571 -1358h-209l201 473l-396 885h230l215 -522q41 -99 43 -184h8q3 74 35 151z" />
    <glyph glyph-name="uni0444" unicode="&#x444;" horiz-adv-x="1720" 
d="M954 -410h-188v410q0 138 18 203l-8 2q-91 -236 -309 -236q-181 0 -288 136.5t-107 367.5t107 367.5t288 136.5q218 0 309 -236l8 2q-18 65 -18 203v488h188v-488q0 -138 -18 -203l8 -2q91 236 309 236q181 0 288.5 -137t107.5 -367t-107.5 -367t-288.5 -137
q-218 0 -309 236l-8 -2q18 -65 18 -203v-410zM530 158q116 0 180.5 82t65.5 233q-1 151 -65.5 233t-180.5 82t-180 -82t-65 -233q1 -151 65 -233t180 -82zM1192 158q115 0 179.5 83t66.5 232q-2 149 -66.5 232t-179.5 83t-179.5 -83t-66.5 -232q2 -149 66.5 -232t179.5 -83z
" />
    <glyph glyph-name="uni0445" unicode="&#x445;" horiz-adv-x="1028" 
d="M258 0h-238l310 430q41 53 57 59v7q-20 10 -53 57l-273 393h238l129 -190q44 -65 61 -99t21 -69h8q4 35 21 69t61 99l129 190h238l-273 -393q-33 -47 -53 -57v-7q16 -6 57 -59l310 -430h-238l-172 240q-41 56 -57.5 87.5t-22.5 67.5h-8q-6 -36 -22.5 -67.5t-57.5 -87.5z
" />
    <glyph glyph-name="uni0446" unicode="&#x446;" horiz-adv-x="1107" 
d="M1067 -287h-182v240q0 33 10 53l-2 2q-16 -8 -57 -8h-703v946h201v-713q0 -33 -10 -53l2 -2q16 8 57 8h311q42 0 58 -8l2 2q-11 22 -11 53v713h201v-713q0 -33 -10 -53l2 -2q16 8 57 8h74v-473z" />
    <glyph glyph-name="uni0447" unicode="&#x447;" horiz-adv-x="974" 
d="M651 946h201v-946h-201v299q0 76 13 102l-5 2q-152 -55 -290 -55q-178 0 -263.5 84.5t-85.5 259.5v254h201v-231q0 -95 41 -135.5t137 -40.5q25 0 53.5 3t51.5 7t49.5 10.5t42 10.5t34.5 10t21 6v360z" />
    <glyph glyph-name="uni0448" unicode="&#x448;" horiz-adv-x="1626" 
d="M1292 233v713h201v-946h-1360v946h201v-713q0 -33 -10 -53l2 -2q16 8 57 8h281q41 0 57 -8l2 2q-10 20 -10 53v713h200v-713q0 -33 -10 -53l2 -2q16 8 58 8h280q41 0 57 -8l3 2q-11 22 -11 53z" />
    <glyph glyph-name="uni0449" unicode="&#x449;" horiz-adv-x="1656" 
d="M1616 -287h-182v240q0 33 10 53l-2 2q-16 -8 -58 -8h-1251v946h201v-713q0 -33 -10 -53l2 -2q16 8 57 8h281q41 0 57 -8l2 2q-10 20 -10 53v713h200v-713q0 -33 -10 -53l2 -2q16 8 58 8h280q41 0 57 -8l3 2q-11 22 -11 53v713h201v-713q0 -33 -10 -53l2 -2q16 8 57 8h74
v-473z" />
    <glyph glyph-name="uni044A" unicode="&#x44a;" horiz-adv-x="1140" 
d="M754 612q160 0 253 -82t93 -223q0 -137 -96.5 -222t-251.5 -85h-439v713q0 24 11 53l-2 2q-16 -8 -58 -8h-254v186h504v-287q0 -26 -10 -53l2 -2q16 8 57 8h191zM737 186q70 0 110 31.5t40 87.5q0 58 -39 89.5t-111 31.5h-174q-41 0 -57 8l-2 -2q10 -27 10 -53v-146
q0 -26 -10 -53l2 -2q16 8 57 8h174z" />
    <glyph glyph-name="uni044B" unicode="&#x44b;" horiz-adv-x="937" 
d="M567 612q152 0 241 -82t89 -223q0 -137 -92 -222t-240 -85h-432v946h201v-287q0 -26 -10 -53l2 -2q16 8 57 8h184zM549 186q65 0 100 31t35 88q0 58 -35 89.5t-100 31.5h-166q-41 0 -57 8l-2 -2q10 -27 10 -53v-146q0 -26 -10 -53l2 -2q16 8 57 8h166z" />
    <glyph glyph-name="uni044C" unicode="&#x44c;" horiz-adv-x="937" 
d="M567 612q152 0 241 -82t89 -223q0 -137 -92 -222t-240 -85h-432v946h201v-287q0 -26 -10 -53l2 -2q16 8 57 8h184zM549 186q65 0 100 31t35 88q0 58 -35 89.5t-100 31.5h-166q-41 0 -57 8l-2 -2q10 -27 10 -53v-146q0 -26 -10 -53l2 -2q16 8 57 8h166z" />
    <glyph glyph-name="uni044D" unicode="&#x44d;" horiz-adv-x="962" 
d="M410 -31q-206 0 -359 90l86 177q129 -72 264 -72q89 0 159 46t93 120q14 46 27 65l-2 2q-18 -10 -55 -10h-336v172h336q37 0 55 -10l2 2q-17 26 -27 65q-25 74 -94.5 120t-157.5 46q-137 0 -264 -71l-86 176q153 90 359 90q217 0 349 -138.5t132 -365.5t-132 -365.5
t-349 -138.5z" />
    <glyph glyph-name="uni044E" unicode="&#x44e;" horiz-adv-x="1542" 
d="M963 977q224 0 371 -143.5t147 -360.5t-147 -360.5t-371 -143.5q-198 0 -339.5 115.5t-170.5 298.5h-78q-42 0 -58 8l-2 -2q11 -22 11 -53v-336h-193v946h193v-332q0 -31 -11 -53l2 -2q16 8 58 8h78q33 182 172.5 296t337.5 114zM963 166q137 0 221 84.5t84 222.5
t-84 222.5t-221 84.5t-221.5 -84.5t-84.5 -222.5t84.5 -222.5t221.5 -84.5z" />
    <glyph glyph-name="uni044F" unicode="&#x44f;" horiz-adv-x="1019" 
d="M438 946h449v-946h-201v305q0 26 10 53l-2 2q-16 -8 -57 -8h-47l-316 -352h-243v8l237 254q24 25 33.5 35t30.5 26.5t43 28.5v6q-28 -3 -43 2q-108 19 -171 96t-63 191q0 141 90 220t250 79zM694 518l2 2q-10 27 -10 53v146q0 26 10 53l-2 2q-16 -8 -57 -8h-178
q-72 0 -110 -30.5t-38 -88.5q0 -57 39.5 -89t108.5 -32h178q41 0 57 -8z" />
    <glyph glyph-name="uni0451" unicode="&#x451;" 
d="M543 977q211 0 331.5 -134.5t120.5 -369.5v-39h-608q-92 0 -125 17l-4 -5l8 -24q15 -126 91 -194t202 -68q84 0 150.5 32t136.5 107l123 -133q-164 -197 -414 -197q-222 0 -358 137t-136 361q0 230 132 370t350 140zM537 795q-110 0 -182 -60t-87 -166l4 -4q40 21 117 21
h240q124 0 151 -19l4 4q-9 106 -74 165t-173 59z" />
    <glyph glyph-name="uni0454" unicode="&#x454;" horiz-adv-x="962" 
d="M553 -31q-217 0 -349 138.5t-132 365.5t132 365.5t349 138.5q205 0 358 -90l-86 -176q-127 71 -264 71q-88 0 -157.5 -46t-94.5 -120q-11 -41 -26 -65l2 -2q18 10 55 10h336v-172h-336q-37 0 -55 10l-2 -2q11 -16 26 -65q23 -74 93 -120t159 -46q135 0 264 72l86 -177
q-153 -90 -358 -90z" />
    <glyph glyph-name="uni0455" unicode="&#x455;" horiz-adv-x="845" 
d="M428 -31q-212 0 -387 101l90 178q156 -90 301 -90q148 0 148 90q0 32 -22.5 56t-76.5 50l-172 84q-200 96 -200 275q0 125 87.5 194.5t245.5 69.5t330 -74l-82 -174q-148 62 -252 62q-60 0 -88 -18t-28 -56q0 -34 24 -59.5t82 -53.5l176 -84q100 -47 145.5 -110
t45.5 -154q0 -135 -97 -211t-270 -76z" />
    <glyph glyph-name="uni0458" unicode="&#x458;" horiz-adv-x="466" 
d="M121 1434h225v-271h-225v271zM133 946h201v-987q0 -202 -97.5 -300.5t-275.5 -98.5h-14v196h14q172 0 172 203v987z" />
    <glyph glyph-name="Wgrave" unicode="&#x1e80;" horiz-adv-x="1949" 
d="M961 1454h28l287 -766q42 -113 55 -159.5t19 -108.5h8q6 61 19.5 111.5t49.5 154.5l259 748h243l-563 -1454h-25l-325 839q-31 81 -37 176h-8q-6 -95 -37 -176l-326 -839h-24l-564 1454h244l258 -748q37 -107 50.5 -156.5t19.5 -109.5h8q6 62 19 108.5t55 159.5z" />
    <glyph glyph-name="wgrave" unicode="&#x1e81;" horiz-adv-x="1445" 
d="M463 -10h-53l-390 956h226l153 -428q37 -104 41 -168h9q4 29 12 55.5t15.5 45.5t29.5 71l190 439h54l190 -439q22 -52 29.5 -71t15.5 -45.5t12 -55.5h9q4 64 41 168l153 428h225l-389 -956h-53l-213 477q-38 83 -43 139h-8q-5 -56 -43 -139z" />
    <glyph glyph-name="Wacute" unicode="&#x1e82;" horiz-adv-x="1949" 
d="M961 1454h28l287 -766q42 -113 55 -159.5t19 -108.5h8q6 61 19.5 111.5t49.5 154.5l259 748h243l-563 -1454h-25l-325 839q-31 81 -37 176h-8q-6 -95 -37 -176l-326 -839h-24l-564 1454h244l258 -748q37 -107 50.5 -156.5t19.5 -109.5h8q6 62 19 108.5t55 159.5z" />
    <glyph glyph-name="wacute" unicode="&#x1e83;" horiz-adv-x="1445" 
d="M463 -10h-53l-390 956h226l153 -428q37 -104 41 -168h9q4 29 12 55.5t15.5 45.5t29.5 71l190 439h54l190 -439q22 -52 29.5 -71t15.5 -45.5t12 -55.5h9q4 64 41 168l153 428h225l-389 -956h-53l-213 477q-38 83 -43 139h-8q-5 -56 -43 -139z" />
    <glyph glyph-name="Wdieresis" unicode="&#x1e84;" horiz-adv-x="1949" 
d="M961 1454h28l287 -766q42 -113 55 -159.5t19 -108.5h8q6 61 19.5 111.5t49.5 154.5l259 748h243l-563 -1454h-25l-325 839q-31 81 -37 176h-8q-6 -95 -37 -176l-326 -839h-24l-564 1454h244l258 -748q37 -107 50.5 -156.5t19.5 -109.5h8q6 62 19 108.5t55 159.5z" />
    <glyph glyph-name="wdieresis" unicode="&#x1e85;" horiz-adv-x="1445" 
d="M463 -10h-53l-390 956h226l153 -428q37 -104 41 -168h9q4 29 12 55.5t15.5 45.5t29.5 71l190 439h54l190 -439q22 -52 29.5 -71t15.5 -45.5t12 -55.5h9q4 64 41 168l153 428h225l-389 -956h-53l-213 477q-38 83 -43 139h-8q-5 -56 -43 -139z" />
    <glyph glyph-name="Ygrave" unicode="&#x1ef2;" horiz-adv-x="1146" 
d="M885 1434h252l-457 -861v-573h-213v573l-457 861h252l211 -441q56 -117 72 -156t26 -92h4q9 49 25 89t58 127q10 21 16 32z" />
    <glyph glyph-name="ygrave" unicode="&#x1ef3;" horiz-adv-x="1015" 
d="M776 946h219l-571 -1358h-209l201 473l-396 885h230l215 -522q41 -99 43 -184h8q3 74 35 151z" />
    </font>
</defs>
</svg>
