<?xml version="1.0" standalone="no"?>
<!DOCTYPE svg PUBLIC "-//W3C//DTD SVG 1.1//EN" "http://www.w3.org/Graphics/SVG/1.1/DTD/svg11.dtd" >
<svg xmlns="http://www.w3.org/2000/svg" xmlns:xlink="http://www.w3.org/1999/xlink" version="1.1">
<metadata>
Created by FontForge 20170731 at Fri Apr 28 10:27:58 2023
 By Aleksey,,,
Copyright (c) 2015 by Grilli Type. All rights reserved.
</metadata>
<defs>
<font id="GTEestiTextTrial-Th" horiz-adv-x="417" >
  <font-face 
    font-family="GT Eesti Text Trial Th"
    font-weight="275"
    font-stretch="normal"
    units-per-em="2048"
    panose-1="0 0 3 0 0 0 0 0 0 0"
    ascent="1536"
    descent="-512"
    x-height="946"
    cap-height="1434"
    bbox="-43 -440 2634 1516"
    underline-thickness="102"
    underline-position="-307"
    unicode-range="U+0020-1EF3"
  />
<missing-glyph horiz-adv-x="1126" 
d="M102 0v1434h922v-1434h-922zM371 821v-4q0 -25 -18.5 -46t-55.5 -21q-41 0 -62.5 28t-21.5 80q0 51 21.5 82t60.5 31q49 0 63 -47l62 24q-29 80 -123 80q-72 0 -112 -47t-40 -121q0 -72 37.5 -119t100.5 -47q65 0 88 41l8 -35h47v179h-137v-58h82zM616 1024v-59h66v59
h-66zM770 700v324h-59v-324h59zM864 700v324h-61v-324h61zM897 1024v-59h66v59h-66zM604 872v56q-12 4 -22 4q-38 0 -64 -43v37h-55v-226h59v103q0 31 15 51t47 20q14 0 20 -2zM618 926v-226h62v226h-62zM899 926v-226h62v226h-62zM623 633h-66v-62h66v62zM874 309h60v324
h-60v-324zM182 629v-60h90v-260h62v260h90v60h-242zM545 479v58q-6 2 -21 2q-42 0 -61 -43v36h-57v-223h61v101q0 71 57 71q13 0 21 -2zM788 309h60q-6 30 -6 43v82q0 55 -20.5 80t-73.5 25q-50 0 -76.5 -20t-28.5 -56h59q3 31 43 31q22 0 29.5 -11t7.5 -34q-62 -5 -102 -17
q-43 -17 -43 -59q0 -32 22 -51t56 -19q51 0 71 39q0 -23 2 -33zM621 532h-62v-223h62v223zM782 412v-6q0 -27 -13.5 -42.5t-35.5 -15.5q-16 0 -25.5 8t-9.5 19q0 27 47 33z" />
    <glyph glyph-name=".notdef" horiz-adv-x="1126" 
d="M102 0v1434h922v-1434h-922zM371 821v-4q0 -25 -18.5 -46t-55.5 -21q-41 0 -62.5 28t-21.5 80q0 51 21.5 82t60.5 31q49 0 63 -47l62 24q-29 80 -123 80q-72 0 -112 -47t-40 -121q0 -72 37.5 -119t100.5 -47q65 0 88 41l8 -35h47v179h-137v-58h82zM616 1024v-59h66v59
h-66zM770 700v324h-59v-324h59zM864 700v324h-61v-324h61zM897 1024v-59h66v59h-66zM604 872v56q-12 4 -22 4q-38 0 -64 -43v37h-55v-226h59v103q0 31 15 51t47 20q14 0 20 -2zM618 926v-226h62v226h-62zM899 926v-226h62v226h-62zM623 633h-66v-62h66v62zM874 309h60v324
h-60v-324zM182 629v-60h90v-260h62v260h90v60h-242zM545 479v58q-6 2 -21 2q-42 0 -61 -43v36h-57v-223h61v101q0 71 57 71q13 0 21 -2zM788 309h60q-6 30 -6 43v82q0 55 -20.5 80t-73.5 25q-50 0 -76.5 -20t-28.5 -56h59q3 31 43 31q22 0 29.5 -11t7.5 -34q-62 -5 -102 -17
q-43 -17 -43 -59q0 -32 22 -51t56 -19q51 0 71 39q0 -23 2 -33zM621 532h-62v-223h62v223zM782 412v-6q0 -27 -13.5 -42.5t-35.5 -15.5q-16 0 -25.5 8t-9.5 19q0 27 47 33z" />
    <glyph glyph-name=".null" horiz-adv-x="30" 
 />
    <glyph glyph-name="nonmarkingreturn" horiz-adv-x="682" 
 />
    <glyph glyph-name="space" unicode=" " horiz-adv-x="653" 
 />
    <glyph glyph-name="comma" unicode="," horiz-adv-x="438" 
d="M156 -342h-66l88 528h148z" />
    <glyph glyph-name="hyphen" unicode="-" horiz-adv-x="770" 
d="M109 612h553v-108h-553v108z" />
    <glyph glyph-name="period" unicode="." horiz-adv-x="421" 
d="M301 0h-180v184h180v-184z" />
    <glyph glyph-name="zero" unicode="0" horiz-adv-x="1198" 
d="M598 1413q225 0 358.5 -187t133.5 -534t-133.5 -535t-358.5 -188q-224 0 -356.5 188t-132.5 535t132 534t357 187zM598 1317q-175 0 -280 -166t-105 -459t105 -459.5t280 -166.5q176 0 280.5 166t104.5 460t-104.5 459.5t-280.5 165.5z" />
    <glyph glyph-name="one" unicode="1" horiz-adv-x="661" 
d="M389 1382h70v-1382h-105v961q0 70 3 101t14 77l-6 4q-19 -27 -78 -60l-193 -110v112l266 177z" />
    <glyph glyph-name="two" unicode="2" horiz-adv-x="1009" 
d="M528 1413q174 0 277.5 -92.5t103.5 -261.5q0 -202 -194 -420l-353 -397q-89 -104 -159 -152l4 -4q53 16 155 16h556l2 -4l-56 -98h-844l-2 6l619 701q164 181 164 346q0 127 -79.5 193.5t-197.5 66.5q-170 0 -370 -166l-60 82q210 184 434 184z" />
    <glyph glyph-name="three" unicode="3" horiz-adv-x="999" 
d="M473 1413q181 0 278 -88.5t97 -232.5q0 -104 -60.5 -183.5t-162.5 -111.5q-42 -15 -115 -21v-8q77 0 113 -10q133 -27 215 -117.5t82 -245.5q0 -193 -122 -309.5t-362 -116.5q-208 0 -385 101l37 98q93 -48 172 -73t170 -25q181 0 281 82.5t100 238.5q0 164 -118.5 242
t-375.5 78v100q189 0 305.5 69.5t116.5 194.5q0 116 -75 178t-207 62q-158 0 -334 -107l-45 90q197 115 395 115z" />
    <glyph glyph-name="four" unicode="4" horiz-adv-x="1124" 
d="M772 1382h107v-948q0 -35 -2 -49l2 -4q10 4 34 4h160l-41 -98h-119q-24 0 -34 2l-2 -2q2 -10 2 -43v-244h-103v240q0 35 2 47l-2 2q-14 -2 -41 -2h-696v86zM784 1247l-8 2q-18 -48 -61 -110l-492 -672q-49 -66 -67 -84l4 -6q36 8 88 8h469q41 0 61 -4l2 2q-4 18 -4 61
v697q0 67 8 106z" />
    <glyph glyph-name="five" unicode="5" horiz-adv-x="1021" 
d="M367 1382h591l-38 -102h-439q-39 0 -51 2l-2 -2q0 -34 -16 -94l-78 -260q-14 -44 -41 -84l2 -4q83 34 182 34q211 0 332 -113t121 -308q0 -224 -141 -353t-392 -129q-216 0 -379 103l39 98q174 -100 351 -100q102 0 182.5 29t130 80.5t75 118t25.5 144.5
q0 161 -104.5 246.5t-267.5 85.5q-117 0 -267 -43l-6 8z" />
    <glyph glyph-name="six" unicode="6" horiz-adv-x="1093" 
d="M635 1401h133l-272 -330q-102 -124 -153 -193.5t-97 -146.5l6 -4q78 99 156.5 135.5t173.5 36.5q199 0 323.5 -130t124.5 -329q0 -208 -133.5 -339.5t-341.5 -131.5q-95 0 -181 31.5t-153 90t-107 152t-40 208.5q0 244 202 499zM555 799q-164 0 -269.5 -103.5
t-105.5 -263.5q0 -161 105 -262.5t274 -101.5q161 0 262 101t101 267q0 161 -102 262t-265 101z" />
    <glyph glyph-name="seven" unicode="7" horiz-adv-x="882" 
d="M72 1382h794l2 -4l-628 -1378h-113l551 1190q32 74 47 94l-2 2q-36 -8 -107 -8h-583z" />
    <glyph glyph-name="eight" unicode="8" horiz-adv-x="1110" 
d="M555 -31q-214 0 -337.5 105.5t-123.5 287.5q0 147 83 246.5t226 124.5v8q-126 28 -197 113.5t-71 208.5q0 161 113.5 255.5t306.5 94.5t306.5 -94.5t113.5 -255.5q0 -123 -71 -208.5t-197 -113.5v-8q143 -25 226 -124.5t83 -246.5q0 -182 -123.5 -287.5t-337.5 -105.5z
M555 786q139 0 225 74.5t86 194.5q0 119 -84.5 189.5t-226.5 70.5t-226.5 -70.5t-84.5 -189.5q0 -120 86.5 -194.5t224.5 -74.5zM555 68q164 0 258 80t94 221q0 146 -94.5 230.5t-257.5 84.5q-162 0 -256 -84.5t-94 -230.5q0 -141 93 -221t257 -80z" />
    <glyph glyph-name="nine" unicode="9" horiz-adv-x="1052" 
d="M526 1413q96 0 181 -30.5t152 -89t106 -152t39 -211.5q0 -130 -47.5 -247t-149.5 -237l-365 -446h-129l279 340q152 182 227 285l-8 4q-129 -146 -315 -146q-198 0 -323.5 131.5t-125.5 329.5q0 209 134 339t345 130zM528 1313q-164 0 -268 -100.5t-104 -266.5
q0 -161 100.5 -260.5t263.5 -99.5q165 0 270 102t105 264q0 159 -101 260t-266 101z" />
    <glyph glyph-name="A" unicode="A" horiz-adv-x="1353" 
d="M154 0h-125l641 1464h14l641 -1464h-125l-199 461h-649zM383 559v-2q36 4 115 4h356q79 0 115 -4l2 2q-31 45 -62 119l-174 412q-50 123 -55 176h-8q-6 -56 -54 -176l-174 -412q-32 -77 -61 -119z" />
    <glyph glyph-name="B" unicode="B" horiz-adv-x="1271" 
d="M688 0h-518v1434h498q185 0 291 -93t106 -256q0 -207 -180 -290q-65 -24 -129 -31v-8q60 0 131 -15q132 -32 201 -121.5t69 -226.5q0 -185 -124 -289t-345 -104zM276 801l3 -2q10 4 53 4h276q161 0 249.5 72.5t88.5 203.5q0 120 -74 184t-213 64h-327q-43 0 -53 4l-3 -2
q7 -21 7 -49v-430q0 -28 -7 -49zM276 104l3 -2q10 4 53 4h348q356 0 356 291q0 149 -97.5 226t-287.5 77h-319q-41 0 -53 7l-3 -5q7 -18 7 -49v-499q0 -29 -7 -50z" />
    <glyph glyph-name="C" unicode="C" horiz-adv-x="1429" 
d="M850 -31q-342 0 -552 206.5t-210 541.5t210 541t552 206q274 0 498 -164l-70 -96q-105 77 -207 112.5t-223 35.5q-284 0 -461.5 -176.5t-177.5 -458.5t177.5 -458.5t461.5 -176.5q121 0 223 35t207 112l70 -96q-224 -164 -498 -164z" />
    <glyph glyph-name="D" unicode="D" horiz-adv-x="1415" 
d="M170 1434h434q216 0 380.5 -89t254.5 -252t90 -376t-90 -376t-254.5 -252t-380.5 -89h-434v1434zM279 1331l-3 -2q7 -21 7 -49v-1126q0 -29 -7 -50l3 -2q10 4 53 4h272q275 0 439.5 166.5t164.5 444.5t-165 444t-439 166h-272q-43 0 -53 4z" />
    <glyph glyph-name="E" unicode="E" horiz-adv-x="1046" 
d="M170 1434h786v-107h-624q-41 0 -53 4l-3 -2q7 -21 7 -49v-389q0 -28 -7 -49l3 -2q12 4 53 4h559v-107h-559q-35 0 -53 6l-3 -2q7 -21 7 -51v-536q0 -29 -7 -50l3 -2q12 4 53 4h633v-106h-795v1434z" />
    <glyph glyph-name="F" unicode="F" horiz-adv-x="1038" 
d="M170 1434h795v-107h-633q-41 0 -53 4l-3 -2q7 -21 7 -49v-426q0 -30 -7 -51l3 -2q18 6 53 6h577v-109h-577q-32 0 -53 7l-3 -3q7 -21 7 -51v-651h-113v1434z" />
    <glyph glyph-name="G" unicode="G" horiz-adv-x="1644" 
d="M852 1464q150 0 279.5 -46.5t257.5 -141.5l-74 -98q-116 89 -228.5 131.5t-240.5 42.5q-279 0 -458 -181.5t-179 -461.5q0 -180 81 -323.5t227 -223.5t331 -80q124 0 227.5 37.5t171 97t115 135.5t68.5 150.5t22 144.5l-2 2q-32 -14 -139 -14h-463v106h723v-45
q0 -105 -27 -207t-85 -196.5t-141 -166t-205 -114.5t-267 -43q-219 0 -391.5 93t-269.5 262t-97 385q0 165 56 305t155.5 239t242 155t310.5 56z" />
    <glyph glyph-name="H" unicode="H" horiz-adv-x="1423" 
d="M1143 1434h112v-1434h-112v666q0 33 6 51l-4 2q-18 -6 -51 -6h-762q-35 0 -53 6l-3 -2q7 -21 7 -51v-666h-113v1434h113v-566q0 -32 -7 -49l3 -4q12 6 53 6h762q39 0 51 -6l4 4q-6 15 -6 49v566z" />
    <glyph glyph-name="I" unicode="I" horiz-adv-x="450" 
d="M170 1434h113v-1434h-113v1434z" />
    <glyph glyph-name="J" unicode="J" horiz-adv-x="559" 
d="M279 1434h112v-1143q0 -155 -63 -228t-197 -73q-14 0 -80 4v110q62 -4 70 -4q81 0 119.5 45t38.5 144v1145z" />
    <glyph glyph-name="K" unicode="K" horiz-adv-x="1187" 
d="M938 1434h160l-539 -531q-63 -64 -92.5 -91t-63.5 -48v-2q19 -11 37.5 -25.5t29.5 -25.5l40.5 -40.5t48.5 -47.5l619 -623h-164l-742 748l-2 -3q13 -99 13 -241v-504h-113v1434h113v-416q0 -146 -13 -242l2 -4z" />
    <glyph glyph-name="L" unicode="L" horiz-adv-x="1007" 
d="M170 1434h113v-1278q0 -31 -7 -52l3 -2q21 7 53 7h647v-109h-809v1434z" />
    <glyph glyph-name="M" unicode="M" horiz-adv-x="1755" 
d="M883 -27h-11l-362 967q-51 138 -64 231h-8q-3 -102 -39 -233l-245 -938h-117l383 1462h14l391 -1046q29 -79 49 -193h9q16 108 47 193l391 1046h14l383 -1462h-116l-246 938q-36 131 -39 233h-8q-12 -91 -62 -231z" />
    <glyph glyph-name="N" unicode="N" horiz-adv-x="1443" 
d="M170 1454h14l877 -1063q93 -119 113 -164l4 2q-17 111 -17 258v947h113v-1454h-14l-877 1062q-93 119 -113 164l-4 -2q17 -110 17 -258v-946h-113v1454z" />
    <glyph glyph-name="O" unicode="O" horiz-adv-x="1669" 
d="M836 1464q160 0 299 -56t237.5 -154.5t154.5 -237.5t56 -299q0 -214 -95.5 -385t-266.5 -267t-385 -96t-385 96t-267 267t-96 385t96 385t267 266.5t385 95.5zM836 1352q-275 0 -451 -178.5t-176 -456.5t176 -456.5t451 -178.5q180 0 323 81t223 226t80 328t-80 328
t-223 226t-323 81z" />
    <glyph glyph-name="P" unicode="P" horiz-adv-x="1075" 
d="M170 1434h440q191 0 305.5 -104.5t114.5 -280.5q0 -175 -113.5 -279t-302.5 -104h-282q-43 0 -53 6l-3 -4q7 -17 7 -50v-618h-113v1434zM279 1331l-3 -2q7 -21 7 -49v-459q0 -30 -7 -51l3 -2q10 4 53 4h278q140 0 220.5 74.5t80.5 202.5q0 129 -80 203.5t-221 74.5h-278
q-43 0 -53 4z" />
    <glyph glyph-name="Q" unicode="Q" horiz-adv-x="1667" 
d="M1552 -6h-716q-214 0 -384.5 94t-267 262.5t-96.5 380.5t95 379.5t265.5 260.5t385.5 93q217 0 387.5 -93t265 -259.5t94.5 -378.5q0 -257 -168 -446q-147 -166 -362 -219l2 -9q224 37 321 37h178v-102zM836 109q180 0 322.5 79t222 221t79.5 322q0 275 -173.5 448
t-452.5 173q-278 0 -451.5 -173.5t-173.5 -447.5q0 -181 80 -323t222.5 -220.5t324.5 -78.5z" />
    <glyph glyph-name="R" unicode="R" horiz-adv-x="1181" 
d="M170 1434h457q186 0 294.5 -99.5t108.5 -269.5q0 -166 -107.5 -265.5t-277.5 -99.5q-34 0 -67 11v-9q45 -28 88 -79l481 -623h-148l-536 696h-133q-41 0 -51 4l-3 -2q7 -21 7 -51v-647h-113v1434zM279 1331l-3 -2q7 -21 7 -49v-430q0 -28 -7 -49l3 -2q10 4 53 4h297
q134 0 208 69t74 193q0 122 -74 192t-208 70h-297q-43 0 -53 4z" />
    <glyph glyph-name="S" unicode="S" horiz-adv-x="1001" 
d="M518 1464q164 0 350 -86l-53 -108q-163 82 -295 82q-124 0 -192 -53.5t-68 -147.5q0 -70 42.5 -128t146.5 -132l217 -156q139 -98 198.5 -188t59.5 -207q0 -174 -117 -272.5t-318 -98.5q-119 0 -234 34.5t-208 94.5l57 105q189 -121 385 -121q147 0 231.5 68t84.5 184
q0 82 -48.5 151t-164.5 152l-225 164q-123 87 -174.5 166t-51.5 182q0 148 99.5 231.5t277.5 83.5z" />
    <glyph glyph-name="T" unicode="T" horiz-adv-x="1046" 
d="M20 1434h1006v-109h-397q-36 0 -54 6l-2 -2q7 -21 7 -51v-1278h-113v1278q0 33 6 51l-2 2q-21 -6 -53 -6h-398v109z" />
    <glyph glyph-name="U" unicode="U" horiz-adv-x="1390" 
d="M1116 1434h117v-912q0 -257 -144.5 -405t-394.5 -148q-249 0 -393.5 148.5t-144.5 404.5v912h118v-895q0 -213 112 -334t308 -121q197 0 309.5 121t112.5 334v895z" />
    <glyph glyph-name="V" unicode="V" horiz-adv-x="1234" 
d="M1087 1434h134l-596 -1463h-13l-596 1463h131l400 -1014q50 -130 67 -230h9q12 89 67 230z" />
    <glyph glyph-name="W" unicode="W" horiz-adv-x="1931" 
d="M956 1462h17l325 -960q52 -151 74 -271h8q19 117 70 267l313 936h131l-512 -1463h-12l-356 1030q-37 113 -45 187h-8q-5 -72 -43 -187l-357 -1030h-12l-512 1463h131l311 -936q52 -146 72 -267h8q22 120 74 271z" />
    <glyph glyph-name="X" unicode="X" horiz-adv-x="1208" 
d="M987 1434h139l-352 -533q-65 -100 -100 -143v-4q14 -16 29 -36t24.5 -34.5t37 -54.5t44.5 -66l371 -563h-142l-358 549q-60 98 -72 133h-8q-14 -44 -74 -133l-358 -549h-139l370 563q102 153 136 191v4q-21 26 -103 143l-352 533h141l291 -449q76 -116 88 -151h8
q11 33 86 151z" />
    <glyph glyph-name="Y" unicode="Y" horiz-adv-x="1110" 
d="M942 1434h141l-473 -883v-551h-112v551l-471 883h139l311 -609q39 -75 52.5 -108t23.5 -82h4q10 48 23 81.5t51 108.5z" />
    <glyph glyph-name="Z" unicode="Z" horiz-adv-x="1185" 
d="M174 1434h956l3 -4l-900 -1334l3 -4q43 21 180 21h731l-57 -113h-1053v6l903 1335l-2 5q-65 -25 -190 -25h-631z" />
    <glyph glyph-name="a" unicode="a" horiz-adv-x="1038" 
d="M520 977q195 0 287 -90t92 -279v-608h-102q0 80 12 186l-4 2q-46 -102 -144 -160.5t-223 -58.5q-165 0 -266.5 93.5t-101.5 244.5q0 154 101 245t271 91q124 0 222 -57t139 -152l6 4q-7 25 -8.5 50t-1.5 114q-1 139 -70.5 205.5t-210.5 66.5q-140 0 -317 -57l-31 103
q196 57 350 57zM461 547q-126 0 -202.5 -67t-76.5 -177q0 -107 76.5 -172t202.5 -65q134 0 225.5 69t91.5 170t-92 171.5t-225 70.5z" />
    <glyph glyph-name="b" unicode="b" horiz-adv-x="1230" 
d="M672 -31q-152 0 -261 73.5t-165 211.5l-8 -2q20 -82 20 -252h-102v1464h104v-518q0 -181 -16 -254l6 -4q53 140 161.5 214.5t260.5 74.5q211 0 343 -140t132 -364t-132 -364t-343 -140zM664 74q169 0 270.5 108.5t101.5 288.5q0 182 -104 291.5t-277 109.5
q-179 0 -291 -111t-112 -288q0 -178 114.5 -288.5t297.5 -110.5z" />
    <glyph glyph-name="c" unicode="c" horiz-adv-x="983" 
d="M594 -31q-227 0 -368.5 140t-141.5 364t141.5 364t368.5 140q175 0 321 -92l-51 -92q-134 81 -274 81q-172 0 -283.5 -113t-111.5 -288q0 -174 112 -287.5t283 -113.5q139 0 274 82l51 -93q-146 -92 -321 -92z" />
    <glyph glyph-name="d" unicode="d" horiz-adv-x="1230" 
d="M559 -31q-211 0 -343 140t-132 364t132 364t343 140q152 0 261.5 -75t160.5 -214l6 4q-16 73 -16 254v518h104v-1464h-102q0 158 20 252l-8 2q-56 -138 -165 -211.5t-261 -73.5zM569 74q182 0 296 110.5t114 288.5q0 177 -112.5 288t-291.5 111q-173 0 -276.5 -109.5
t-103.5 -291.5q0 -180 102.5 -288.5t271.5 -108.5z" />
    <glyph glyph-name="e" unicode="e" horiz-adv-x="1103" 
d="M567 977q207 0 329 -133t122 -359v-24h-742q-66 0 -86 10l-2 -2l5 -18q3 -175 106.5 -278t275.5 -103q108 0 190.5 44t160.5 144l73 -68q-162 -221 -426 -221q-223 0 -356 138t-133 368q0 229 131.5 365.5t351.5 136.5zM565 879q-159 0 -258.5 -91.5t-113.5 -250.5l2 -2
q25 14 84 14h534q55 0 92 -12l2 2q-12 162 -101.5 251t-240.5 89z" />
    <glyph glyph-name="f" unicode="f" horiz-adv-x="667" 
d="M575 1452h25v-98h-16q-110 0 -167 -59t-57 -201v-99q0 -33 -8 -57l2 -2q16 10 64 10h182v-96h-182q-44 0 -64 10l-2 -2q8 -20 8 -65v-793h-102v793q0 40 10 65l-4 2q-20 -10 -63 -10h-150v96h150q47 0 63 -10l4 2q-10 23 -10 55v101q0 97 25 168t69.5 111.5t100 59.5
t122.5 19z" />
    <glyph glyph-name="g" unicode="g" horiz-adv-x="1212" 
d="M561 977q150 0 258.5 -74.5t161.5 -212.5l6 4q-16 78 -16 252h102v-936q0 -221 -127.5 -335.5t-374.5 -114.5q-235 0 -415 108l53 94q98 -54 184 -77t185 -23q193 0 294 89.5t101 262.5v52q0 113 18 186l-8 2q-59 -139 -166 -212t-254 -73q-214 0 -346.5 139t-132.5 365
q0 225 132 364.5t345 139.5zM578 872q-175 0 -279 -109t-104 -292q0 -182 103 -289.5t275 -107.5q179 0 292.5 111t113.5 288q0 175 -112 287t-289 112z" />
    <glyph glyph-name="h" unicode="h" horiz-adv-x="1130" 
d="M156 1464h104v-561q0 -160 -16 -248l8 -4q83 326 381 326q173 0 266.5 -104.5t93.5 -299.5v-573h-104v561q0 149 -72.5 232.5t-202.5 83.5q-166 0 -260 -120.5t-94 -332.5v-424h-104v1464z" />
    <glyph glyph-name="i" unicode="i" 
d="M147 1434h121v-267h-121v267zM156 946h104v-946h-104v946z" />
    <glyph glyph-name="j" unicode="j" 
d="M147 1434h121v-267h-121v267zM156 946h104v-1087q0 -299 -285 -299h-18v104h20q88 0 133.5 46.5t45.5 148.5v1087z" />
    <glyph glyph-name="k" unicode="k" horiz-adv-x="925" 
d="M156 1464h104v-708q0 -135 -16 -226l4 -4l442 420h156l-387 -348q-73 -70 -105 -84l4 -2q41 -23 109 -86l444 -426h-151l-512 498l-4 -4q16 -91 16 -228v-266h-104v1464z" />
    <glyph glyph-name="l" unicode="l" 
d="M156 1464h104v-1464h-104v1464z" />
    <glyph glyph-name="m" unicode="m" horiz-adv-x="1669" 
d="M252 0h-102v946h102q0 -168 -19 -252l9 -2q32 141 116 213t213 72q127 0 203 -68.5t98 -201.5h9q22 127 108.5 198.5t220.5 71.5q154 0 238 -98t84 -279v-600h-105v580q0 146 -62.5 221.5t-184.5 75.5q-141 0 -215 -98.5t-74 -286.5v-492h-103v580q0 146 -62.5 221.5
t-184.5 75.5q-140 0 -214.5 -99t-74.5 -286v-492z" />
    <glyph glyph-name="n" unicode="n" horiz-adv-x="1122" 
d="M623 977q176 0 269 -104t93 -300v-573h-104v561q0 150 -72 233t-203 83q-166 0 -260 -120.5t-94 -332.5v-424h-102v946h102q0 -201 -19 -301l9 -4q85 336 381 336z" />
    <glyph glyph-name="o" unicode="o" horiz-adv-x="1183" 
d="M592 977q223 0 365.5 -141.5t142.5 -362.5q0 -220 -143 -362t-365 -142q-221 0 -364.5 142t-143.5 362q0 221 143 362.5t365 141.5zM592 874q-174 0 -285.5 -112t-111.5 -289q0 -175 112 -288t285 -113t285 113t112 288q0 177 -111.5 289t-285.5 112z" />
    <glyph glyph-name="p" unicode="p" horiz-adv-x="1222" 
d="M664 977q211 0 343 -140t132 -364t-132 -364t-343 -140q-151 0 -259.5 73.5t-164.5 211.5l-9 -2q21 -86 21 -201v-461h-102v1356h100q0 -183 -14 -260l6 -2q53 140 162.5 216.5t259.5 76.5zM649 872q-180 0 -292.5 -111t-112.5 -288q0 -178 114 -288.5t297 -110.5
q169 0 271 108.5t102 288.5q0 182 -103.5 291.5t-275.5 109.5z" />
    <glyph glyph-name="q" unicode="q" horiz-adv-x="1224" 
d="M559 977q151 0 260 -76.5t162 -216.5l6 2q-14 77 -14 260h102v-1356h-104v461q0 123 22 201l-8 2q-57 -139 -165.5 -212t-260.5 -73q-211 0 -343 140t-132 364t132 364t343 140zM575 872q-173 0 -276.5 -109.5t-103.5 -291.5q0 -180 102.5 -288.5t271.5 -108.5
q182 0 296 110.5t114 288.5q0 177 -112.5 288t-291.5 111z" />
    <glyph glyph-name="r" unicode="r" horiz-adv-x="665" 
d="M563 977q29 0 72 -6v-119q-58 8 -80 8q-145 0 -224 -127.5t-79 -359.5v-373h-102v946h102q0 -215 -21 -325l11 -5q32 183 111.5 272t209.5 89z" />
    <glyph glyph-name="s" unicode="s" horiz-adv-x="849" 
d="M444 -31q-218 0 -395 121l53 90q159 -110 347 -110q106 0 165.5 41t59.5 114q0 52 -37 92.5t-117 75.5l-178 82q-109 51 -160 113.5t-51 146.5q0 114 83 178t232 64q165 0 314 -76l-47 -94q-143 70 -267 70q-98 0 -151 -36.5t-53 -101.5q0 -54 36 -94t121 -78l170 -78
q115 -53 165 -114t50 -150q0 -120 -89.5 -188t-250.5 -68z" />
    <glyph glyph-name="t" unicode="t" horiz-adv-x="620" 
d="M354 1452h6v-446q0 -39 -10 -68l4 -2q16 10 64 10h143v-96h-143q-44 0 -64 10l-4 -2q10 -25 10 -65v-793h-102v793q0 45 8 65l-2 2q-20 -10 -63 -10h-142v96h142q47 0 63 -10l2 2q-8 23 -8 68v362z" />
    <glyph glyph-name="u" unicode="u" horiz-adv-x="1077" 
d="M834 946h104v-946h-102q0 202 18 291l-8 4q-40 -165 -131 -245.5t-238 -80.5q-168 0 -258 107t-90 305v565h109v-557q0 -152 69.5 -235.5t196.5 -83.5q154 0 242 120.5t88 331.5v424z" />
    <glyph glyph-name="v" unicode="v" horiz-adv-x="956" 
d="M809 946h127l-447 -964h-22l-447 964h127l254 -575q4 -10 18 -43t17 -40t12 -30.5t12 -34.5t8 -29.5t9 -37.5h4q2 12 4.5 23t4.5 19.5t5.5 20t5.5 18t7.5 20t7 18.5t8.5 21.5t9.5 21.5t11.5 25.5t12 27.5z" />
    <glyph glyph-name="w" unicode="w" horiz-adv-x="1449" 
d="M420 -18h-19l-381 964h121l219 -586q41 -108 48 -184h8q9 69 55 184l244 605h18l244 -605q48 -112 57 -184h8q4 69 48 184l217 586h123l-383 -964h-19l-254 622q-24 57 -32 88.5t-13 79.5h-8q-8 -76 -45 -168z" />
    <glyph glyph-name="x" unicode="x" horiz-adv-x="940" 
d="M147 0h-127l330 432q39 50 53 62v6q-20 16 -59 67l-287 379h125l224 -289q43 -55 61 -108h6q15 44 62 108l223 289h125l-287 -379q-39 -51 -59 -67v-6q14 -12 53 -62l330 -432h-127l-258 334q-46 58 -62 104h-6q-16 -46 -59 -104z" />
    <glyph glyph-name="y" unicode="y" horiz-adv-x="950" 
d="M817 946h113l-596 -1356h-109l209 480l-414 876h121l275 -602q35 -76 48 -114.5t19 -86.5h9q7 75 63 199z" />
    <glyph glyph-name="z" unicode="z" horiz-adv-x="921" 
d="M817 0h-786l-4 10l680 852l-5 4q-36 -16 -73 -20t-131 -4h-420l63 104h744l4 -8l-676 -852l4 -4q34 15 66 18.5t112 3.5h492z" />
    <glyph glyph-name="ordfeminine" unicode="&#xaa;" horiz-adv-x="1038" 
d="M520 977q195 0 287 -90t92 -279v-608h-102q0 80 12 186l-4 2q-46 -102 -144 -160.5t-223 -58.5q-165 0 -266.5 93.5t-101.5 244.5q0 154 101 245t271 91q124 0 222 -57t139 -152l6 4q-7 25 -8.5 50t-1.5 114q-1 139 -70.5 205.5t-210.5 66.5q-140 0 -317 -57l-31 103
q196 57 350 57zM461 547q-126 0 -202.5 -67t-76.5 -177q0 -107 76.5 -172t202.5 -65q134 0 225.5 69t91.5 170t-92 171.5t-225 70.5z" />
    <glyph glyph-name="ordmasculine" unicode="&#xba;" horiz-adv-x="1183" 
d="M592 977q223 0 365.5 -141.5t142.5 -362.5q0 -220 -143 -362t-365 -142q-221 0 -364.5 142t-143.5 362q0 221 143 362.5t365 141.5zM592 874q-174 0 -285.5 -112t-111.5 -289q0 -175 112 -288t285 -113t285 113t112 288q0 177 -111.5 289t-285.5 112z" />
    <glyph glyph-name="Agrave" unicode="&#xc0;" horiz-adv-x="1353" 
d="M154 0h-125l641 1464h14l641 -1464h-125l-199 461h-649zM383 559v-2q36 4 115 4h356q79 0 115 -4l2 2q-31 45 -62 119l-174 412q-50 123 -55 176h-8q-6 -56 -54 -176l-174 -412q-32 -77 -61 -119z" />
    <glyph glyph-name="Aacute" unicode="&#xc1;" horiz-adv-x="1353" 
d="M154 0h-125l641 1464h14l641 -1464h-125l-199 461h-649zM383 559v-2q36 4 115 4h356q79 0 115 -4l2 2q-31 45 -62 119l-174 412q-50 123 -55 176h-8q-6 -56 -54 -176l-174 -412q-32 -77 -61 -119z" />
    <glyph glyph-name="Acircumflex" unicode="&#xc2;" horiz-adv-x="1353" 
d="M154 0h-125l641 1464h14l641 -1464h-125l-199 461h-649zM383 559v-2q36 4 115 4h356q79 0 115 -4l2 2q-31 45 -62 119l-174 412q-50 123 -55 176h-8q-6 -56 -54 -176l-174 -412q-32 -77 -61 -119z" />
    <glyph glyph-name="Atilde" unicode="&#xc3;" horiz-adv-x="1353" 
d="M154 0h-125l641 1464h14l641 -1464h-125l-199 461h-649zM383 559v-2q36 4 115 4h356q79 0 115 -4l2 2q-31 45 -62 119l-174 412q-50 123 -55 176h-8q-6 -56 -54 -176l-174 -412q-32 -77 -61 -119z" />
    <glyph glyph-name="Adieresis" unicode="&#xc4;" horiz-adv-x="1353" 
d="M154 0h-125l641 1464h14l641 -1464h-125l-199 461h-649zM383 559v-2q36 4 115 4h356q79 0 115 -4l2 2q-31 45 -62 119l-174 412q-50 123 -55 176h-8q-6 -56 -54 -176l-174 -412q-32 -77 -61 -119z" />
    <glyph glyph-name="Aring" unicode="&#xc5;" horiz-adv-x="1353" 
d="M154 0h-125l641 1464h14l641 -1464h-125l-199 461h-649zM383 559v-2q36 4 115 4h356q79 0 115 -4l2 2q-31 45 -62 119l-174 412q-50 123 -55 176h-8q-6 -56 -54 -176l-174 -412q-32 -77 -61 -119z" />
    <glyph glyph-name="AE" unicode="&#xc6;" horiz-adv-x="2400" 
d="M154 0h-125l641 1464h14l641 -1464h-125l-199 461h-649zM1524 1434h786v-107h-624q-42 0 -54 4l-2 -2q6 -18 6 -49v-389q0 -31 -6 -49l2 -2q12 4 54 4h559v-107h-559q-36 0 -54 6l-2 -2q6 -18 6 -51v-536q0 -32 -6 -50l2 -2q12 4 54 4h632v-106h-794v1434zM383 559v-2
q36 4 115 4h356q79 0 115 -4l2 2q-31 45 -62 119l-174 412q-50 123 -55 176h-8q-6 -56 -54 -176l-174 -412q-32 -77 -61 -119z" />
    <glyph glyph-name="Ccedilla" unicode="&#xc7;" horiz-adv-x="1429" 
d="M850 -31q-342 0 -552 206.5t-210 541.5t210 541t552 206q274 0 498 -164l-70 -96q-105 77 -207 112.5t-223 35.5q-284 0 -461.5 -176.5t-177.5 -458.5t177.5 -458.5t461.5 -176.5q121 0 223 35t207 112l70 -96q-224 -164 -498 -164z" />
    <glyph glyph-name="Egrave" unicode="&#xc8;" horiz-adv-x="1046" 
d="M170 1434h786v-107h-624q-41 0 -53 4l-3 -2q7 -21 7 -49v-389q0 -28 -7 -49l3 -2q12 4 53 4h559v-107h-559q-35 0 -53 6l-3 -2q7 -21 7 -51v-536q0 -29 -7 -50l3 -2q12 4 53 4h633v-106h-795v1434z" />
    <glyph glyph-name="Eacute" unicode="&#xc9;" horiz-adv-x="1046" 
d="M170 1434h786v-107h-624q-41 0 -53 4l-3 -2q7 -21 7 -49v-389q0 -28 -7 -49l3 -2q12 4 53 4h559v-107h-559q-35 0 -53 6l-3 -2q7 -21 7 -51v-536q0 -29 -7 -50l3 -2q12 4 53 4h633v-106h-795v1434z" />
    <glyph glyph-name="Ecircumflex" unicode="&#xca;" horiz-adv-x="1046" 
d="M170 1434h786v-107h-624q-41 0 -53 4l-3 -2q7 -21 7 -49v-389q0 -28 -7 -49l3 -2q12 4 53 4h559v-107h-559q-35 0 -53 6l-3 -2q7 -21 7 -51v-536q0 -29 -7 -50l3 -2q12 4 53 4h633v-106h-795v1434z" />
    <glyph glyph-name="Edieresis" unicode="&#xcb;" horiz-adv-x="1046" 
d="M170 1434h786v-107h-624q-41 0 -53 4l-3 -2q7 -21 7 -49v-389q0 -28 -7 -49l3 -2q12 4 53 4h559v-107h-559q-35 0 -53 6l-3 -2q7 -21 7 -51v-536q0 -29 -7 -50l3 -2q12 4 53 4h633v-106h-795v1434z" />
    <glyph glyph-name="Igrave" unicode="&#xcc;" horiz-adv-x="450" 
d="M170 1434h113v-1434h-113v1434z" />
    <glyph glyph-name="Iacute" unicode="&#xcd;" horiz-adv-x="450" 
d="M170 1434h113v-1434h-113v1434z" />
    <glyph glyph-name="Icircumflex" unicode="&#xce;" horiz-adv-x="450" 
d="M170 1434h113v-1434h-113v1434z" />
    <glyph glyph-name="Idieresis" unicode="&#xcf;" horiz-adv-x="450" 
d="M170 1434h113v-1434h-113v1434z" />
    <glyph glyph-name="Eth" unicode="&#xd0;" horiz-adv-x="1415" 
d="M170 1434h434q216 0 380.5 -89t254.5 -252t90 -376t-90 -376t-254.5 -252t-380.5 -89h-434v1434zM279 1331l-3 -2q7 -21 7 -49v-1126q0 -29 -7 -50l3 -2q10 4 53 4h272q275 0 439.5 166.5t164.5 444.5t-165 444t-439 166h-272q-43 0 -53 4z" />
    <glyph glyph-name="Ntilde" unicode="&#xd1;" horiz-adv-x="1443" 
d="M170 1454h14l877 -1063q93 -119 113 -164l4 2q-17 111 -17 258v947h113v-1454h-14l-877 1062q-93 119 -113 164l-4 -2q17 -110 17 -258v-946h-113v1454z" />
    <glyph glyph-name="Ograve" unicode="&#xd2;" horiz-adv-x="1669" 
d="M836 1464q160 0 299 -56t237.5 -154.5t154.5 -237.5t56 -299q0 -214 -95.5 -385t-266.5 -267t-385 -96t-385 96t-267 267t-96 385t96 385t267 266.5t385 95.5zM836 1352q-275 0 -451 -178.5t-176 -456.5t176 -456.5t451 -178.5q180 0 323 81t223 226t80 328t-80 328
t-223 226t-323 81z" />
    <glyph glyph-name="Oacute" unicode="&#xd3;" horiz-adv-x="1669" 
d="M836 1464q160 0 299 -56t237.5 -154.5t154.5 -237.5t56 -299q0 -214 -95.5 -385t-266.5 -267t-385 -96t-385 96t-267 267t-96 385t96 385t267 266.5t385 95.5zM836 1352q-275 0 -451 -178.5t-176 -456.5t176 -456.5t451 -178.5q180 0 323 81t223 226t80 328t-80 328
t-223 226t-323 81z" />
    <glyph glyph-name="Ocircumflex" unicode="&#xd4;" horiz-adv-x="1669" 
d="M836 1464q160 0 299 -56t237.5 -154.5t154.5 -237.5t56 -299q0 -214 -95.5 -385t-266.5 -267t-385 -96t-385 96t-267 267t-96 385t96 385t267 266.5t385 95.5zM836 1352q-275 0 -451 -178.5t-176 -456.5t176 -456.5t451 -178.5q180 0 323 81t223 226t80 328t-80 328
t-223 226t-323 81z" />
    <glyph glyph-name="Otilde" unicode="&#xd5;" horiz-adv-x="1669" 
d="M836 1464q160 0 299 -56t237.5 -154.5t154.5 -237.5t56 -299q0 -214 -95.5 -385t-266.5 -267t-385 -96t-385 96t-267 267t-96 385t96 385t267 266.5t385 95.5zM836 1352q-275 0 -451 -178.5t-176 -456.5t176 -456.5t451 -178.5q180 0 323 81t223 226t80 328t-80 328
t-223 226t-323 81z" />
    <glyph glyph-name="Odieresis" unicode="&#xd6;" horiz-adv-x="1669" 
d="M836 1464q160 0 299 -56t237.5 -154.5t154.5 -237.5t56 -299q0 -214 -95.5 -385t-266.5 -267t-385 -96t-385 96t-267 267t-96 385t96 385t267 266.5t385 95.5zM836 1352q-275 0 -451 -178.5t-176 -456.5t176 -456.5t451 -178.5q180 0 323 81t223 226t80 328t-80 328
t-223 226t-323 81z" />
    <glyph glyph-name="Oslash" unicode="&#xd8;" horiz-adv-x="1669" 
d="M836 1464q160 0 299 -56t237.5 -154.5t154.5 -237.5t56 -299q0 -214 -95.5 -385t-266.5 -267t-385 -96t-385 96t-267 267t-96 385t96 385t267 266.5t385 95.5zM836 1352q-275 0 -451 -178.5t-176 -456.5t176 -456.5t451 -178.5q180 0 323 81t223 226t80 328t-80 328
t-223 226t-323 81z" />
    <glyph glyph-name="Ugrave" unicode="&#xd9;" horiz-adv-x="1390" 
d="M1116 1434h117v-912q0 -257 -144.5 -405t-394.5 -148q-249 0 -393.5 148.5t-144.5 404.5v912h118v-895q0 -213 112 -334t308 -121q197 0 309.5 121t112.5 334v895z" />
    <glyph glyph-name="Uacute" unicode="&#xda;" horiz-adv-x="1390" 
d="M1116 1434h117v-912q0 -257 -144.5 -405t-394.5 -148q-249 0 -393.5 148.5t-144.5 404.5v912h118v-895q0 -213 112 -334t308 -121q197 0 309.5 121t112.5 334v895z" />
    <glyph glyph-name="Ucircumflex" unicode="&#xdb;" horiz-adv-x="1390" 
d="M1116 1434h117v-912q0 -257 -144.5 -405t-394.5 -148q-249 0 -393.5 148.5t-144.5 404.5v912h118v-895q0 -213 112 -334t308 -121q197 0 309.5 121t112.5 334v895z" />
    <glyph glyph-name="Udieresis" unicode="&#xdc;" horiz-adv-x="1390" 
d="M1116 1434h117v-912q0 -257 -144.5 -405t-394.5 -148q-249 0 -393.5 148.5t-144.5 404.5v912h118v-895q0 -213 112 -334t308 -121q197 0 309.5 121t112.5 334v895z" />
    <glyph glyph-name="Yacute" unicode="&#xdd;" horiz-adv-x="1110" 
d="M942 1434h141l-473 -883v-551h-112v551l-471 883h139l311 -609q39 -75 52.5 -108t23.5 -82h4q10 48 23 81.5t51 108.5z" />
    <glyph glyph-name="Thorn" unicode="&#xde;" horiz-adv-x="1075" 
d="M170 1434h440q191 0 305.5 -104.5t114.5 -280.5q0 -175 -113.5 -279t-302.5 -104h-282q-43 0 -53 6l-3 -4q7 -17 7 -50v-618h-113v1434zM279 1331l-3 -2q7 -21 7 -49v-459q0 -30 -7 -51l3 -2q10 4 53 4h278q140 0 220.5 74.5t80.5 202.5q0 129 -80 203.5t-221 74.5h-278
q-43 0 -53 4z" />
    <glyph glyph-name="agrave" unicode="&#xe0;" horiz-adv-x="1038" 
d="M520 977q195 0 287 -90t92 -279v-608h-102q0 80 12 186l-4 2q-46 -102 -144 -160.5t-223 -58.5q-165 0 -266.5 93.5t-101.5 244.5q0 154 101 245t271 91q124 0 222 -57t139 -152l6 4q-7 25 -8.5 50t-1.5 114q-1 139 -70.5 205.5t-210.5 66.5q-140 0 -317 -57l-31 103
q196 57 350 57zM461 547q-126 0 -202.5 -67t-76.5 -177q0 -107 76.5 -172t202.5 -65q134 0 225.5 69t91.5 170t-92 171.5t-225 70.5z" />
    <glyph glyph-name="aacute" unicode="&#xe1;" horiz-adv-x="1038" 
d="M520 977q195 0 287 -90t92 -279v-608h-102q0 80 12 186l-4 2q-46 -102 -144 -160.5t-223 -58.5q-165 0 -266.5 93.5t-101.5 244.5q0 154 101 245t271 91q124 0 222 -57t139 -152l6 4q-7 25 -8.5 50t-1.5 114q-1 139 -70.5 205.5t-210.5 66.5q-140 0 -317 -57l-31 103
q196 57 350 57zM461 547q-126 0 -202.5 -67t-76.5 -177q0 -107 76.5 -172t202.5 -65q134 0 225.5 69t91.5 170t-92 171.5t-225 70.5z" />
    <glyph glyph-name="acircumflex" unicode="&#xe2;" horiz-adv-x="1038" 
d="M520 977q195 0 287 -90t92 -279v-608h-102q0 80 12 186l-4 2q-46 -102 -144 -160.5t-223 -58.5q-165 0 -266.5 93.5t-101.5 244.5q0 154 101 245t271 91q124 0 222 -57t139 -152l6 4q-7 25 -8.5 50t-1.5 114q-1 139 -70.5 205.5t-210.5 66.5q-140 0 -317 -57l-31 103
q196 57 350 57zM461 547q-126 0 -202.5 -67t-76.5 -177q0 -107 76.5 -172t202.5 -65q134 0 225.5 69t91.5 170t-92 171.5t-225 70.5z" />
    <glyph glyph-name="atilde" unicode="&#xe3;" horiz-adv-x="1038" 
d="M520 977q195 0 287 -90t92 -279v-608h-102q0 80 12 186l-4 2q-46 -102 -144 -160.5t-223 -58.5q-165 0 -266.5 93.5t-101.5 244.5q0 154 101 245t271 91q124 0 222 -57t139 -152l6 4q-7 25 -8.5 50t-1.5 114q-1 139 -70.5 205.5t-210.5 66.5q-140 0 -317 -57l-31 103
q196 57 350 57zM461 547q-126 0 -202.5 -67t-76.5 -177q0 -107 76.5 -172t202.5 -65q134 0 225.5 69t91.5 170t-92 171.5t-225 70.5z" />
    <glyph glyph-name="adieresis" unicode="&#xe4;" horiz-adv-x="1038" 
d="M520 977q195 0 287 -90t92 -279v-608h-102q0 80 12 186l-4 2q-46 -102 -144 -160.5t-223 -58.5q-165 0 -266.5 93.5t-101.5 244.5q0 154 101 245t271 91q124 0 222 -57t139 -152l6 4q-7 25 -8.5 50t-1.5 114q-1 139 -70.5 205.5t-210.5 66.5q-140 0 -317 -57l-31 103
q196 57 350 57zM461 547q-126 0 -202.5 -67t-76.5 -177q0 -107 76.5 -172t202.5 -65q134 0 225.5 69t91.5 170t-92 171.5t-225 70.5z" />
    <glyph glyph-name="aring" unicode="&#xe5;" horiz-adv-x="1038" 
d="M520 977q195 0 287 -90t92 -279v-608h-102q0 80 12 186l-4 2q-46 -102 -144 -160.5t-223 -58.5q-165 0 -266.5 93.5t-101.5 244.5q0 154 101 245t271 91q124 0 222 -57t139 -152l6 4q-7 25 -8.5 50t-1.5 114q-1 139 -70.5 205.5t-210.5 66.5q-140 0 -317 -57l-31 103
q196 57 350 57zM461 547q-126 0 -202.5 -67t-76.5 -177q0 -107 76.5 -172t202.5 -65q134 0 225.5 69t91.5 170t-92 171.5t-225 70.5z" />
    <glyph glyph-name="ae" unicode="&#xe6;" horiz-adv-x="2142" 
d="M520 977q195 0 287 -90t92 -279v-608h-102q0 80 12 186l-4 2q-46 -102 -144 -160.5t-223 -58.5q-165 0 -266.5 93.5t-101.5 244.5q0 154 101 245t271 91q124 0 222 -57t139 -152l6 4q-7 25 -8.5 50t-1.5 114q-1 139 -70.5 205.5t-210.5 66.5q-140 0 -317 -57l-31 103
q196 57 350 57zM1606 977q207 0 328.5 -133t121.5 -359v-24h-741q-66 0 -86 10l-2 -2l4 -18q3 -175 107 -278t276 -103q107 0 189.5 44t160.5 144l74 -68q-162 -221 -426 -221q-223 0 -356.5 138t-133.5 368q0 229 132 365.5t352 136.5zM1604 879q-160 0 -259.5 -92
t-113.5 -250l2 -2q25 14 84 14h534q55 0 93 -12l2 2q-12 162 -101.5 251t-240.5 89zM461 547q-126 0 -202.5 -67t-76.5 -177q0 -107 76.5 -172t202.5 -65q134 0 225.5 69t91.5 170t-92 171.5t-225 70.5z" />
    <glyph glyph-name="ccedilla" unicode="&#xe7;" horiz-adv-x="983" 
d="M594 -31q-227 0 -368.5 140t-141.5 364t141.5 364t368.5 140q175 0 321 -92l-51 -92q-134 81 -274 81q-172 0 -283.5 -113t-111.5 -288q0 -174 112 -287.5t283 -113.5q139 0 274 82l51 -93q-146 -92 -321 -92z" />
    <glyph glyph-name="egrave" unicode="&#xe8;" horiz-adv-x="1103" 
d="M567 977q207 0 329 -133t122 -359v-24h-742q-66 0 -86 10l-2 -2l5 -18q3 -175 106.5 -278t275.5 -103q108 0 190.5 44t160.5 144l73 -68q-162 -221 -426 -221q-223 0 -356 138t-133 368q0 229 131.5 365.5t351.5 136.5zM565 879q-159 0 -258.5 -91.5t-113.5 -250.5l2 -2
q25 14 84 14h534q55 0 92 -12l2 2q-12 162 -101.5 251t-240.5 89z" />
    <glyph glyph-name="eacute" unicode="&#xe9;" horiz-adv-x="1103" 
d="M567 977q207 0 329 -133t122 -359v-24h-742q-66 0 -86 10l-2 -2l5 -18q3 -175 106.5 -278t275.5 -103q108 0 190.5 44t160.5 144l73 -68q-162 -221 -426 -221q-223 0 -356 138t-133 368q0 229 131.5 365.5t351.5 136.5zM565 879q-159 0 -258.5 -91.5t-113.5 -250.5l2 -2
q25 14 84 14h534q55 0 92 -12l2 2q-12 162 -101.5 251t-240.5 89z" />
    <glyph glyph-name="ecircumflex" unicode="&#xea;" horiz-adv-x="1103" 
d="M567 977q207 0 329 -133t122 -359v-24h-742q-66 0 -86 10l-2 -2l5 -18q3 -175 106.5 -278t275.5 -103q108 0 190.5 44t160.5 144l73 -68q-162 -221 -426 -221q-223 0 -356 138t-133 368q0 229 131.5 365.5t351.5 136.5zM565 879q-159 0 -258.5 -91.5t-113.5 -250.5l2 -2
q25 14 84 14h534q55 0 92 -12l2 2q-12 162 -101.5 251t-240.5 89z" />
    <glyph glyph-name="edieresis" unicode="&#xeb;" horiz-adv-x="1103" 
d="M567 977q207 0 329 -133t122 -359v-24h-742q-66 0 -86 10l-2 -2l5 -18q3 -175 106.5 -278t275.5 -103q108 0 190.5 44t160.5 144l73 -68q-162 -221 -426 -221q-223 0 -356 138t-133 368q0 229 131.5 365.5t351.5 136.5zM565 879q-159 0 -258.5 -91.5t-113.5 -250.5l2 -2
q25 14 84 14h534q55 0 92 -12l2 2q-12 162 -101.5 251t-240.5 89z" />
    <glyph glyph-name="igrave" unicode="&#xec;" 
d="M147 1434h121v-267h-121v267zM156 946h104v-946h-104v946z" />
    <glyph glyph-name="iacute" unicode="&#xed;" 
d="M147 1434h121v-267h-121v267zM156 946h104v-946h-104v946z" />
    <glyph glyph-name="icircumflex" unicode="&#xee;" 
d="M147 1434h121v-267h-121v267zM156 946h104v-946h-104v946z" />
    <glyph glyph-name="idieresis" unicode="&#xef;" 
d="M147 1434h121v-267h-121v267zM156 946h104v-946h-104v946z" />
    <glyph glyph-name="ntilde" unicode="&#xf1;" horiz-adv-x="1122" 
d="M623 977q176 0 269 -104t93 -300v-573h-104v561q0 150 -72 233t-203 83q-166 0 -260 -120.5t-94 -332.5v-424h-102v946h102q0 -201 -19 -301l9 -4q85 336 381 336z" />
    <glyph glyph-name="ograve" unicode="&#xf2;" horiz-adv-x="1183" 
d="M592 977q223 0 365.5 -141.5t142.5 -362.5q0 -220 -143 -362t-365 -142q-221 0 -364.5 142t-143.5 362q0 221 143 362.5t365 141.5zM592 874q-174 0 -285.5 -112t-111.5 -289q0 -175 112 -288t285 -113t285 113t112 288q0 177 -111.5 289t-285.5 112z" />
    <glyph glyph-name="oacute" unicode="&#xf3;" horiz-adv-x="1183" 
d="M592 977q223 0 365.5 -141.5t142.5 -362.5q0 -220 -143 -362t-365 -142q-221 0 -364.5 142t-143.5 362q0 221 143 362.5t365 141.5zM592 874q-174 0 -285.5 -112t-111.5 -289q0 -175 112 -288t285 -113t285 113t112 288q0 177 -111.5 289t-285.5 112z" />
    <glyph glyph-name="ocircumflex" unicode="&#xf4;" horiz-adv-x="1183" 
d="M592 977q223 0 365.5 -141.5t142.5 -362.5q0 -220 -143 -362t-365 -142q-221 0 -364.5 142t-143.5 362q0 221 143 362.5t365 141.5zM592 874q-174 0 -285.5 -112t-111.5 -289q0 -175 112 -288t285 -113t285 113t112 288q0 177 -111.5 289t-285.5 112z" />
    <glyph glyph-name="otilde" unicode="&#xf5;" horiz-adv-x="1183" 
d="M592 977q223 0 365.5 -141.5t142.5 -362.5q0 -220 -143 -362t-365 -142q-221 0 -364.5 142t-143.5 362q0 221 143 362.5t365 141.5zM592 874q-174 0 -285.5 -112t-111.5 -289q0 -175 112 -288t285 -113t285 113t112 288q0 177 -111.5 289t-285.5 112z" />
    <glyph glyph-name="odieresis" unicode="&#xf6;" horiz-adv-x="1183" 
d="M592 977q223 0 365.5 -141.5t142.5 -362.5q0 -220 -143 -362t-365 -142q-221 0 -364.5 142t-143.5 362q0 221 143 362.5t365 141.5zM592 874q-174 0 -285.5 -112t-111.5 -289q0 -175 112 -288t285 -113t285 113t112 288q0 177 -111.5 289t-285.5 112z" />
    <glyph glyph-name="oslash" unicode="&#xf8;" horiz-adv-x="1183" 
d="M592 977q223 0 365.5 -141.5t142.5 -362.5q0 -220 -143 -362t-365 -142q-221 0 -364.5 142t-143.5 362q0 221 143 362.5t365 141.5zM592 874q-174 0 -285.5 -112t-111.5 -289q0 -175 112 -288t285 -113t285 113t112 288q0 177 -111.5 289t-285.5 112z" />
    <glyph glyph-name="ugrave" unicode="&#xf9;" horiz-adv-x="1077" 
d="M834 946h104v-946h-102q0 202 18 291l-8 4q-40 -165 -131 -245.5t-238 -80.5q-168 0 -258 107t-90 305v565h109v-557q0 -152 69.5 -235.5t196.5 -83.5q154 0 242 120.5t88 331.5v424z" />
    <glyph glyph-name="uacute" unicode="&#xfa;" horiz-adv-x="1077" 
d="M834 946h104v-946h-102q0 202 18 291l-8 4q-40 -165 -131 -245.5t-238 -80.5q-168 0 -258 107t-90 305v565h109v-557q0 -152 69.5 -235.5t196.5 -83.5q154 0 242 120.5t88 331.5v424z" />
    <glyph glyph-name="ucircumflex" unicode="&#xfb;" horiz-adv-x="1077" 
d="M834 946h104v-946h-102q0 202 18 291l-8 4q-40 -165 -131 -245.5t-238 -80.5q-168 0 -258 107t-90 305v565h109v-557q0 -152 69.5 -235.5t196.5 -83.5q154 0 242 120.5t88 331.5v424z" />
    <glyph glyph-name="udieresis" unicode="&#xfc;" horiz-adv-x="1077" 
d="M834 946h104v-946h-102q0 202 18 291l-8 4q-40 -165 -131 -245.5t-238 -80.5q-168 0 -258 107t-90 305v565h109v-557q0 -152 69.5 -235.5t196.5 -83.5q154 0 242 120.5t88 331.5v424z" />
    <glyph glyph-name="yacute" unicode="&#xfd;" horiz-adv-x="950" 
d="M817 946h113l-596 -1356h-109l209 480l-414 876h121l275 -602q35 -76 48 -114.5t19 -86.5h9q7 75 63 199z" />
    <glyph glyph-name="thorn" unicode="&#xfe;" horiz-adv-x="1222" 
d="M664 977q211 0 343 -140t132 -364t-132 -364t-343 -140q-151 0 -259.5 73.5t-164.5 211.5l-9 -2q21 -86 21 -201v-461h-102v1356h100q0 -183 -14 -260l6 -2q53 140 162.5 216.5t259.5 76.5zM649 872q-180 0 -292.5 -111t-112.5 -288q0 -178 114 -288.5t297 -110.5
q169 0 271 108.5t102 288.5q0 182 -103.5 291.5t-275.5 109.5z" />
    <glyph glyph-name="ydieresis" unicode="&#xff;" horiz-adv-x="950" 
d="M817 946h113l-596 -1356h-109l209 480l-414 876h121l275 -602q35 -76 48 -114.5t19 -86.5h9q7 75 63 199z" />
    <glyph glyph-name="Amacron" unicode="&#x100;" horiz-adv-x="1353" 
d="M154 0h-125l641 1464h14l641 -1464h-125l-199 461h-649zM383 559v-2q36 4 115 4h356q79 0 115 -4l2 2q-31 45 -62 119l-174 412q-50 123 -55 176h-8q-6 -56 -54 -176l-174 -412q-32 -77 -61 -119z" />
    <glyph glyph-name="amacron" unicode="&#x101;" horiz-adv-x="1038" 
d="M520 977q195 0 287 -90t92 -279v-608h-102q0 80 12 186l-4 2q-46 -102 -144 -160.5t-223 -58.5q-165 0 -266.5 93.5t-101.5 244.5q0 154 101 245t271 91q124 0 222 -57t139 -152l6 4q-7 25 -8.5 50t-1.5 114q-1 139 -70.5 205.5t-210.5 66.5q-140 0 -317 -57l-31 103
q196 57 350 57zM461 547q-126 0 -202.5 -67t-76.5 -177q0 -107 76.5 -172t202.5 -65q134 0 225.5 69t91.5 170t-92 171.5t-225 70.5z" />
    <glyph glyph-name="Abreve" unicode="&#x102;" horiz-adv-x="1353" 
d="M154 0h-125l641 1464h14l641 -1464h-125l-199 461h-649zM383 559v-2q36 4 115 4h356q79 0 115 -4l2 2q-31 45 -62 119l-174 412q-50 123 -55 176h-8q-6 -56 -54 -176l-174 -412q-32 -77 -61 -119z" />
    <glyph glyph-name="abreve" unicode="&#x103;" horiz-adv-x="1038" 
d="M520 977q195 0 287 -90t92 -279v-608h-102q0 80 12 186l-4 2q-46 -102 -144 -160.5t-223 -58.5q-165 0 -266.5 93.5t-101.5 244.5q0 154 101 245t271 91q124 0 222 -57t139 -152l6 4q-7 25 -8.5 50t-1.5 114q-1 139 -70.5 205.5t-210.5 66.5q-140 0 -317 -57l-31 103
q196 57 350 57zM461 547q-126 0 -202.5 -67t-76.5 -177q0 -107 76.5 -172t202.5 -65q134 0 225.5 69t91.5 170t-92 171.5t-225 70.5z" />
    <glyph glyph-name="Aogonek" unicode="&#x104;" horiz-adv-x="1353" 
d="M154 0h-125l641 1464h14l641 -1464h-125l-199 461h-649zM383 559v-2q36 4 115 4h356q79 0 115 -4l2 2q-31 45 -62 119l-174 412q-50 123 -55 176h-8q-6 -56 -54 -176l-174 -412q-32 -77 -61 -119z" />
    <glyph glyph-name="aogonek" unicode="&#x105;" horiz-adv-x="1038" 
d="M520 977q195 0 287 -90t92 -279v-608h-102q0 80 12 186l-4 2q-46 -102 -144 -160.5t-223 -58.5q-165 0 -266.5 93.5t-101.5 244.5q0 154 101 245t271 91q124 0 222 -57t139 -152l6 4q-7 25 -8.5 50t-1.5 114q-1 139 -70.5 205.5t-210.5 66.5q-140 0 -317 -57l-31 103
q196 57 350 57zM461 547q-126 0 -202.5 -67t-76.5 -177q0 -107 76.5 -172t202.5 -65q134 0 225.5 69t91.5 170t-92 171.5t-225 70.5z" />
    <glyph glyph-name="Cacute" unicode="&#x106;" horiz-adv-x="1429" 
d="M850 -31q-342 0 -552 206.5t-210 541.5t210 541t552 206q274 0 498 -164l-70 -96q-105 77 -207 112.5t-223 35.5q-284 0 -461.5 -176.5t-177.5 -458.5t177.5 -458.5t461.5 -176.5q121 0 223 35t207 112l70 -96q-224 -164 -498 -164z" />
    <glyph glyph-name="cacute" unicode="&#x107;" horiz-adv-x="983" 
d="M594 -31q-227 0 -368.5 140t-141.5 364t141.5 364t368.5 140q175 0 321 -92l-51 -92q-134 81 -274 81q-172 0 -283.5 -113t-111.5 -288q0 -174 112 -287.5t283 -113.5q139 0 274 82l51 -93q-146 -92 -321 -92z" />
    <glyph glyph-name="Ccircumflex" unicode="&#x108;" horiz-adv-x="1429" 
d="M850 -31q-342 0 -552 206.5t-210 541.5t210 541t552 206q274 0 498 -164l-70 -96q-105 77 -207 112.5t-223 35.5q-284 0 -461.5 -176.5t-177.5 -458.5t177.5 -458.5t461.5 -176.5q121 0 223 35t207 112l70 -96q-224 -164 -498 -164z" />
    <glyph glyph-name="ccircumflex" unicode="&#x109;" horiz-adv-x="983" 
d="M594 -31q-227 0 -368.5 140t-141.5 364t141.5 364t368.5 140q175 0 321 -92l-51 -92q-134 81 -274 81q-172 0 -283.5 -113t-111.5 -288q0 -174 112 -287.5t283 -113.5q139 0 274 82l51 -93q-146 -92 -321 -92z" />
    <glyph glyph-name="Cdotaccent" unicode="&#x10a;" horiz-adv-x="1429" 
d="M850 -31q-342 0 -552 206.5t-210 541.5t210 541t552 206q274 0 498 -164l-70 -96q-105 77 -207 112.5t-223 35.5q-284 0 -461.5 -176.5t-177.5 -458.5t177.5 -458.5t461.5 -176.5q121 0 223 35t207 112l70 -96q-224 -164 -498 -164z" />
    <glyph glyph-name="cdotaccent" unicode="&#x10b;" horiz-adv-x="983" 
d="M594 -31q-227 0 -368.5 140t-141.5 364t141.5 364t368.5 140q175 0 321 -92l-51 -92q-134 81 -274 81q-172 0 -283.5 -113t-111.5 -288q0 -174 112 -287.5t283 -113.5q139 0 274 82l51 -93q-146 -92 -321 -92z" />
    <glyph glyph-name="Ccaron" unicode="&#x10c;" horiz-adv-x="1429" 
d="M850 -31q-342 0 -552 206.5t-210 541.5t210 541t552 206q274 0 498 -164l-70 -96q-105 77 -207 112.5t-223 35.5q-284 0 -461.5 -176.5t-177.5 -458.5t177.5 -458.5t461.5 -176.5q121 0 223 35t207 112l70 -96q-224 -164 -498 -164z" />
    <glyph glyph-name="ccaron" unicode="&#x10d;" horiz-adv-x="983" 
d="M594 -31q-227 0 -368.5 140t-141.5 364t141.5 364t368.5 140q175 0 321 -92l-51 -92q-134 81 -274 81q-172 0 -283.5 -113t-111.5 -288q0 -174 112 -287.5t283 -113.5q139 0 274 82l51 -93q-146 -92 -321 -92z" />
    <glyph glyph-name="Dcaron" unicode="&#x10e;" horiz-adv-x="1415" 
d="M170 1434h434q216 0 380.5 -89t254.5 -252t90 -376t-90 -376t-254.5 -252t-380.5 -89h-434v1434zM279 1331l-3 -2q7 -21 7 -49v-1126q0 -29 -7 -50l3 -2q10 4 53 4h272q275 0 439.5 166.5t164.5 444.5t-165 444t-439 166h-272q-43 0 -53 4z" />
    <glyph glyph-name="dcaron" unicode="&#x10f;" horiz-adv-x="1230" 
d="M559 -31q-211 0 -343 140t-132 364t132 364t343 140q152 0 261.5 -75t160.5 -214l6 4q-16 73 -16 254v518h104v-1464h-102q0 158 20 252l-8 2q-56 -138 -165 -211.5t-261 -73.5zM569 74q182 0 296 110.5t114 288.5q0 177 -112.5 288t-291.5 111q-173 0 -276.5 -109.5
t-103.5 -291.5q0 -180 102.5 -288.5t271.5 -108.5z" />
    <glyph glyph-name="Dcroat" unicode="&#x110;" horiz-adv-x="1415" 
d="M170 1434h434q216 0 380.5 -89t254.5 -252t90 -376t-90 -376t-254.5 -252t-380.5 -89h-434v1434zM279 1331l-3 -2q7 -21 7 -49v-1126q0 -29 -7 -50l3 -2q10 4 53 4h272q275 0 439.5 166.5t164.5 444.5t-165 444t-439 166h-272q-43 0 -53 4z" />
    <glyph glyph-name="dcroat" unicode="&#x111;" horiz-adv-x="1230" 
d="M559 -31q-211 0 -343 140t-132 364t132 364t343 140q152 0 261.5 -75t160.5 -214l6 4q-16 73 -16 254v518h104v-1464h-102q0 158 20 252l-8 2q-56 -138 -165 -211.5t-261 -73.5zM569 74q182 0 296 110.5t114 288.5q0 177 -112.5 288t-291.5 111q-173 0 -276.5 -109.5
t-103.5 -291.5q0 -180 102.5 -288.5t271.5 -108.5z" />
    <glyph glyph-name="Emacron" unicode="&#x112;" horiz-adv-x="1046" 
d="M170 1434h786v-107h-624q-41 0 -53 4l-3 -2q7 -21 7 -49v-389q0 -28 -7 -49l3 -2q12 4 53 4h559v-107h-559q-35 0 -53 6l-3 -2q7 -21 7 -51v-536q0 -29 -7 -50l3 -2q12 4 53 4h633v-106h-795v1434z" />
    <glyph glyph-name="emacron" unicode="&#x113;" horiz-adv-x="1103" 
d="M567 977q207 0 329 -133t122 -359v-24h-742q-66 0 -86 10l-2 -2l5 -18q3 -175 106.5 -278t275.5 -103q108 0 190.5 44t160.5 144l73 -68q-162 -221 -426 -221q-223 0 -356 138t-133 368q0 229 131.5 365.5t351.5 136.5zM565 879q-159 0 -258.5 -91.5t-113.5 -250.5l2 -2
q25 14 84 14h534q55 0 92 -12l2 2q-12 162 -101.5 251t-240.5 89z" />
    <glyph glyph-name="Ebreve" unicode="&#x114;" horiz-adv-x="1046" 
d="M170 1434h786v-107h-624q-41 0 -53 4l-3 -2q7 -21 7 -49v-389q0 -28 -7 -49l3 -2q12 4 53 4h559v-107h-559q-35 0 -53 6l-3 -2q7 -21 7 -51v-536q0 -29 -7 -50l3 -2q12 4 53 4h633v-106h-795v1434z" />
    <glyph glyph-name="ebreve" unicode="&#x115;" horiz-adv-x="1103" 
d="M567 977q207 0 329 -133t122 -359v-24h-742q-66 0 -86 10l-2 -2l5 -18q3 -175 106.5 -278t275.5 -103q108 0 190.5 44t160.5 144l73 -68q-162 -221 -426 -221q-223 0 -356 138t-133 368q0 229 131.5 365.5t351.5 136.5zM565 879q-159 0 -258.5 -91.5t-113.5 -250.5l2 -2
q25 14 84 14h534q55 0 92 -12l2 2q-12 162 -101.5 251t-240.5 89z" />
    <glyph glyph-name="Edotaccent" unicode="&#x116;" horiz-adv-x="1046" 
d="M170 1434h786v-107h-624q-41 0 -53 4l-3 -2q7 -21 7 -49v-389q0 -28 -7 -49l3 -2q12 4 53 4h559v-107h-559q-35 0 -53 6l-3 -2q7 -21 7 -51v-536q0 -29 -7 -50l3 -2q12 4 53 4h633v-106h-795v1434z" />
    <glyph glyph-name="edotaccent" unicode="&#x117;" horiz-adv-x="1103" 
d="M567 977q207 0 329 -133t122 -359v-24h-742q-66 0 -86 10l-2 -2l5 -18q3 -175 106.5 -278t275.5 -103q108 0 190.5 44t160.5 144l73 -68q-162 -221 -426 -221q-223 0 -356 138t-133 368q0 229 131.5 365.5t351.5 136.5zM565 879q-159 0 -258.5 -91.5t-113.5 -250.5l2 -2
q25 14 84 14h534q55 0 92 -12l2 2q-12 162 -101.5 251t-240.5 89z" />
    <glyph glyph-name="Eogonek" unicode="&#x118;" horiz-adv-x="1046" 
d="M170 1434h786v-107h-624q-41 0 -53 4l-3 -2q7 -21 7 -49v-389q0 -28 -7 -49l3 -2q12 4 53 4h559v-107h-559q-35 0 -53 6l-3 -2q7 -21 7 -51v-536q0 -29 -7 -50l3 -2q12 4 53 4h633v-106h-795v1434z" />
    <glyph glyph-name="eogonek" unicode="&#x119;" horiz-adv-x="1103" 
d="M567 977q207 0 329 -133t122 -359v-24h-742q-66 0 -86 10l-2 -2l5 -18q3 -175 106.5 -278t275.5 -103q108 0 190.5 44t160.5 144l73 -68q-162 -221 -426 -221q-223 0 -356 138t-133 368q0 229 131.5 365.5t351.5 136.5zM565 879q-159 0 -258.5 -91.5t-113.5 -250.5l2 -2
q25 14 84 14h534q55 0 92 -12l2 2q-12 162 -101.5 251t-240.5 89z" />
    <glyph glyph-name="Ecaron" unicode="&#x11a;" horiz-adv-x="1046" 
d="M170 1434h786v-107h-624q-41 0 -53 4l-3 -2q7 -21 7 -49v-389q0 -28 -7 -49l3 -2q12 4 53 4h559v-107h-559q-35 0 -53 6l-3 -2q7 -21 7 -51v-536q0 -29 -7 -50l3 -2q12 4 53 4h633v-106h-795v1434z" />
    <glyph glyph-name="ecaron" unicode="&#x11b;" horiz-adv-x="1103" 
d="M567 977q207 0 329 -133t122 -359v-24h-742q-66 0 -86 10l-2 -2l5 -18q3 -175 106.5 -278t275.5 -103q108 0 190.5 44t160.5 144l73 -68q-162 -221 -426 -221q-223 0 -356 138t-133 368q0 229 131.5 365.5t351.5 136.5zM565 879q-159 0 -258.5 -91.5t-113.5 -250.5l2 -2
q25 14 84 14h534q55 0 92 -12l2 2q-12 162 -101.5 251t-240.5 89z" />
    <glyph glyph-name="Gcircumflex" unicode="&#x11c;" horiz-adv-x="1644" 
d="M852 1464q150 0 279.5 -46.5t257.5 -141.5l-74 -98q-116 89 -228.5 131.5t-240.5 42.5q-279 0 -458 -181.5t-179 -461.5q0 -180 81 -323.5t227 -223.5t331 -80q124 0 227.5 37.5t171 97t115 135.5t68.5 150.5t22 144.5l-2 2q-32 -14 -139 -14h-463v106h723v-45
q0 -105 -27 -207t-85 -196.5t-141 -166t-205 -114.5t-267 -43q-219 0 -391.5 93t-269.5 262t-97 385q0 165 56 305t155.5 239t242 155t310.5 56z" />
    <glyph glyph-name="gcircumflex" unicode="&#x11d;" horiz-adv-x="1212" 
d="M561 977q150 0 258.5 -74.5t161.5 -212.5l6 4q-16 78 -16 252h102v-936q0 -221 -127.5 -335.5t-374.5 -114.5q-235 0 -415 108l53 94q98 -54 184 -77t185 -23q193 0 294 89.5t101 262.5v52q0 113 18 186l-8 2q-59 -139 -166 -212t-254 -73q-214 0 -346.5 139t-132.5 365
q0 225 132 364.5t345 139.5zM578 872q-175 0 -279 -109t-104 -292q0 -182 103 -289.5t275 -107.5q179 0 292.5 111t113.5 288q0 175 -112 287t-289 112z" />
    <glyph glyph-name="Gbreve" unicode="&#x11e;" horiz-adv-x="1644" 
d="M852 1464q150 0 279.5 -46.5t257.5 -141.5l-74 -98q-116 89 -228.5 131.5t-240.5 42.5q-279 0 -458 -181.5t-179 -461.5q0 -180 81 -323.5t227 -223.5t331 -80q124 0 227.5 37.5t171 97t115 135.5t68.5 150.5t22 144.5l-2 2q-32 -14 -139 -14h-463v106h723v-45
q0 -105 -27 -207t-85 -196.5t-141 -166t-205 -114.5t-267 -43q-219 0 -391.5 93t-269.5 262t-97 385q0 165 56 305t155.5 239t242 155t310.5 56z" />
    <glyph glyph-name="gbreve" unicode="&#x11f;" horiz-adv-x="1212" 
d="M561 977q150 0 258.5 -74.5t161.5 -212.5l6 4q-16 78 -16 252h102v-936q0 -221 -127.5 -335.5t-374.5 -114.5q-235 0 -415 108l53 94q98 -54 184 -77t185 -23q193 0 294 89.5t101 262.5v52q0 113 18 186l-8 2q-59 -139 -166 -212t-254 -73q-214 0 -346.5 139t-132.5 365
q0 225 132 364.5t345 139.5zM578 872q-175 0 -279 -109t-104 -292q0 -182 103 -289.5t275 -107.5q179 0 292.5 111t113.5 288q0 175 -112 287t-289 112z" />
    <glyph glyph-name="Gdotaccent" unicode="&#x120;" horiz-adv-x="1644" 
d="M852 1464q150 0 279.5 -46.5t257.5 -141.5l-74 -98q-116 89 -228.5 131.5t-240.5 42.5q-279 0 -458 -181.5t-179 -461.5q0 -180 81 -323.5t227 -223.5t331 -80q124 0 227.5 37.5t171 97t115 135.5t68.5 150.5t22 144.5l-2 2q-32 -14 -139 -14h-463v106h723v-45
q0 -105 -27 -207t-85 -196.5t-141 -166t-205 -114.5t-267 -43q-219 0 -391.5 93t-269.5 262t-97 385q0 165 56 305t155.5 239t242 155t310.5 56z" />
    <glyph glyph-name="gdotaccent" unicode="&#x121;" horiz-adv-x="1212" 
d="M561 977q150 0 258.5 -74.5t161.5 -212.5l6 4q-16 78 -16 252h102v-936q0 -221 -127.5 -335.5t-374.5 -114.5q-235 0 -415 108l53 94q98 -54 184 -77t185 -23q193 0 294 89.5t101 262.5v52q0 113 18 186l-8 2q-59 -139 -166 -212t-254 -73q-214 0 -346.5 139t-132.5 365
q0 225 132 364.5t345 139.5zM578 872q-175 0 -279 -109t-104 -292q0 -182 103 -289.5t275 -107.5q179 0 292.5 111t113.5 288q0 175 -112 287t-289 112z" />
    <glyph glyph-name="uni0122" unicode="&#x122;" horiz-adv-x="1644" 
d="M852 1464q150 0 279.5 -46.5t257.5 -141.5l-74 -98q-116 89 -228.5 131.5t-240.5 42.5q-279 0 -458 -181.5t-179 -461.5q0 -180 81 -323.5t227 -223.5t331 -80q124 0 227.5 37.5t171 97t115 135.5t68.5 150.5t22 144.5l-2 2q-32 -14 -139 -14h-463v106h723v-45
q0 -105 -27 -207t-85 -196.5t-141 -166t-205 -114.5t-267 -43q-219 0 -391.5 93t-269.5 262t-97 385q0 165 56 305t155.5 239t242 155t310.5 56z" />
    <glyph glyph-name="uni0123" unicode="&#x123;" horiz-adv-x="1212" 
d="M561 977q150 0 258.5 -74.5t161.5 -212.5l6 4q-16 78 -16 252h102v-936q0 -221 -127.5 -335.5t-374.5 -114.5q-235 0 -415 108l53 94q98 -54 184 -77t185 -23q193 0 294 89.5t101 262.5v52q0 113 18 186l-8 2q-59 -139 -166 -212t-254 -73q-214 0 -346.5 139t-132.5 365
q0 225 132 364.5t345 139.5zM578 872q-175 0 -279 -109t-104 -292q0 -182 103 -289.5t275 -107.5q179 0 292.5 111t113.5 288q0 175 -112 287t-289 112z" />
    <glyph glyph-name="Hcircumflex" unicode="&#x124;" horiz-adv-x="1423" 
d="M1143 1434h112v-1434h-112v666q0 33 6 51l-4 2q-18 -6 -51 -6h-762q-35 0 -53 6l-3 -2q7 -21 7 -51v-666h-113v1434h113v-566q0 -32 -7 -49l3 -4q12 6 53 6h762q39 0 51 -6l4 4q-6 15 -6 49v566z" />
    <glyph glyph-name="hcircumflex" unicode="&#x125;" horiz-adv-x="1130" 
d="M156 1464h104v-561q0 -160 -16 -248l8 -4q83 326 381 326q173 0 266.5 -104.5t93.5 -299.5v-573h-104v561q0 149 -72.5 232.5t-202.5 83.5q-166 0 -260 -120.5t-94 -332.5v-424h-104v1464z" />
    <glyph glyph-name="Hbar" unicode="&#x126;" horiz-adv-x="1423" 
d="M1143 1434h112v-1434h-112v666q0 33 6 51l-4 2q-18 -6 -51 -6h-762q-35 0 -53 6l-3 -2q7 -21 7 -51v-666h-113v1434h113v-566q0 -32 -7 -49l3 -4q12 6 53 6h762q39 0 51 -6l4 4q-6 15 -6 49v566z" />
    <glyph glyph-name="hbar" unicode="&#x127;" horiz-adv-x="1130" 
d="M156 1464h104v-561q0 -160 -16 -248l8 -4q83 326 381 326q173 0 266.5 -104.5t93.5 -299.5v-573h-104v561q0 149 -72.5 232.5t-202.5 83.5q-166 0 -260 -120.5t-94 -332.5v-424h-104v1464z" />
    <glyph glyph-name="Itilde" unicode="&#x128;" horiz-adv-x="450" 
d="M170 1434h113v-1434h-113v1434z" />
    <glyph glyph-name="itilde" unicode="&#x129;" 
d="M147 1434h121v-267h-121v267zM156 946h104v-946h-104v946z" />
    <glyph glyph-name="Imacron" unicode="&#x12a;" horiz-adv-x="450" 
d="M170 1434h113v-1434h-113v1434z" />
    <glyph glyph-name="imacron" unicode="&#x12b;" 
d="M147 1434h121v-267h-121v267zM156 946h104v-946h-104v946z" />
    <glyph glyph-name="Ibreve" unicode="&#x12c;" horiz-adv-x="450" 
d="M170 1434h113v-1434h-113v1434z" />
    <glyph glyph-name="ibreve" unicode="&#x12d;" 
d="M147 1434h121v-267h-121v267zM156 946h104v-946h-104v946z" />
    <glyph glyph-name="Iogonek" unicode="&#x12e;" horiz-adv-x="450" 
d="M170 1434h113v-1434h-113v1434z" />
    <glyph glyph-name="iogonek" unicode="&#x12f;" 
d="M147 1434h121v-267h-121v267zM156 946h104v-946h-104v946z" />
    <glyph glyph-name="Idotaccent" unicode="&#x130;" horiz-adv-x="450" 
d="M170 1434h113v-1434h-113v1434z" />
    <glyph glyph-name="dotlessi" unicode="&#x131;" 
d="M147 1434h121v-267h-121v267zM156 946h104v-946h-104v946z" />
    <glyph glyph-name="IJ" unicode="&#x132;" horiz-adv-x="1011" 
d="M170 1434h113v-1434h-113v1434zM729 1434h113v-1143q0 -155 -63 -228t-197 -73q-14 0 -80 4v110q62 -4 69 -4q81 0 119.5 45t38.5 144v1145z" />
    <glyph glyph-name="ij" unicode="&#x133;" horiz-adv-x="833" 
d="M147 1434h121v-267h-121v267zM565 1434h121v-267h-121v267zM156 946h104v-946h-104v946zM573 946h105v-1087q0 -299 -285 -299h-18v104h20q88 0 133 46t45 149v1087z" />
    <glyph glyph-name="Jcircumflex" unicode="&#x134;" horiz-adv-x="559" 
d="M279 1434h112v-1143q0 -155 -63 -228t-197 -73q-14 0 -80 4v110q62 -4 70 -4q81 0 119.5 45t38.5 144v1145z" />
    <glyph glyph-name="jcircumflex" unicode="&#x135;" 
d="M147 1434h121v-267h-121v267zM156 946h104v-1087q0 -299 -285 -299h-18v104h20q88 0 133.5 46.5t45.5 148.5v1087z" />
    <glyph glyph-name="uni0136" unicode="&#x136;" horiz-adv-x="1187" 
d="M938 1434h160l-539 -531q-63 -64 -92.5 -91t-63.5 -48v-2q19 -11 37.5 -25.5t29.5 -25.5l40.5 -40.5t48.5 -47.5l619 -623h-164l-742 748l-2 -3q13 -99 13 -241v-504h-113v1434h113v-416q0 -146 -13 -242l2 -4z" />
    <glyph glyph-name="uni0137" unicode="&#x137;" horiz-adv-x="925" 
d="M156 1464h104v-708q0 -135 -16 -226l4 -4l442 420h156l-387 -348q-73 -70 -105 -84l4 -2q41 -23 109 -86l444 -426h-151l-512 498l-4 -4q16 -91 16 -228v-266h-104v1464z" />
    <glyph glyph-name="kgreenlandic" unicode="&#x138;" horiz-adv-x="925" 
d="M156 1464h104v-708q0 -135 -16 -226l4 -4l442 420h156l-387 -348q-73 -70 -105 -84l4 -2q41 -23 109 -86l444 -426h-151l-512 498l-4 -4q16 -91 16 -228v-266h-104v1464z" />
    <glyph glyph-name="Lacute" unicode="&#x139;" horiz-adv-x="1007" 
d="M170 1434h113v-1278q0 -31 -7 -52l3 -2q21 7 53 7h647v-109h-809v1434z" />
    <glyph glyph-name="lacute" unicode="&#x13a;" 
d="M156 1464h104v-1464h-104v1464z" />
    <glyph glyph-name="uni013B" unicode="&#x13b;" horiz-adv-x="1007" 
d="M170 1434h113v-1278q0 -31 -7 -52l3 -2q21 7 53 7h647v-109h-809v1434z" />
    <glyph glyph-name="uni013C" unicode="&#x13c;" 
d="M156 1464h104v-1464h-104v1464z" />
    <glyph glyph-name="Lcaron" unicode="&#x13d;" horiz-adv-x="1007" 
d="M170 1434h113v-1278q0 -31 -7 -52l3 -2q21 7 53 7h647v-109h-809v1434z" />
    <glyph glyph-name="lcaron" unicode="&#x13e;" 
d="M156 1464h104v-1464h-104v1464z" />
    <glyph glyph-name="Ldot" unicode="&#x13f;" horiz-adv-x="1007" 
d="M170 1434h113v-1278q0 -31 -7 -52l3 -2q21 7 53 7h647v-109h-809v1434z" />
    <glyph glyph-name="ldot" unicode="&#x140;" 
d="M156 1464h104v-1464h-104v1464z" />
    <glyph glyph-name="Lslash" unicode="&#x141;" horiz-adv-x="1007" 
d="M170 1434h113v-1278q0 -31 -7 -52l3 -2q21 7 53 7h647v-109h-809v1434z" />
    <glyph glyph-name="lslash" unicode="&#x142;" 
d="M156 1464h104v-1464h-104v1464z" />
    <glyph glyph-name="Nacute" unicode="&#x143;" horiz-adv-x="1443" 
d="M170 1454h14l877 -1063q93 -119 113 -164l4 2q-17 111 -17 258v947h113v-1454h-14l-877 1062q-93 119 -113 164l-4 -2q17 -110 17 -258v-946h-113v1454z" />
    <glyph glyph-name="nacute" unicode="&#x144;" horiz-adv-x="1122" 
d="M623 977q176 0 269 -104t93 -300v-573h-104v561q0 150 -72 233t-203 83q-166 0 -260 -120.5t-94 -332.5v-424h-102v946h102q0 -201 -19 -301l9 -4q85 336 381 336z" />
    <glyph glyph-name="uni0145" unicode="&#x145;" horiz-adv-x="1443" 
d="M170 1454h14l877 -1063q93 -119 113 -164l4 2q-17 111 -17 258v947h113v-1454h-14l-877 1062q-93 119 -113 164l-4 -2q17 -110 17 -258v-946h-113v1454z" />
    <glyph glyph-name="uni0146" unicode="&#x146;" horiz-adv-x="1122" 
d="M623 977q176 0 269 -104t93 -300v-573h-104v561q0 150 -72 233t-203 83q-166 0 -260 -120.5t-94 -332.5v-424h-102v946h102q0 -201 -19 -301l9 -4q85 336 381 336z" />
    <glyph glyph-name="Ncaron" unicode="&#x147;" horiz-adv-x="1443" 
d="M170 1454h14l877 -1063q93 -119 113 -164l4 2q-17 111 -17 258v947h113v-1454h-14l-877 1062q-93 119 -113 164l-4 -2q17 -110 17 -258v-946h-113v1454z" />
    <glyph glyph-name="ncaron" unicode="&#x148;" horiz-adv-x="1122" 
d="M623 977q176 0 269 -104t93 -300v-573h-104v561q0 150 -72 233t-203 83q-166 0 -260 -120.5t-94 -332.5v-424h-102v946h102q0 -201 -19 -301l9 -4q85 336 381 336z" />
    <glyph glyph-name="napostrophe" unicode="&#x149;" horiz-adv-x="1122" 
d="M623 977q176 0 269 -104t93 -300v-573h-104v561q0 150 -72 233t-203 83q-166 0 -260 -120.5t-94 -332.5v-424h-102v946h102q0 -201 -19 -301l9 -4q85 336 381 336z" />
    <glyph glyph-name="Eng" unicode="&#x14a;" horiz-adv-x="1443" 
d="M170 1454h14l877 -1063q93 -119 113 -164l4 2q-17 111 -17 258v947h113v-1454h-14l-877 1062q-93 119 -113 164l-4 -2q17 -110 17 -258v-946h-113v1454z" />
    <glyph glyph-name="eng" unicode="&#x14b;" horiz-adv-x="1122" 
d="M623 977q176 0 269 -104t93 -300v-573h-104v561q0 150 -72 233t-203 83q-166 0 -260 -120.5t-94 -332.5v-424h-102v946h102q0 -201 -19 -301l9 -4q85 336 381 336z" />
    <glyph glyph-name="Omacron" unicode="&#x14c;" horiz-adv-x="1669" 
d="M836 1464q160 0 299 -56t237.5 -154.5t154.5 -237.5t56 -299q0 -214 -95.5 -385t-266.5 -267t-385 -96t-385 96t-267 267t-96 385t96 385t267 266.5t385 95.5zM836 1352q-275 0 -451 -178.5t-176 -456.5t176 -456.5t451 -178.5q180 0 323 81t223 226t80 328t-80 328
t-223 226t-323 81z" />
    <glyph glyph-name="omacron" unicode="&#x14d;" horiz-adv-x="1183" 
d="M592 977q223 0 365.5 -141.5t142.5 -362.5q0 -220 -143 -362t-365 -142q-221 0 -364.5 142t-143.5 362q0 221 143 362.5t365 141.5zM592 874q-174 0 -285.5 -112t-111.5 -289q0 -175 112 -288t285 -113t285 113t112 288q0 177 -111.5 289t-285.5 112z" />
    <glyph glyph-name="Obreve" unicode="&#x14e;" horiz-adv-x="1669" 
d="M836 1464q160 0 299 -56t237.5 -154.5t154.5 -237.5t56 -299q0 -214 -95.5 -385t-266.5 -267t-385 -96t-385 96t-267 267t-96 385t96 385t267 266.5t385 95.5zM836 1352q-275 0 -451 -178.5t-176 -456.5t176 -456.5t451 -178.5q180 0 323 81t223 226t80 328t-80 328
t-223 226t-323 81z" />
    <glyph glyph-name="obreve" unicode="&#x14f;" horiz-adv-x="1183" 
d="M592 977q223 0 365.5 -141.5t142.5 -362.5q0 -220 -143 -362t-365 -142q-221 0 -364.5 142t-143.5 362q0 221 143 362.5t365 141.5zM592 874q-174 0 -285.5 -112t-111.5 -289q0 -175 112 -288t285 -113t285 113t112 288q0 177 -111.5 289t-285.5 112z" />
    <glyph glyph-name="Ohungarumlaut" unicode="&#x150;" horiz-adv-x="1669" 
d="M836 1464q160 0 299 -56t237.5 -154.5t154.5 -237.5t56 -299q0 -214 -95.5 -385t-266.5 -267t-385 -96t-385 96t-267 267t-96 385t96 385t267 266.5t385 95.5zM836 1352q-275 0 -451 -178.5t-176 -456.5t176 -456.5t451 -178.5q180 0 323 81t223 226t80 328t-80 328
t-223 226t-323 81z" />
    <glyph glyph-name="ohungarumlaut" unicode="&#x151;" horiz-adv-x="1183" 
d="M592 977q223 0 365.5 -141.5t142.5 -362.5q0 -220 -143 -362t-365 -142q-221 0 -364.5 142t-143.5 362q0 221 143 362.5t365 141.5zM592 874q-174 0 -285.5 -112t-111.5 -289q0 -175 112 -288t285 -113t285 113t112 288q0 177 -111.5 289t-285.5 112z" />
    <glyph glyph-name="OE" unicode="&#x152;" horiz-adv-x="2717" 
d="M836 1464q160 0 299 -56t237.5 -154.5t154.5 -237.5t56 -299q0 -214 -95.5 -385t-266.5 -267t-385 -96t-385 96t-267 267t-96 385t96 385t267 266.5t385 95.5zM1839 1434h787v-107h-625q-41 0 -53 4l-2 -2q6 -18 6 -49v-389q0 -31 -6 -49l2 -2q12 4 53 4h559v-107h-559
q-35 0 -53 6l-2 -2q6 -18 6 -51v-536q0 -32 -6 -50l2 -2q12 4 53 4h633v-106h-795v1434zM836 1352q-275 0 -451 -178.5t-176 -456.5t176 -456.5t451 -178.5q180 0 323 81t223 226t80 328t-80 328t-223 226t-323 81z" />
    <glyph glyph-name="oe" unicode="&#x153;" horiz-adv-x="2287" 
d="M592 977q223 0 365.5 -141.5t142.5 -362.5q0 -220 -143 -362t-365 -142q-221 0 -364.5 142t-143.5 362q0 221 143 362.5t365 141.5zM1751 977q207 0 329 -133t122 -359v-24h-742q-66 0 -86 10l-2 -2l4 -18q3 -175 107 -278t276 -103q107 0 189.5 44t160.5 144l74 -68
q-162 -221 -426 -221q-223 0 -356 138t-133 368q0 229 131.5 365.5t351.5 136.5zM1749 879q-160 0 -259.5 -92t-113.5 -250l2 -2q25 14 84 14h535q55 0 92 -12l2 2q-12 162 -101.5 251t-240.5 89zM592 874q-174 0 -285.5 -112t-111.5 -289q0 -175 112 -288t285 -113t285 113
t112 288q0 177 -111.5 289t-285.5 112z" />
    <glyph glyph-name="Racute" unicode="&#x154;" horiz-adv-x="1181" 
d="M170 1434h457q186 0 294.5 -99.5t108.5 -269.5q0 -166 -107.5 -265.5t-277.5 -99.5q-34 0 -67 11v-9q45 -28 88 -79l481 -623h-148l-536 696h-133q-41 0 -51 4l-3 -2q7 -21 7 -51v-647h-113v1434zM279 1331l-3 -2q7 -21 7 -49v-430q0 -28 -7 -49l3 -2q10 4 53 4h297
q134 0 208 69t74 193q0 122 -74 192t-208 70h-297q-43 0 -53 4z" />
    <glyph glyph-name="racute" unicode="&#x155;" horiz-adv-x="665" 
d="M563 977q29 0 72 -6v-119q-58 8 -80 8q-145 0 -224 -127.5t-79 -359.5v-373h-102v946h102q0 -215 -21 -325l11 -5q32 183 111.5 272t209.5 89z" />
    <glyph glyph-name="uni0156" unicode="&#x156;" horiz-adv-x="1181" 
d="M170 1434h457q186 0 294.5 -99.5t108.5 -269.5q0 -166 -107.5 -265.5t-277.5 -99.5q-34 0 -67 11v-9q45 -28 88 -79l481 -623h-148l-536 696h-133q-41 0 -51 4l-3 -2q7 -21 7 -51v-647h-113v1434zM279 1331l-3 -2q7 -21 7 -49v-430q0 -28 -7 -49l3 -2q10 4 53 4h297
q134 0 208 69t74 193q0 122 -74 192t-208 70h-297q-43 0 -53 4z" />
    <glyph glyph-name="uni0157" unicode="&#x157;" horiz-adv-x="665" 
d="M563 977q29 0 72 -6v-119q-58 8 -80 8q-145 0 -224 -127.5t-79 -359.5v-373h-102v946h102q0 -215 -21 -325l11 -5q32 183 111.5 272t209.5 89z" />
    <glyph glyph-name="Rcaron" unicode="&#x158;" horiz-adv-x="1181" 
d="M170 1434h457q186 0 294.5 -99.5t108.5 -269.5q0 -166 -107.5 -265.5t-277.5 -99.5q-34 0 -67 11v-9q45 -28 88 -79l481 -623h-148l-536 696h-133q-41 0 -51 4l-3 -2q7 -21 7 -51v-647h-113v1434zM279 1331l-3 -2q7 -21 7 -49v-430q0 -28 -7 -49l3 -2q10 4 53 4h297
q134 0 208 69t74 193q0 122 -74 192t-208 70h-297q-43 0 -53 4z" />
    <glyph glyph-name="rcaron" unicode="&#x159;" horiz-adv-x="665" 
d="M563 977q29 0 72 -6v-119q-58 8 -80 8q-145 0 -224 -127.5t-79 -359.5v-373h-102v946h102q0 -215 -21 -325l11 -5q32 183 111.5 272t209.5 89z" />
    <glyph glyph-name="Sacute" unicode="&#x15a;" horiz-adv-x="1001" 
d="M518 1464q164 0 350 -86l-53 -108q-163 82 -295 82q-124 0 -192 -53.5t-68 -147.5q0 -70 42.5 -128t146.5 -132l217 -156q139 -98 198.5 -188t59.5 -207q0 -174 -117 -272.5t-318 -98.5q-119 0 -234 34.5t-208 94.5l57 105q189 -121 385 -121q147 0 231.5 68t84.5 184
q0 82 -48.5 151t-164.5 152l-225 164q-123 87 -174.5 166t-51.5 182q0 148 99.5 231.5t277.5 83.5z" />
    <glyph glyph-name="sacute" unicode="&#x15b;" horiz-adv-x="849" 
d="M444 -31q-218 0 -395 121l53 90q159 -110 347 -110q106 0 165.5 41t59.5 114q0 52 -37 92.5t-117 75.5l-178 82q-109 51 -160 113.5t-51 146.5q0 114 83 178t232 64q165 0 314 -76l-47 -94q-143 70 -267 70q-98 0 -151 -36.5t-53 -101.5q0 -54 36 -94t121 -78l170 -78
q115 -53 165 -114t50 -150q0 -120 -89.5 -188t-250.5 -68z" />
    <glyph glyph-name="Scircumflex" unicode="&#x15c;" horiz-adv-x="1001" 
d="M518 1464q164 0 350 -86l-53 -108q-163 82 -295 82q-124 0 -192 -53.5t-68 -147.5q0 -70 42.5 -128t146.5 -132l217 -156q139 -98 198.5 -188t59.5 -207q0 -174 -117 -272.5t-318 -98.5q-119 0 -234 34.5t-208 94.5l57 105q189 -121 385 -121q147 0 231.5 68t84.5 184
q0 82 -48.5 151t-164.5 152l-225 164q-123 87 -174.5 166t-51.5 182q0 148 99.5 231.5t277.5 83.5z" />
    <glyph glyph-name="scircumflex" unicode="&#x15d;" horiz-adv-x="849" 
d="M444 -31q-218 0 -395 121l53 90q159 -110 347 -110q106 0 165.5 41t59.5 114q0 52 -37 92.5t-117 75.5l-178 82q-109 51 -160 113.5t-51 146.5q0 114 83 178t232 64q165 0 314 -76l-47 -94q-143 70 -267 70q-98 0 -151 -36.5t-53 -101.5q0 -54 36 -94t121 -78l170 -78
q115 -53 165 -114t50 -150q0 -120 -89.5 -188t-250.5 -68z" />
    <glyph glyph-name="Scedilla" unicode="&#x15e;" horiz-adv-x="1001" 
d="M518 1464q164 0 350 -86l-53 -108q-163 82 -295 82q-124 0 -192 -53.5t-68 -147.5q0 -70 42.5 -128t146.5 -132l217 -156q139 -98 198.5 -188t59.5 -207q0 -174 -117 -272.5t-318 -98.5q-119 0 -234 34.5t-208 94.5l57 105q189 -121 385 -121q147 0 231.5 68t84.5 184
q0 82 -48.5 151t-164.5 152l-225 164q-123 87 -174.5 166t-51.5 182q0 148 99.5 231.5t277.5 83.5z" />
    <glyph glyph-name="scedilla" unicode="&#x15f;" horiz-adv-x="849" 
d="M444 -31q-218 0 -395 121l53 90q159 -110 347 -110q106 0 165.5 41t59.5 114q0 52 -37 92.5t-117 75.5l-178 82q-109 51 -160 113.5t-51 146.5q0 114 83 178t232 64q165 0 314 -76l-47 -94q-143 70 -267 70q-98 0 -151 -36.5t-53 -101.5q0 -54 36 -94t121 -78l170 -78
q115 -53 165 -114t50 -150q0 -120 -89.5 -188t-250.5 -68z" />
    <glyph glyph-name="Scaron" unicode="&#x160;" horiz-adv-x="1001" 
d="M518 1464q164 0 350 -86l-53 -108q-163 82 -295 82q-124 0 -192 -53.5t-68 -147.5q0 -70 42.5 -128t146.5 -132l217 -156q139 -98 198.5 -188t59.5 -207q0 -174 -117 -272.5t-318 -98.5q-119 0 -234 34.5t-208 94.5l57 105q189 -121 385 -121q147 0 231.5 68t84.5 184
q0 82 -48.5 151t-164.5 152l-225 164q-123 87 -174.5 166t-51.5 182q0 148 99.5 231.5t277.5 83.5z" />
    <glyph glyph-name="scaron" unicode="&#x161;" horiz-adv-x="849" 
d="M444 -31q-218 0 -395 121l53 90q159 -110 347 -110q106 0 165.5 41t59.5 114q0 52 -37 92.5t-117 75.5l-178 82q-109 51 -160 113.5t-51 146.5q0 114 83 178t232 64q165 0 314 -76l-47 -94q-143 70 -267 70q-98 0 -151 -36.5t-53 -101.5q0 -54 36 -94t121 -78l170 -78
q115 -53 165 -114t50 -150q0 -120 -89.5 -188t-250.5 -68z" />
    <glyph glyph-name="uni0162" unicode="&#x162;" horiz-adv-x="1046" 
d="M20 1434h1006v-109h-397q-36 0 -54 6l-2 -2q7 -21 7 -51v-1278h-113v1278q0 33 6 51l-2 2q-21 -6 -53 -6h-398v109z" />
    <glyph glyph-name="uni0163" unicode="&#x163;" horiz-adv-x="620" 
d="M354 1452h6v-446q0 -39 -10 -68l4 -2q16 10 64 10h143v-96h-143q-44 0 -64 10l-4 -2q10 -25 10 -65v-793h-102v793q0 45 8 65l-2 2q-20 -10 -63 -10h-142v96h142q47 0 63 -10l2 2q-8 23 -8 68v362z" />
    <glyph glyph-name="Tcaron" unicode="&#x164;" horiz-adv-x="1046" 
d="M20 1434h1006v-109h-397q-36 0 -54 6l-2 -2q7 -21 7 -51v-1278h-113v1278q0 33 6 51l-2 2q-21 -6 -53 -6h-398v109z" />
    <glyph glyph-name="tcaron" unicode="&#x165;" horiz-adv-x="620" 
d="M354 1452h6v-446q0 -39 -10 -68l4 -2q16 10 64 10h143v-96h-143q-44 0 -64 10l-4 -2q10 -25 10 -65v-793h-102v793q0 45 8 65l-2 2q-20 -10 -63 -10h-142v96h142q47 0 63 -10l2 2q-8 23 -8 68v362z" />
    <glyph glyph-name="Tbar" unicode="&#x166;" horiz-adv-x="1046" 
d="M20 1434h1006v-109h-397q-36 0 -54 6l-2 -2q7 -21 7 -51v-1278h-113v1278q0 33 6 51l-2 2q-21 -6 -53 -6h-398v109z" />
    <glyph glyph-name="tbar" unicode="&#x167;" horiz-adv-x="620" 
d="M354 1452h6v-446q0 -39 -10 -68l4 -2q16 10 64 10h143v-96h-143q-44 0 -64 10l-4 -2q10 -25 10 -65v-793h-102v793q0 45 8 65l-2 2q-20 -10 -63 -10h-142v96h142q47 0 63 -10l2 2q-8 23 -8 68v362z" />
    <glyph glyph-name="Utilde" unicode="&#x168;" horiz-adv-x="1390" 
d="M1116 1434h117v-912q0 -257 -144.5 -405t-394.5 -148q-249 0 -393.5 148.5t-144.5 404.5v912h118v-895q0 -213 112 -334t308 -121q197 0 309.5 121t112.5 334v895z" />
    <glyph glyph-name="utilde" unicode="&#x169;" horiz-adv-x="1077" 
d="M834 946h104v-946h-102q0 202 18 291l-8 4q-40 -165 -131 -245.5t-238 -80.5q-168 0 -258 107t-90 305v565h109v-557q0 -152 69.5 -235.5t196.5 -83.5q154 0 242 120.5t88 331.5v424z" />
    <glyph glyph-name="Umacron" unicode="&#x16a;" horiz-adv-x="1390" 
d="M1116 1434h117v-912q0 -257 -144.5 -405t-394.5 -148q-249 0 -393.5 148.5t-144.5 404.5v912h118v-895q0 -213 112 -334t308 -121q197 0 309.5 121t112.5 334v895z" />
    <glyph glyph-name="umacron" unicode="&#x16b;" horiz-adv-x="1077" 
d="M834 946h104v-946h-102q0 202 18 291l-8 4q-40 -165 -131 -245.5t-238 -80.5q-168 0 -258 107t-90 305v565h109v-557q0 -152 69.5 -235.5t196.5 -83.5q154 0 242 120.5t88 331.5v424z" />
    <glyph glyph-name="Ubreve" unicode="&#x16c;" horiz-adv-x="1390" 
d="M1116 1434h117v-912q0 -257 -144.5 -405t-394.5 -148q-249 0 -393.5 148.5t-144.5 404.5v912h118v-895q0 -213 112 -334t308 -121q197 0 309.5 121t112.5 334v895z" />
    <glyph glyph-name="ubreve" unicode="&#x16d;" horiz-adv-x="1077" 
d="M834 946h104v-946h-102q0 202 18 291l-8 4q-40 -165 -131 -245.5t-238 -80.5q-168 0 -258 107t-90 305v565h109v-557q0 -152 69.5 -235.5t196.5 -83.5q154 0 242 120.5t88 331.5v424z" />
    <glyph glyph-name="Uring" unicode="&#x16e;" horiz-adv-x="1390" 
d="M1116 1434h117v-912q0 -257 -144.5 -405t-394.5 -148q-249 0 -393.5 148.5t-144.5 404.5v912h118v-895q0 -213 112 -334t308 -121q197 0 309.5 121t112.5 334v895z" />
    <glyph glyph-name="uring" unicode="&#x16f;" horiz-adv-x="1077" 
d="M834 946h104v-946h-102q0 202 18 291l-8 4q-40 -165 -131 -245.5t-238 -80.5q-168 0 -258 107t-90 305v565h109v-557q0 -152 69.5 -235.5t196.5 -83.5q154 0 242 120.5t88 331.5v424z" />
    <glyph glyph-name="Uhungarumlaut" unicode="&#x170;" horiz-adv-x="1390" 
d="M1116 1434h117v-912q0 -257 -144.5 -405t-394.5 -148q-249 0 -393.5 148.5t-144.5 404.5v912h118v-895q0 -213 112 -334t308 -121q197 0 309.5 121t112.5 334v895z" />
    <glyph glyph-name="uhungarumlaut" unicode="&#x171;" horiz-adv-x="1077" 
d="M834 946h104v-946h-102q0 202 18 291l-8 4q-40 -165 -131 -245.5t-238 -80.5q-168 0 -258 107t-90 305v565h109v-557q0 -152 69.5 -235.5t196.5 -83.5q154 0 242 120.5t88 331.5v424z" />
    <glyph glyph-name="Uogonek" unicode="&#x172;" horiz-adv-x="1390" 
d="M1116 1434h117v-912q0 -257 -144.5 -405t-394.5 -148q-249 0 -393.5 148.5t-144.5 404.5v912h118v-895q0 -213 112 -334t308 -121q197 0 309.5 121t112.5 334v895z" />
    <glyph glyph-name="uogonek" unicode="&#x173;" horiz-adv-x="1077" 
d="M834 946h104v-946h-102q0 202 18 291l-8 4q-40 -165 -131 -245.5t-238 -80.5q-168 0 -258 107t-90 305v565h109v-557q0 -152 69.5 -235.5t196.5 -83.5q154 0 242 120.5t88 331.5v424z" />
    <glyph glyph-name="Wcircumflex" unicode="&#x174;" horiz-adv-x="1931" 
d="M956 1462h17l325 -960q52 -151 74 -271h8q19 117 70 267l313 936h131l-512 -1463h-12l-356 1030q-37 113 -45 187h-8q-5 -72 -43 -187l-357 -1030h-12l-512 1463h131l311 -936q52 -146 72 -267h8q22 120 74 271z" />
    <glyph glyph-name="wcircumflex" unicode="&#x175;" horiz-adv-x="1449" 
d="M420 -18h-19l-381 964h121l219 -586q41 -108 48 -184h8q9 69 55 184l244 605h18l244 -605q48 -112 57 -184h8q4 69 48 184l217 586h123l-383 -964h-19l-254 622q-24 57 -32 88.5t-13 79.5h-8q-8 -76 -45 -168z" />
    <glyph glyph-name="Ycircumflex" unicode="&#x176;" horiz-adv-x="1110" 
d="M942 1434h141l-473 -883v-551h-112v551l-471 883h139l311 -609q39 -75 52.5 -108t23.5 -82h4q10 48 23 81.5t51 108.5z" />
    <glyph glyph-name="ycircumflex" unicode="&#x177;" horiz-adv-x="950" 
d="M817 946h113l-596 -1356h-109l209 480l-414 876h121l275 -602q35 -76 48 -114.5t19 -86.5h9q7 75 63 199z" />
    <glyph glyph-name="Ydieresis" unicode="&#x178;" horiz-adv-x="1110" 
d="M942 1434h141l-473 -883v-551h-112v551l-471 883h139l311 -609q39 -75 52.5 -108t23.5 -82h4q10 48 23 81.5t51 108.5z" />
    <glyph glyph-name="Zacute" unicode="&#x179;" horiz-adv-x="1185" 
d="M174 1434h956l3 -4l-900 -1334l3 -4q43 21 180 21h731l-57 -113h-1053v6l903 1335l-2 5q-65 -25 -190 -25h-631z" />
    <glyph glyph-name="zacute" unicode="&#x17a;" horiz-adv-x="921" 
d="M817 0h-786l-4 10l680 852l-5 4q-36 -16 -73 -20t-131 -4h-420l63 104h744l4 -8l-676 -852l4 -4q34 15 66 18.5t112 3.5h492z" />
    <glyph glyph-name="Zdotaccent" unicode="&#x17b;" horiz-adv-x="1185" 
d="M174 1434h956l3 -4l-900 -1334l3 -4q43 21 180 21h731l-57 -113h-1053v6l903 1335l-2 5q-65 -25 -190 -25h-631z" />
    <glyph glyph-name="zdotaccent" unicode="&#x17c;" horiz-adv-x="921" 
d="M817 0h-786l-4 10l680 852l-5 4q-36 -16 -73 -20t-131 -4h-420l63 104h744l4 -8l-676 -852l4 -4q34 15 66 18.5t112 3.5h492z" />
    <glyph glyph-name="Zcaron" unicode="&#x17d;" horiz-adv-x="1185" 
d="M174 1434h956l3 -4l-900 -1334l3 -4q43 21 180 21h731l-57 -113h-1053v6l903 1335l-2 5q-65 -25 -190 -25h-631z" />
    <glyph glyph-name="zcaron" unicode="&#x17e;" horiz-adv-x="921" 
d="M817 0h-786l-4 10l680 852l-5 4q-36 -16 -73 -20t-131 -4h-420l63 104h744l4 -8l-676 -852l4 -4q34 15 66 18.5t112 3.5h492z" />
    <glyph glyph-name="AEacute" unicode="&#x1fc;" horiz-adv-x="2400" 
d="M154 0h-125l641 1464h14l641 -1464h-125l-199 461h-649zM1524 1434h786v-107h-624q-42 0 -54 4l-2 -2q6 -18 6 -49v-389q0 -31 -6 -49l2 -2q12 4 54 4h559v-107h-559q-36 0 -54 6l-2 -2q6 -18 6 -51v-536q0 -32 -6 -50l2 -2q12 4 54 4h632v-106h-794v1434zM383 559v-2
q36 4 115 4h356q79 0 115 -4l2 2q-31 45 -62 119l-174 412q-50 123 -55 176h-8q-6 -56 -54 -176l-174 -412q-32 -77 -61 -119z" />
    <glyph glyph-name="aeacute" unicode="&#x1fd;" horiz-adv-x="2142" 
d="M520 977q195 0 287 -90t92 -279v-608h-102q0 80 12 186l-4 2q-46 -102 -144 -160.5t-223 -58.5q-165 0 -266.5 93.5t-101.5 244.5q0 154 101 245t271 91q124 0 222 -57t139 -152l6 4q-7 25 -8.5 50t-1.5 114q-1 139 -70.5 205.5t-210.5 66.5q-140 0 -317 -57l-31 103
q196 57 350 57zM1606 977q207 0 328.5 -133t121.5 -359v-24h-741q-66 0 -86 10l-2 -2l4 -18q3 -175 107 -278t276 -103q107 0 189.5 44t160.5 144l74 -68q-162 -221 -426 -221q-223 0 -356.5 138t-133.5 368q0 229 132 365.5t352 136.5zM1604 879q-160 0 -259.5 -92
t-113.5 -250l2 -2q25 14 84 14h534q55 0 93 -12l2 2q-12 162 -101.5 251t-240.5 89zM461 547q-126 0 -202.5 -67t-76.5 -177q0 -107 76.5 -172t202.5 -65q134 0 225.5 69t91.5 170t-92 171.5t-225 70.5z" />
    <glyph glyph-name="Oslashacute" unicode="&#x1fe;" horiz-adv-x="1669" 
d="M836 1464q160 0 299 -56t237.5 -154.5t154.5 -237.5t56 -299q0 -214 -95.5 -385t-266.5 -267t-385 -96t-385 96t-267 267t-96 385t96 385t267 266.5t385 95.5zM836 1352q-275 0 -451 -178.5t-176 -456.5t176 -456.5t451 -178.5q180 0 323 81t223 226t80 328t-80 328
t-223 226t-323 81z" />
    <glyph glyph-name="oslashacute" unicode="&#x1ff;" horiz-adv-x="1183" 
d="M592 977q223 0 365.5 -141.5t142.5 -362.5q0 -220 -143 -362t-365 -142q-221 0 -364.5 142t-143.5 362q0 221 143 362.5t365 141.5zM592 874q-174 0 -285.5 -112t-111.5 -289q0 -175 112 -288t285 -113t285 113t112 288q0 177 -111.5 289t-285.5 112z" />
    <glyph glyph-name="uni0218" unicode="&#x218;" horiz-adv-x="1001" 
d="M518 1464q164 0 350 -86l-53 -108q-163 82 -295 82q-124 0 -192 -53.5t-68 -147.5q0 -70 42.5 -128t146.5 -132l217 -156q139 -98 198.5 -188t59.5 -207q0 -174 -117 -272.5t-318 -98.5q-119 0 -234 34.5t-208 94.5l57 105q189 -121 385 -121q147 0 231.5 68t84.5 184
q0 82 -48.5 151t-164.5 152l-225 164q-123 87 -174.5 166t-51.5 182q0 148 99.5 231.5t277.5 83.5z" />
    <glyph glyph-name="uni0219" unicode="&#x219;" horiz-adv-x="849" 
d="M444 -31q-218 0 -395 121l53 90q159 -110 347 -110q106 0 165.5 41t59.5 114q0 52 -37 92.5t-117 75.5l-178 82q-109 51 -160 113.5t-51 146.5q0 114 83 178t232 64q165 0 314 -76l-47 -94q-143 70 -267 70q-98 0 -151 -36.5t-53 -101.5q0 -54 36 -94t121 -78l170 -78
q115 -53 165 -114t50 -150q0 -120 -89.5 -188t-250.5 -68z" />
    <glyph glyph-name="uni021A" unicode="&#x21a;" horiz-adv-x="1046" 
d="M20 1434h1006v-109h-397q-36 0 -54 6l-2 -2q7 -21 7 -51v-1278h-113v1278q0 33 6 51l-2 2q-21 -6 -53 -6h-398v109z" />
    <glyph glyph-name="uni021B" unicode="&#x21b;" horiz-adv-x="620" 
d="M354 1452h6v-446q0 -39 -10 -68l4 -2q16 10 64 10h143v-96h-143q-44 0 -64 10l-4 -2q10 -25 10 -65v-793h-102v793q0 45 8 65l-2 2q-20 -10 -63 -10h-142v96h142q47 0 63 -10l2 2q-8 23 -8 68v362z" />
    <glyph glyph-name="uni0237" unicode="&#x237;" 
d="M147 1434h121v-267h-121v267zM156 946h104v-1087q0 -299 -285 -299h-18v104h20q88 0 133.5 46.5t45.5 148.5v1087z" />
    <glyph glyph-name="uni0394" unicode="&#x394;" horiz-adv-x="1286" 
d="M588 1434h110l547 -1434h-1204zM1106 55l-463 1258l-463 -1258h926z" />
    <glyph glyph-name="uni03A9" unicode="&#x3a9;" horiz-adv-x="1630" 
d="M815 1464q218 0 384 -89.5t254.5 -247.5t88.5 -361q0 -265 -158 -443t-426 -233v-4q70 12 148 12h393v-98h-602v166q248 41 393.5 202.5t145.5 389.5q0 267 -168.5 435.5t-452.5 168.5t-452 -168.5t-168 -435.5q0 -229 145 -390t393 -202v-166h-602v98h393q72 0 148 -12
v4q-268 55 -426 233t-158 443q0 203 88.5 361t254.5 247.5t384 89.5z" />
    <glyph glyph-name="uni03BC" unicode="&#x3bc;" horiz-adv-x="1077" 
d="M834 522v424h104v-946h-102q0 202 18 291l-8 4q-40 -165 -131 -245.5t-238 -80.5q-157 0 -248 94v-473h-100v1356h109v-557q0 -152 69.5 -235.5t196.5 -83.5q154 0 242 120.5t88 331.5z" />
    <glyph glyph-name="pi" unicode="&#x3c0;" horiz-adv-x="1236" 
d="M344 977h832v-98h-232v-879h-102v879h-373l-199 -879h-104l199 879h-9q-171 0 -295 -41v98q115 41 283 41z" />
    <glyph glyph-name="uni0401" unicode="&#x401;" horiz-adv-x="1046" 
d="M170 1434h786v-107h-624q-41 0 -53 4l-3 -2q7 -21 7 -49v-389q0 -28 -7 -49l3 -2q12 4 53 4h559v-107h-559q-35 0 -53 6l-3 -2q7 -21 7 -51v-536q0 -29 -7 -50l3 -2q12 4 53 4h633v-106h-795v1434z" />
    <glyph glyph-name="uni0404" unicode="&#x404;" horiz-adv-x="1425" 
d="M807 -31q-327 0 -523 202.5t-196 545.5t196 545t523 202q298 0 536 -161l-61 -99q-220 148 -477 148q-243 0 -401 -142.5t-189 -388.5q-6 -38 -12 -53l2 -4q18 6 57 6h723v-106h-723q-39 0 -57 6l-2 -2q6 -18 12 -56q31 -246 189 -388t401 -142q258 0 477 147l61 -98
q-240 -162 -536 -162z" />
    <glyph glyph-name="uni0405" unicode="&#x405;" horiz-adv-x="1001" 
d="M518 1464q164 0 350 -86l-53 -108q-163 82 -295 82q-124 0 -192 -53.5t-68 -147.5q0 -70 42.5 -128t146.5 -132l217 -156q139 -98 198.5 -188t59.5 -207q0 -174 -117 -272.5t-318 -98.5q-119 0 -234 34.5t-208 94.5l57 105q189 -121 385 -121q147 0 231.5 68t84.5 184
q0 82 -48.5 151t-164.5 152l-225 164q-123 87 -174.5 166t-51.5 182q0 148 99.5 231.5t277.5 83.5z" />
    <glyph glyph-name="uni0406" unicode="&#x406;" horiz-adv-x="450" 
d="M170 1434h113v-1434h-113v1434z" />
    <glyph glyph-name="uni0408" unicode="&#x408;" horiz-adv-x="559" 
d="M279 1434h112v-1143q0 -155 -63 -228t-197 -73q-14 0 -80 4v110q62 -4 70 -4q81 0 119.5 45t38.5 144v1145z" />
    <glyph glyph-name="uni040F" unicode="&#x40f;" horiz-adv-x="1423" 
d="M766 -287h-109v240q0 28 7 49l-2 2q-14 -4 -54 -4h-438v1434h113v-1280q0 -29 -7 -50l3 -2q12 4 53 4h762q39 0 51 -4l4 2q-6 18 -6 50v1280h112v-1434h-440q-39 0 -51 4l-4 -2q6 -18 6 -49v-240z" />
    <glyph glyph-name="uni0410" unicode="&#x410;" horiz-adv-x="1353" 
d="M154 0h-125l641 1464h14l641 -1464h-125l-199 461h-649zM383 559v-2q36 4 115 4h356q79 0 115 -4l2 2q-31 45 -62 119l-174 412q-50 123 -55 176h-8q-6 -56 -54 -176l-174 -412q-32 -77 -61 -119z" />
    <glyph glyph-name="uni0411" unicode="&#x411;" horiz-adv-x="1228" 
d="M672 811q202 0 322 -108.5t120 -296.5q0 -187 -120 -296.5t-322 -109.5h-502v1434h870v-107h-708q-41 0 -53 4l-3 -2q7 -21 7 -49v-422q0 -28 -7 -49l3 -2q12 4 53 4h340zM651 106q169 0 256.5 80.5t87.5 219.5t-87.5 219t-256.5 80h-319q-35 0 -53 6l-3 -2q7 -21 7 -52
v-503q0 -29 -7 -50l3 -2q12 4 53 4h319z" />
    <glyph glyph-name="uni0412" unicode="&#x412;" horiz-adv-x="1271" 
d="M688 0h-518v1434h498q185 0 291 -93t106 -256q0 -207 -180 -290q-65 -24 -129 -31v-8q60 0 131 -15q132 -32 201 -121.5t69 -226.5q0 -185 -124 -289t-345 -104zM276 801l3 -2q10 4 53 4h276q161 0 249.5 72.5t88.5 203.5q0 120 -74 184t-213 64h-327q-43 0 -53 4l-3 -2
q7 -21 7 -49v-430q0 -28 -7 -49zM276 104l3 -2q10 4 53 4h348q356 0 356 291q0 149 -97.5 226t-287.5 77h-319q-41 0 -53 7l-3 -5q7 -18 7 -49v-499q0 -29 -7 -50z" />
    <glyph glyph-name="uni0413" unicode="&#x413;" horiz-adv-x="991" 
d="M170 1434h801v-107h-639q-41 0 -53 4l-3 -2q7 -21 7 -49v-1280h-113v1434z" />
    <glyph glyph-name="uni0414" unicode="&#x414;" horiz-adv-x="1351" 
d="M135 -287h-108v389h110q25 0 45 -8l2 2q3 28 19 60q192 394 192 950v328h744v-1284q0 -32 -6 -50l2 -2q12 4 53 4h80v-389h-111v236q0 34 6 49l-2 4q-12 -6 -53 -6h-924q-41 0 -53 6l-2 -4q6 -15 6 -49v-236zM293 100l2 -4q12 6 55 6h627q39 0 51 -4l4 2q-6 18 -6 50
v1130q0 31 6 49l-4 2q-12 -4 -51 -4h-420q-41 0 -53 4l-2 -2q6 -18 6 -49v-180q0 -272 -54.5 -540.5t-160.5 -459.5z" />
    <glyph glyph-name="uni0415" unicode="&#x415;" horiz-adv-x="1046" 
d="M170 1434h786v-107h-624q-41 0 -53 4l-3 -2q7 -21 7 -49v-389q0 -28 -7 -49l3 -2q12 4 53 4h559v-107h-559q-35 0 -53 6l-3 -2q7 -21 7 -51v-536q0 -29 -7 -50l3 -2q12 4 53 4h633v-106h-795v1434z" />
    <glyph glyph-name="uni0416" unicode="&#x416;" horiz-adv-x="1835" 
d="M139 -4q-30 0 -84 4v113q50 -4 72 -4q71 0 113 30.5t63 108.5l82 327q23 96 76 137t155 46v4q-106 5 -165.5 50t-92.5 153l-75 245q-21 65 -65.5 92t-121.5 27q-19 0 -55 -4v109q58 4 86 4q97 0 158.5 -39.5t93.5 -136.5l84 -261q34 -106 94 -149t162 -43h88q39 0 63 -6
l2 2q-10 42 -10 82v547h111v-547q0 -40 -10 -82l2 -2q30 6 63 6h90q102 0 161 42.5t93 149.5l86 261q31 97 92 136.5t158 39.5q32 0 86 -4v-109q-36 4 -55 4q-77 0 -120.5 -27t-64.5 -92l-77 -245q-33 -109 -91.5 -153.5t-166.5 -49.5v-4q103 -5 155.5 -46t77.5 -137
l82 -327q19 -78 61 -108.5t115 -30.5q22 0 72 4v-113q-58 -4 -86 -4q-112 0 -174.5 46.5t-89.5 156.5l-91 344q-22 87 -74.5 125.5t-148.5 38.5h-90q-43 0 -63 4l-2 -2q10 -38 10 -86v-623h-111v623q0 48 10 86l-2 2q-16 -4 -63 -4h-88q-97 0 -149.5 -38t-75.5 -126
l-88 -344q-29 -110 -92 -156.5t-175 -46.5z" />
    <glyph glyph-name="uni0417" unicode="&#x417;" horiz-adv-x="1191" 
d="M571 -31q-282 0 -489 119l55 107q200 -115 434 -115q182 0 283.5 75t101.5 234q0 165 -113 243.5t-337 78.5h-201v102h199q190 0 293.5 74t103.5 215q0 117 -80.5 184.5t-240.5 67.5q-235 0 -428 -105l-48 105q212 110 482 110q219 0 327.5 -90.5t108.5 -259.5
q0 -122 -63 -201.5t-179 -115.5q-79 -24 -164 -27v-6q92 0 160 -12q140 -26 219.5 -116t79.5 -251q0 -200 -125.5 -308t-378.5 -108z" />
    <glyph glyph-name="uni0418" unicode="&#x418;" horiz-adv-x="1443" 
d="M383 381l877 1073h14v-1454h-113v958q0 146 17 256l-4 3q-22 -50 -113 -162l-877 -1075h-14v1454h113v-957q0 -145 -17 -258l4 -2q24 55 113 164z" />
    <glyph glyph-name="uni0419" unicode="&#x419;" horiz-adv-x="1443" 
d="M383 381l877 1073h14v-1454h-113v958q0 146 17 256l-4 3q-22 -50 -113 -162l-877 -1075h-14v1454h113v-957q0 -145 -17 -258l4 -2q24 55 113 164z" />
    <glyph glyph-name="uni041A" unicode="&#x41a;" horiz-adv-x="1232" 
d="M1085 -6q-109 0 -171.5 46.5t-90.5 158.5l-84 331q-22 94 -76 134.5t-155 40.5h-170q-48 0 -64 4l-2 -2q11 -42 11 -86v-621h-113v1434h113v-551q0 -40 -11 -82l2 -2q12 6 64 6h170q104 0 161 44.5t93 160.5l82 250q55 180 254 180q54 0 88 -6v-109q-36 4 -58 4
q-76 0 -120.5 -27.5t-65.5 -91.5l-76 -245q-34 -114 -94 -158t-166 -47v-6q107 -5 163.5 -44.5t80.5 -142.5l78 -319q21 -81 62 -112.5t114 -31.5q16 0 78 5v-109q-50 -6 -97 -6z" />
    <glyph glyph-name="uni041B" unicode="&#x41b;" horiz-adv-x="1484" 
d="M301 1434h1016v-1434h-113v1280q0 31 6 49l-4 2q-12 -4 -51 -4h-692q-39 0 -51 4l-4 -2q6 -18 6 -49v-989q0 -154 -62.5 -227.5t-197.5 -73.5q-13 0 -103 4v110q41 -4 94 -4q79 0 117.5 43.5t38.5 143.5v1147z" />
    <glyph glyph-name="uni041C" unicode="&#x41c;" horiz-adv-x="1755" 
d="M883 -27h-11l-362 967q-51 138 -64 231h-8q-3 -102 -39 -233l-245 -938h-117l383 1462h14l391 -1046q29 -79 49 -193h9q16 108 47 193l391 1046h14l383 -1462h-116l-246 938q-36 131 -39 233h-8q-12 -91 -62 -231z" />
    <glyph glyph-name="uni041D" unicode="&#x41d;" horiz-adv-x="1423" 
d="M1143 1434h112v-1434h-112v666q0 33 6 51l-4 2q-18 -6 -51 -6h-762q-35 0 -53 6l-3 -2q7 -21 7 -51v-666h-113v1434h113v-566q0 -32 -7 -49l3 -4q12 6 53 6h762q39 0 51 -6l4 4q-6 15 -6 49v566z" />
    <glyph glyph-name="uni041E" unicode="&#x41e;" horiz-adv-x="1669" 
d="M836 1464q160 0 299 -56t237.5 -154.5t154.5 -237.5t56 -299q0 -214 -95.5 -385t-266.5 -267t-385 -96t-385 96t-267 267t-96 385t96 385t267 266.5t385 95.5zM836 1352q-275 0 -451 -178.5t-176 -456.5t176 -456.5t451 -178.5q180 0 323 81t223 226t80 328t-80 328
t-223 226t-323 81z" />
    <glyph glyph-name="uni041F" unicode="&#x41f;" horiz-adv-x="1433" 
d="M170 1434h1094v-1434h-113v1280q0 31 6 49l-2 2q-14 -4 -53 -4h-770q-41 0 -53 4l-3 -2q7 -21 7 -49v-1280h-113v1434z" />
    <glyph glyph-name="uni0420" unicode="&#x420;" horiz-adv-x="1075" 
d="M170 1434h440q191 0 305.5 -104.5t114.5 -280.5q0 -175 -113.5 -279t-302.5 -104h-282q-43 0 -53 6l-3 -4q7 -17 7 -50v-618h-113v1434zM279 1331l-3 -2q7 -21 7 -49v-459q0 -30 -7 -51l3 -2q10 4 53 4h278q140 0 220.5 74.5t80.5 202.5q0 129 -80 203.5t-221 74.5h-278
q-43 0 -53 4z" />
    <glyph glyph-name="uni0421" unicode="&#x421;" horiz-adv-x="1429" 
d="M850 -31q-342 0 -552 206.5t-210 541.5t210 541t552 206q274 0 498 -164l-70 -96q-105 77 -207 112.5t-223 35.5q-284 0 -461.5 -176.5t-177.5 -458.5t177.5 -458.5t461.5 -176.5q121 0 223 35t207 112l70 -96q-224 -164 -498 -164z" />
    <glyph glyph-name="uni0422" unicode="&#x422;" horiz-adv-x="1046" 
d="M20 1434h1006v-109h-397q-36 0 -54 6l-2 -2q7 -21 7 -51v-1278h-113v1278q0 33 6 51l-2 2q-21 -6 -53 -6h-398v109z" />
    <glyph glyph-name="uni0423" unicode="&#x423;" horiz-adv-x="1247" 
d="M322 -12q-62 0 -144 14v107q81 -15 148 -15q36 0 64.5 8.5t63 34t68.5 80t66 137.5l-561 1080h133l405 -791q51 -97 61 -122.5t21 -82.5l6 2q6 51 19.5 91.5t48.5 117.5l373 785h127l-541 -1139q-39 -95 -83 -158t-90.5 -94.5t-89 -43t-95.5 -11.5z" />
    <glyph glyph-name="uni0424" unicode="&#x424;" horiz-adv-x="1716" 
d="M913 -82h-108v102q0 31 6 52l-2 2q-14 -4 -74 -4q-130 0 -246 43t-205.5 122.5t-142.5 204t-53 277.5t53 277.5t142.5 204t205.5 122.5t246 43q60 0 74 -4l2 2q-6 18 -6 51v103h108v-103q0 -35 -8 -51l2 -2q16 4 74 4q130 0 246 -43t206.5 -122.5t143.5 -204t53 -277.5
t-53 -277.5t-143.5 -204t-206.5 -122.5t-246 -43q-58 0 -74 4l-2 -2q8 -19 8 -52v-102zM815 172l2 2q-8 19 -8 53v979q0 35 8 54l-2 2q-17 -5 -72 -5q-109 -1 -204 -35.5t-169.5 -99.5t-117.5 -169.5t-43 -235.5t43 -235.5t117.5 -170t169.5 -100t204 -35.5q58 0 72 -4z
M901 174l2 -2q14 4 72 4q108 1 203 35.5t169.5 100t118 170t43.5 235.5t-43.5 235.5t-118 169.5t-169.5 99.5t-203 35.5q-55 0 -72 5l-2 -2q6 -21 6 -54v-979q0 -32 -6 -53z" />
    <glyph glyph-name="uni0425" unicode="&#x425;" horiz-adv-x="1208" 
d="M987 1434h139l-352 -533q-65 -100 -100 -143v-4q14 -16 29 -36t24.5 -34.5t37 -54.5t44.5 -66l371 -563h-142l-358 549q-60 98 -72 133h-8q-14 -44 -74 -133l-358 -549h-139l370 563q102 153 136 191v4q-21 26 -103 143l-352 533h141l291 -449q76 -116 88 -151h8
q11 33 86 151z" />
    <glyph glyph-name="uni0426" unicode="&#x426;" horiz-adv-x="1445" 
d="M1360 -287h-111v240q0 25 8 49l-4 2q-12 -4 -53 -4h-1030v1434h113v-1280q0 -23 -9 -50l5 -2q12 4 53 4h729q39 0 53 -4l2 2q-6 18 -6 50v1280h113v-1280q0 -23 -9 -50l5 -2q12 4 53 4h88v-393z" />
    <glyph glyph-name="uni0427" unicode="&#x427;" horiz-adv-x="1191" 
d="M1024 0h-113v610q0 36 7 60l-3 2q-246 -82 -481 -82q-189 0 -285 100t-96 314v430h113v-430q0 -163 71.5 -232.5t206.5 -69.5q105 0 210 18.5t257 61.5v652h113v-1434z" />
    <glyph glyph-name="uni0428" unicode="&#x428;" horiz-adv-x="2107" 
d="M1939 0h-1769v1434h113v-1280q0 -23 -9 -50l5 -2q12 4 53 4h616q41 0 53 -4l3 2q-7 21 -7 50v1280h113v-1280q0 -32 -6 -50l2 -2q12 4 53 4h619q41 0 53 -4l2 2q-6 18 -6 50v1280h112v-1434z" />
    <glyph glyph-name="uni0429" unicode="&#x429;" horiz-adv-x="2162" 
d="M1989 106h90v-393h-111v240q0 31 6 49l-2 2q-12 -4 -53 -4h-1749v1434h113v-1280q0 -23 -9 -50l5 -2q12 4 53 4h616q41 0 53 -4l3 2q-7 21 -7 50v1280h113v-1280q0 -32 -6 -50l2 -2q12 4 53 4h619q41 0 53 -4l2 2q-6 18 -6 50v1280h112v-1280q0 -32 -6 -50l2 -2
q12 4 54 4z" />
    <glyph glyph-name="uni042A" unicode="&#x42a;" horiz-adv-x="1386" 
d="M569 811h334q211 0 331 -109.5t120 -295.5t-120 -296t-331 -110h-495v1280q0 33 8 49l-4 2q-12 -4 -54 -4h-338v107h500v-576q0 -31 -6 -49l4 -2q12 4 51 4zM569 106h328q163 0 249.5 80.5t86.5 219.5q0 138 -86 218.5t-250 80.5h-328q-33 0 -51 6l-4 -2q6 -18 6 -52
v-503q0 -32 -6 -50l4 -2q12 4 51 4z" />
    <glyph glyph-name="uni042B" unicode="&#x42b;" horiz-adv-x="1511" 
d="M664 811q211 0 330.5 -109.5t119.5 -295.5t-120 -296t-330 -110h-494v1434h113v-576q0 -28 -7 -49l3 -2q12 4 53 4h332zM1229 0v1434h112v-1434h-112zM659 106q162 0 249 81t87 219t-87 218.5t-249 80.5h-327q-35 0 -53 6l-3 -2q7 -21 7 -52v-503q0 -29 -7 -50l3 -2
q12 4 53 4h327z" />
    <glyph glyph-name="uni042C" unicode="&#x42c;" horiz-adv-x="1146" 
d="M664 811q211 0 330.5 -109.5t119.5 -295.5t-120 -296t-330 -110h-494v1434h113v-576q0 -28 -7 -49l3 -2q12 4 53 4h332zM659 106q162 0 249 81t87 219t-87 218.5t-249 80.5h-327q-35 0 -53 6l-3 -2q7 -21 7 -52v-503q0 -29 -7 -50l3 -2q12 4 53 4h327z" />
    <glyph glyph-name="uni042D" unicode="&#x42d;" horiz-adv-x="1425" 
d="M618 -31q-296 0 -536 162l61 98q222 -147 478 -147q243 0 400.5 142t188.5 388q5 33 13 56l-2 2q-18 -6 -58 -6h-723v106h723q40 0 58 -6l2 4q-8 19 -13 53q-31 246 -188.5 388.5t-400.5 142.5q-254 0 -478 -148l-61 99q238 161 536 161q327 0 524 -202t197 -545
t-197 -545.5t-524 -202.5z" />
    <glyph glyph-name="uni042E" unicode="&#x42e;" horiz-adv-x="2088" 
d="M1253 1464q214 0 385 -95.5t267 -266.5t96 -385t-96 -385t-267 -267t-385 -96q-206 0 -372 88.5t-264 247.5t-109 361h-178q-31 0 -49 6l-5 -2q7 -21 7 -54v-616h-113v1434h113v-613q0 -32 -7 -53l5 -2q18 6 49 6h178q19 305 226.5 498.5t518.5 193.5zM1253 82
q275 0 451 178.5t176 456.5q0 182 -79.5 326.5t-223 225.5t-324.5 81q-180 0 -323 -81t-223 -225.5t-80 -326.5q0 -183 80 -328t223 -226t323 -81z" />
    <glyph glyph-name="uni042F" unicode="&#x42f;" horiz-adv-x="1204" 
d="M555 1434h479v-1434h-112v647q0 33 6 51l-2 2q-12 -4 -52 -4h-155l-537 -696h-149l483 623q50 59 88 79v9q-32 -11 -67 -11q-172 0 -278.5 101t-106.5 264q0 169 108 269t295 100zM928 1329l-2 2q-12 -4 -54 -4h-319q-127 0 -205 -65.5t-78 -196.5t78.5 -196.5
t204.5 -65.5h319q42 0 54 -4l2 2q-6 18 -6 49v430q0 31 6 49z" />
    <glyph glyph-name="uni0430" unicode="&#x430;" horiz-adv-x="1038" 
d="M520 977q195 0 287 -90t92 -279v-608h-102q0 80 12 186l-4 2q-46 -102 -144 -160.5t-223 -58.5q-165 0 -266.5 93.5t-101.5 244.5q0 154 101 245t271 91q124 0 222 -57t139 -152l6 4q-7 25 -8.5 50t-1.5 114q-1 139 -70.5 205.5t-210.5 66.5q-140 0 -317 -57l-31 103
q196 57 350 57zM461 547q-126 0 -202.5 -67t-76.5 -177q0 -107 76.5 -172t202.5 -65q134 0 225.5 69t91.5 170t-92 171.5t-225 70.5z" />
    <glyph glyph-name="uni0431" unicode="&#x431;" horiz-adv-x="1202" 
d="M608 -31q-240 0 -382 158t-142 471q0 211 66 367t206 231q56 30 135.5 54.5t181 48t113.5 26.5q113 35 123 119h103q0 -83 -45.5 -132.5t-141.5 -74.5q-10 -2 -115 -26t-178 -45.5t-122 -47.5q-226 -119 -242 -549h8q15 129 82.5 219.5t165 131.5t217.5 41
q214 2 344.5 -131t130.5 -355q0 -226 -139 -366t-369 -140zM612 72q174 0 285 108.5t111 288.5q0 123 -54 213.5t-142.5 135t-197.5 44.5q-113 0 -205 -45.5t-148 -136t-56 -209.5q0 -182 116 -290.5t291 -108.5z" />
    <glyph glyph-name="uni0432" unicode="&#x432;" horiz-adv-x="983" 
d="M762 467q137 -46 137 -209q0 -124 -82 -191t-217 -67h-450v946h448q134 0 206.5 -61.5t72.5 -171.5q0 -67 -29.5 -118t-83.5 -77q-50 -23 -123 -26v-9q65 0 121 -16zM244 858l-2 -2q10 -18 10 -53v-225q0 -42 -8 -58l2 -2q18 10 53 10h236q117 0 173 46.5t56 123.5
q0 152 -191 152h-272q-41 0 -57 8zM582 96q204 0 204 172q0 170 -235 170h-252q-34 0 -53 11l-2 -3q8 -16 8 -55v-248q0 -33 -10 -53l2 -2q16 8 57 8h281z" />
    <glyph glyph-name="uni0433" unicode="&#x433;" horiz-adv-x="757" 
d="M252 0h-102v946h598v-96h-447q-41 0 -57 8l-2 -2q10 -20 10 -53v-803z" />
    <glyph glyph-name="uni0434" unicode="&#x434;" horiz-adv-x="1083" 
d="M135 -287h-98v383h67q34 0 48 -8l2 2q-3 23 12 49q156 273 156 613v194h596v-803q0 -31 -11 -53l2 -2q16 8 58 8h51v-383h-98v240q0 33 10 53l-2 2q-16 -8 -58 -8h-686q-41 0 -57 8l-2 -2q10 -20 10 -53v-240zM246 90l2 -2q16 8 59 8h461q43 0 57 -8l2 2q-10 20 -10 53
v660q0 33 10 53l-2 2q-19 -8 -57 -8h-297q-36 0 -57 8l-2 -2q10 -20 10 -53v-101q0 -163 -54.5 -348.5t-121.5 -263.5z" />
    <glyph glyph-name="uni0435" unicode="&#x435;" horiz-adv-x="1103" 
d="M567 977q207 0 329 -133t122 -359v-24h-742q-66 0 -86 10l-2 -2l5 -18q3 -175 106.5 -278t275.5 -103q108 0 190.5 44t160.5 144l73 -68q-162 -221 -426 -221q-223 0 -356 138t-133 368q0 229 131.5 365.5t351.5 136.5zM565 879q-159 0 -258.5 -91.5t-113.5 -250.5l2 -2
q25 14 84 14h534q55 0 92 -12l2 2q-12 162 -101.5 251t-240.5 89z" />
    <glyph glyph-name="uni0436" unicode="&#x436;" horiz-adv-x="1349" 
d="M117 -4h-84v94h65q46 0 73 24t42 76l51 179q20 65 66 93.5t127 31.5v4q-82 3 -130 33.5t-75 105.5l-51 135q-29 84 -109 84h-57v94h74q128 0 174 -112l63 -162q28 -75 66 -106t106 -31h51q48 0 64 -4l2 2q-10 42 -10 81v328h98v-328q0 -50 -10 -81l2 -2q20 4 63 4h53
q68 0 106.5 31t66.5 106l63 162q46 112 172 112h76v-94h-58q-42 0 -67 -20t-43 -64l-49 -135q-28 -75 -75.5 -105.5t-129.5 -33.5v-4q81 -3 126.5 -31.5t63.5 -93.5l54 -179q15 -52 41.5 -76t72.5 -24h66v-94h-86q-77 0 -121.5 36t-65.5 107l-49 172q-20 71 -59.5 104.5
t-104.5 33.5h-53q-43 0 -63 4l-2 -2q10 -31 10 -86v-365h-98v365q0 44 10 86l-2 2q-16 -4 -64 -4h-51q-65 0 -104.5 -33.5t-59.5 -104.5l-49 -172q-21 -72 -65 -107.5t-123 -35.5z" />
    <glyph glyph-name="uni0437" unicode="&#x437;" horiz-adv-x="917" 
d="M434 -31q-209 0 -393 92l47 95q168 -86 358 -86q281 0 281 190q0 102 -68 147.5t-223 45.5h-117v96h113q246 0 246 172q0 156 -238 156q-163 0 -334 -76l-40 94q187 82 376 82q168 0 257 -60.5t89 -179.5q0 -103 -65 -161.5t-193 -67.5v-8q147 -6 225.5 -64.5
t78.5 -185.5q0 -137 -102.5 -209t-297.5 -72z" />
    <glyph glyph-name="uni0438" unicode="&#x438;" horiz-adv-x="1105" 
d="M172 -18h-22v964h102v-522q0 -142 -10 -244l6 -2q30 64 106 150l580 637h22v-965h-102v522q0 142 10 244l-6 2q-30 -64 -106 -150z" />
    <glyph glyph-name="uni0439" unicode="&#x439;" horiz-adv-x="1105" 
d="M172 -18h-22v964h102v-522q0 -142 -10 -244l6 -2q30 64 106 150l580 637h22v-965h-102v522q0 142 10 244l-6 2q-30 -64 -106 -150z" />
    <glyph glyph-name="uni043A" unicode="&#x43a;" horiz-adv-x="948" 
d="M913 -4h-84q-80 0 -123 34.5t-65 108.5l-47 172q-20 71 -60 104.5t-106 33.5h-121q-43 0 -63 4l-2 -2q10 -42 10 -86v-365h-102v946h102v-328q0 -39 -10 -81l2 -2q20 4 63 4h121q68 0 106 30.5t68 106.5l64 162q42 112 172 112h75v-94h-57q-77 0 -108 -84l-54 -135
q-30 -81 -72 -108.5t-130 -30.5v-4q88 -3 129 -29.5t61 -95.5l53 -179q16 -52 41.5 -76t73.5 -24h63v-94z" />
    <glyph glyph-name="uni043B" unicode="&#x43b;" horiz-adv-x="1071" 
d="M238 946h696v-946h-105v803q0 31 11 53l-2 2q-14 -8 -58 -8h-391q-41 0 -57 8l-2 -2q10 -20 10 -53v-559q0 -125 -57.5 -186.5t-165.5 -61.5h-88v96h86q62 0 92.5 36.5t30.5 117.5v700z" />
    <glyph glyph-name="uni043C" unicode="&#x43c;" horiz-adv-x="1310" 
d="M666 -16h-21l-229 555q-39 96 -64 198h-6q-3 -78 -41 -200l-172 -537h-113l314 965h18l250 -617q40 -106 51 -170h4q10 59 52 170l249 617h19l313 -965h-112l-172 537q-38 122 -41 200h-7q-26 -108 -63 -198z" />
    <glyph glyph-name="uni043D" unicode="&#x43d;" horiz-adv-x="1112" 
d="M858 606v340h105v-946h-105v412q0 37 10 57l-2 2q-20 -10 -55 -10h-512q-33 0 -53 10l-2 -2q8 -16 8 -57v-412h-102v946h102v-340q0 -41 -8 -57l2 -2q20 10 53 10h512q35 0 55 -10l2 2q-10 20 -10 57z" />
    <glyph glyph-name="uni043E" unicode="&#x43e;" horiz-adv-x="1183" 
d="M592 977q223 0 365.5 -141.5t142.5 -362.5q0 -220 -143 -362t-365 -142q-221 0 -364.5 142t-143.5 362q0 221 143 362.5t365 141.5zM592 874q-174 0 -285.5 -112t-111.5 -289q0 -175 112 -288t285 -113t285 113t112 288q0 177 -111.5 289t-285.5 112z" />
    <glyph glyph-name="uni043F" unicode="&#x43f;" horiz-adv-x="1064" 
d="M139 946h789v-946h-105v803q0 31 11 53l-3 2q-16 -8 -57 -8h-483q-42 0 -58 8l-2 -2q11 -22 11 -53v-803h-103v946z" />
    <glyph glyph-name="uni0440" unicode="&#x440;" horiz-adv-x="1222" 
d="M664 977q211 0 343 -140t132 -364t-132 -364t-343 -140q-151 0 -259.5 73.5t-164.5 211.5l-9 -2q21 -86 21 -201v-461h-102v1356h100q0 -183 -14 -260l6 -2q53 140 162.5 216.5t259.5 76.5zM649 872q-180 0 -292.5 -111t-112.5 -288q0 -178 114 -288.5t297 -110.5
q169 0 271 108.5t102 288.5q0 182 -103.5 291.5t-275.5 109.5z" />
    <glyph glyph-name="uni0441" unicode="&#x441;" horiz-adv-x="983" 
d="M594 -31q-227 0 -368.5 140t-141.5 364t141.5 364t368.5 140q175 0 321 -92l-51 -92q-134 81 -274 81q-172 0 -283.5 -113t-111.5 -288q0 -174 112 -287.5t283 -113.5q139 0 274 82l51 -93q-146 -92 -321 -92z" />
    <glyph glyph-name="uni0442" unicode="&#x442;" horiz-adv-x="917" 
d="M10 850v96h897v-96h-348q-41 0 -57 8l-2 -2q10 -20 10 -53v-803h-102v803q0 33 10 53l-2 2q-16 -8 -58 -8h-348z" />
    <glyph glyph-name="uni0443" unicode="&#x443;" horiz-adv-x="950" 
d="M817 946h113l-596 -1356h-109l209 480l-414 876h121l275 -602q35 -76 48 -114.5t19 -86.5h9q7 75 63 199z" />
    <glyph glyph-name="uni0444" unicode="&#x444;" horiz-adv-x="1736" 
d="M918 -420h-101v465q0 115 12 209l-4 2q-39 -143 -127 -215t-217 -72q-182 0 -284.5 135.5t-102.5 368.5t102.5 368.5t284.5 135.5q129 0 217 -72t127 -213h4q-12 94 -12 209v494h101v-494q0 -125 -13 -209h6q83 285 344 285q182 0 283.5 -135t101.5 -369t-101.5 -369
t-283.5 -135q-262 0 -344 287l-6 -2q13 -84 13 -209v-465zM502 70q143 0 231 116t88 287q0 172 -88 288t-231 116t-220 -110t-77 -294q0 -183 77 -293t220 -110zM1235 70q143 0 220 110t77 293q0 184 -77 294t-220 110t-231.5 -116.5t-88.5 -287.5t88.5 -287t231.5 -116z
" />
    <glyph glyph-name="uni0445" unicode="&#x445;" horiz-adv-x="940" 
d="M147 0h-127l330 432q39 50 53 62v6q-20 16 -59 67l-287 379h125l224 -289q43 -55 61 -108h6q15 44 62 108l223 289h125l-287 -379q-39 -51 -59 -67v-6q14 -12 53 -62l330 -432h-127l-258 334q-46 58 -62 104h-6q-16 -46 -59 -104z" />
    <glyph glyph-name="uni0446" unicode="&#x446;" horiz-adv-x="1073" 
d="M1010 -287h-101v240q0 31 11 53l-2 2q-16 -8 -58 -8h-710v946h102v-803q0 -33 -10 -53l2 -2q16 8 57 8h453q41 0 57 -8l2 2q-10 20 -10 53v803h104v-803q0 -33 -10 -53l2 -2q16 8 57 8h54v-383z" />
    <glyph glyph-name="uni0447" unicode="&#x447;" horiz-adv-x="907" 
d="M666 946h102v-946h-102v369q0 51 8 69l-2 2q-170 -71 -326 -71q-157 0 -237 72t-80 229v276h102v-270q0 -113 58.5 -160t172.5 -47q127 0 304 72v405z" />
    <glyph glyph-name="uni0448" unicode="&#x448;" horiz-adv-x="1648" 
d="M1397 143v803h102v-946h-1349v946h102v-803q0 -33 -10 -53l2 -2q16 8 57 8h422q41 0 57 -8l2 2q-10 20 -10 53v803h105v-803q0 -31 -11 -53l2 -2q16 8 58 8h422q41 0 57 -8l2 2q-10 20 -10 53z" />
    <glyph glyph-name="uni0449" unicode="&#x449;" horiz-adv-x="1667" 
d="M1602 -287h-99v240q0 33 10 53l-2 2q-16 -8 -57 -8h-1304v946h102v-803q0 -33 -10 -53l2 -2q16 8 57 8h422q41 0 57 -8l2 2q-10 20 -10 53v803h105v-803q0 -31 -11 -53l2 -2q16 8 58 8h422q41 0 57 -8l2 2q-10 20 -10 53v803h102v-803q0 -33 -10 -53l2 -2q16 8 57 8h54
v-383z" />
    <glyph glyph-name="uni044A" unicode="&#x44a;" horiz-adv-x="1105" 
d="M743 590q146 0 234 -79t88 -216q0 -136 -88.5 -215.5t-235.5 -79.5h-411v803q0 26 10 53l-2 2q-14 -8 -57 -8h-271v96h424v-309q0 -34 -8 -55l2 -2q18 10 53 10h262zM739 96q103 0 160 54t57 145t-57 144t-160 53h-258q-35 0 -53 10l-2 -2q8 -21 8 -58v-299
q0 -33 -10 -53l2 -2q14 8 57 8h256z" />
    <glyph glyph-name="uni044B" unicode="&#x44b;" horiz-adv-x="919" 
d="M559 590q146 0 233 -79t87 -216q0 -135 -88 -215t-232 -80h-409v946h102v-309q0 -39 -8 -55l2 -2q18 10 53 10h260zM555 96q101 0 157 54t56 145t-56 144t-157 53h-256q-35 0 -53 10l-2 -2q8 -16 8 -58v-299q0 -33 -10 -53l2 -2q16 8 57 8h254z" />
    <glyph glyph-name="uni044C" unicode="&#x44c;" horiz-adv-x="919" 
d="M559 590q146 0 233 -79t87 -216q0 -135 -88 -215t-232 -80h-409v946h102v-309q0 -39 -8 -55l2 -2q18 10 53 10h260zM555 96q101 0 157 54t56 145t-56 144t-157 53h-256q-35 0 -53 10l-2 -2q8 -16 8 -58v-299q0 -33 -10 -53l2 -2q16 8 57 8h254z" />
    <glyph glyph-name="uni044D" unicode="&#x44d;" horiz-adv-x="993" 
d="M414 -31q-193 0 -346 101l51 88q140 -86 295 -86q149 0 243.5 83.5t118.5 219.5q11 45 17 59l-2 2q-20 -10 -54 -10h-413v94h413q34 0 54 -10l2 2q-6 14 -17 59q-26 136 -120 219.5t-242 83.5q-155 0 -295 -86l-51 89q151 100 346 100q224 0 353.5 -138.5t129.5 -365.5
t-129.5 -365.5t-353.5 -138.5z" />
    <glyph glyph-name="uni044E" unicode="&#x44e;" horiz-adv-x="1513" 
d="M922 977q223 0 365.5 -141.5t142.5 -362.5q0 -220 -143 -362t-365 -142q-209 0 -350 128t-156 329h-119q-37 0 -53 8l-2 -2q8 -16 8 -55v-377h-100v946h100v-375q0 -41 -8 -57l2 -2q20 10 53 10h119q17 202 157 328.5t349 126.5zM922 72q173 0 285 113t112 288
q0 177 -111.5 289t-285.5 112t-286 -112.5t-112 -288.5q0 -175 112.5 -288t285.5 -113z" />
    <glyph glyph-name="uni044F" unicode="&#x44f;" horiz-adv-x="960" 
d="M406 946h405v-946h-102v348q0 39 8 55l-2 3q-22 -11 -56 -11h-137l-358 -395h-133v4l295 322q46 49 92 77l-2 5q-25 -11 -74 -11q-100 5 -174 77t-74 196q0 134 87 205t225 71zM715 481l2 2q-8 16 -8 56v264q0 33 10 53l-2 2q-21 -8 -58 -8h-243q-100 0 -156.5 -47
t-56.5 -133q0 -85 52.5 -133t145.5 -48h258q35 0 56 -8z" />
    <glyph glyph-name="uni0451" unicode="&#x451;" horiz-adv-x="1103" 
d="M567 977q207 0 329 -133t122 -359v-24h-742q-66 0 -86 10l-2 -2l5 -18q3 -175 106.5 -278t275.5 -103q108 0 190.5 44t160.5 144l73 -68q-162 -221 -426 -221q-223 0 -356 138t-133 368q0 229 131.5 365.5t351.5 136.5zM565 879q-159 0 -258.5 -91.5t-113.5 -250.5l2 -2
q25 14 84 14h534q55 0 92 -12l2 2q-12 162 -101.5 251t-240.5 89z" />
    <glyph glyph-name="uni0454" unicode="&#x454;" horiz-adv-x="993" 
d="M580 -31q-224 0 -354 138.5t-130 365.5t130 365.5t354 138.5q195 0 346 -100l-52 -89q-140 86 -294 86q-149 0 -243 -83.5t-120 -219.5q-12 -50 -16 -59l2 -2q20 10 53 10h414v-94h-414q-33 0 -53 10l-2 -2q4 -9 16 -59q24 -136 119 -219.5t244 -83.5q154 0 294 86
l52 -88q-153 -101 -346 -101z" />
    <glyph glyph-name="uni0455" unicode="&#x455;" horiz-adv-x="849" 
d="M444 -31q-218 0 -395 121l53 90q159 -110 347 -110q106 0 165.5 41t59.5 114q0 52 -37 92.5t-117 75.5l-178 82q-109 51 -160 113.5t-51 146.5q0 114 83 178t232 64q165 0 314 -76l-47 -94q-143 70 -267 70q-98 0 -151 -36.5t-53 -101.5q0 -54 36 -94t121 -78l170 -78
q115 -53 165 -114t50 -150q0 -120 -89.5 -188t-250.5 -68z" />
    <glyph glyph-name="uni0458" unicode="&#x458;" 
d="M147 1434h121v-267h-121v267zM156 946h104v-1087q0 -299 -285 -299h-18v104h20q88 0 133.5 46.5t45.5 148.5v1087z" />
    <glyph glyph-name="Wgrave" unicode="&#x1e80;" horiz-adv-x="1931" 
d="M956 1462h17l325 -960q52 -151 74 -271h8q19 117 70 267l313 936h131l-512 -1463h-12l-356 1030q-37 113 -45 187h-8q-5 -72 -43 -187l-357 -1030h-12l-512 1463h131l311 -936q52 -146 72 -267h8q22 120 74 271z" />
    <glyph glyph-name="wgrave" unicode="&#x1e81;" horiz-adv-x="1449" 
d="M420 -18h-19l-381 964h121l219 -586q41 -108 48 -184h8q9 69 55 184l244 605h18l244 -605q48 -112 57 -184h8q4 69 48 184l217 586h123l-383 -964h-19l-254 622q-24 57 -32 88.5t-13 79.5h-8q-8 -76 -45 -168z" />
    <glyph glyph-name="Wacute" unicode="&#x1e82;" horiz-adv-x="1931" 
d="M956 1462h17l325 -960q52 -151 74 -271h8q19 117 70 267l313 936h131l-512 -1463h-12l-356 1030q-37 113 -45 187h-8q-5 -72 -43 -187l-357 -1030h-12l-512 1463h131l311 -936q52 -146 72 -267h8q22 120 74 271z" />
    <glyph glyph-name="wacute" unicode="&#x1e83;" horiz-adv-x="1449" 
d="M420 -18h-19l-381 964h121l219 -586q41 -108 48 -184h8q9 69 55 184l244 605h18l244 -605q48 -112 57 -184h8q4 69 48 184l217 586h123l-383 -964h-19l-254 622q-24 57 -32 88.5t-13 79.5h-8q-8 -76 -45 -168z" />
    <glyph glyph-name="Wdieresis" unicode="&#x1e84;" horiz-adv-x="1931" 
d="M956 1462h17l325 -960q52 -151 74 -271h8q19 117 70 267l313 936h131l-512 -1463h-12l-356 1030q-37 113 -45 187h-8q-5 -72 -43 -187l-357 -1030h-12l-512 1463h131l311 -936q52 -146 72 -267h8q22 120 74 271z" />
    <glyph glyph-name="wdieresis" unicode="&#x1e85;" horiz-adv-x="1449" 
d="M420 -18h-19l-381 964h121l219 -586q41 -108 48 -184h8q9 69 55 184l244 605h18l244 -605q48 -112 57 -184h8q4 69 48 184l217 586h123l-383 -964h-19l-254 622q-24 57 -32 88.5t-13 79.5h-8q-8 -76 -45 -168z" />
    <glyph glyph-name="Ygrave" unicode="&#x1ef2;" horiz-adv-x="1110" 
d="M942 1434h141l-473 -883v-551h-112v551l-471 883h139l311 -609q39 -75 52.5 -108t23.5 -82h4q10 48 23 81.5t51 108.5z" />
    <glyph glyph-name="ygrave" unicode="&#x1ef3;" horiz-adv-x="950" 
d="M817 946h113l-596 -1356h-109l209 480l-414 876h121l275 -602q35 -76 48 -114.5t19 -86.5h9q7 75 63 199z" />
    </font>
</defs>
</svg>
