<?xml version="1.0" standalone="no"?>
<!DOCTYPE svg PUBLIC "-//W3C//DTD SVG 1.1//EN" "http://www.w3.org/Graphics/SVG/1.1/DTD/svg11.dtd" >
<svg xmlns="http://www.w3.org/2000/svg" xmlns:xlink="http://www.w3.org/1999/xlink" version="1.1">
<metadata>
Created by FontForge 20170731 at Sat Apr 29 09:59:16 2023
 By Aleksey,,,
Copyright \\\(c\\\) 2010 by Ryoichi Tsunekawa. All rights reserved.
</metadata>
<defs>
<font id="BebasNeue-Thin" horiz-adv-x="753" >
  <font-face 
    font-family="Bebas Neue Thin"
    font-weight="200"
    font-stretch="normal"
    units-per-em="2048"
    panose-1="0 0 5 0 0 0 0 0 0 0"
    ascent="1536"
    descent="-512"
    x-height="1434"
    cap-height="1434"
    bbox="-98 -367 1628 1786"
    underline-thickness="102"
    underline-position="-327"
    unicode-range="U+0020-F6C3"
  />
<missing-glyph horiz-adv-x="1122" 
d="M102 0v1434h918v-1434h-918zM279 1307l278 -568l-299 -616h21l286 596l289 -596h18l-297 616l277 568h-18l-269 -549l-268 549h-18z" />
    <glyph glyph-name=".notdef" horiz-adv-x="1122" 
d="M102 0v1434h918v-1434h-918zM279 1307l278 -568l-299 -616h21l286 596l289 -596h18l-297 616l277 568h-18l-269 -549l-268 549h-18z" />
    <glyph glyph-name=".null" horiz-adv-x="0" 
 />
    <glyph glyph-name="nonmarkingreturn" horiz-adv-x="682" 
 />
    <glyph glyph-name="space" unicode=" " horiz-adv-x="317" 
 />
    <glyph glyph-name="exclam" unicode="!" horiz-adv-x="184" 
d="M84 317l-2 285v834h20v-834l-2 -285h-16zM82 158h20v-158h-20v158z" />
    <glyph glyph-name="quotedbl" unicode="&#x22;" horiz-adv-x="284" 
d="M82 1436h20v-318h-20v318zM182 1436h21v-318h-21v318z" />
    <glyph glyph-name="numbersign" unicode="#" horiz-adv-x="851" 
d="M770 1016h-137l-53 -516h135v-19h-137l-52 -481h-20l51 481h-301l-51 -481h-21l52 481h-154v19h156l53 516h-156v18h158l41 402h20l-41 -402h301l41 402h21l-41 -402h135v-18zM559 500l53 516h-301l-53 -516h301z" />
    <glyph glyph-name="dollar" unicode="$" horiz-adv-x="751" 
d="M389 1577v-133q75 -2 131 -31.5t88 -79.5t47 -111.5t15 -134.5v-24h-21v24q0 71 -14 129t-44.5 106t-84 74.5t-127.5 26.5t-127.5 -26t-84 -73.5t-44.5 -105t-14 -128.5q0 -60 19.5 -111.5t52 -90t74.5 -72.5t88.5 -64t93.5 -60t89 -65t74.5 -74t52 -92t19.5 -115
q0 -74 -15.5 -135.5t-48 -111t-88.5 -78.5t-131 -31v-119h-20v119q-77 1 -133.5 29.5t-89.5 78t-48.5 111.5t-15.5 137v68h20v-68q0 -151 65.5 -243.5t209.5 -92.5t209 92.5t65 243.5q0 75 -31 136.5t-80.5 105t-109.5 82.5t-120.5 79.5t-110 85.5t-80.5 110t-31 145
q0 160 68 254t213 100v133h20z" />
    <glyph glyph-name="percent" unicode="%" horiz-adv-x="1214" 
d="M262 1436q95 0 137.5 -67.5t42.5 -168.5v-416q0 -101 -42.5 -167t-137.5 -66t-137.5 66t-42.5 167v416q0 101 42.5 168.5t137.5 67.5zM877 1436h22l-565 -1436h-23zM262 1415q-60 0 -97.5 -33t-50 -78t-12.5 -104v-416q0 -59 12.5 -103.5t50 -77t97.5 -32.5
q86 0 123 60.5t37 152.5v416q0 43 -7.5 79t-25 68t-50 50t-77.5 18zM952 877q96 0 138.5 -66t42.5 -168v-407q0 -102 -42.5 -169t-138.5 -67q-95 0 -137.5 67.5t-42.5 168.5v407q0 101 42.5 167.5t137.5 66.5zM952 856q-86 0 -122.5 -60.5t-36.5 -152.5v-407q0 -43 7.5 -79
t24.5 -68t49.5 -50.5t77.5 -18.5q46 0 78.5 18.5t49.5 50.5t24.5 68t7.5 79v407q0 59 -12.5 103.5t-50 77t-97.5 32.5z" />
    <glyph glyph-name="ampersand" unicode="&#x26;" horiz-adv-x="813" 
d="M602 1413h-174q-326 0 -326 -336v-41q0 -108 62 -189.5t168 -88.5h291v160h20v-160h88v-19h-88v-542q0 -47 1.5 -72t11.5 -60.5t30 -64.5h-24q-37 63 -37 150q-31 -77 -100.5 -118.5t-157.5 -41.5q-145 0 -215 91.5t-70 242.5v129q0 103 53 185t152 110
q-100 23 -152.5 104t-52.5 184v41q0 173 87 265t259 92h174v-21zM623 739h-277q-114 -10 -179 -90t-65 -196v-129q0 -142 65 -228t200 -86q111 0 183.5 67t72.5 177v485z" />
    <glyph glyph-name="quotesingle" unicode="'" horiz-adv-x="184" 
d="M82 1436h20v-318h-20v318z" />
    <glyph glyph-name="parenleft" unicode="(" horiz-adv-x="450" 
d="M369 1415h-31q-57 0 -99.5 -15t-68 -40.5t-41.5 -64.5t-21.5 -81.5t-5.5 -97.5v-797q0 -71 9.5 -121t34 -92.5t72.5 -64t120 -21.5h31v-20h-31q-61 0 -106.5 16t-74 43t-45.5 68.5t-23.5 87t-6.5 104.5v797q0 74 11.5 128.5t38.5 99.5t79 68.5t127 23.5h31v-21z" />
    <glyph glyph-name="parenright" unicode=")" horiz-adv-x="450" 
d="M82 1436h31q75 0 127 -23.5t79 -68.5t38.5 -99.5t11.5 -128.5v-797q0 -59 -6.5 -104.5t-23.5 -87t-45.5 -68.5t-74 -43t-106.5 -16h-31v20h31q72 0 119.5 21.5t72 64t34 92.5t9.5 121v797q0 70 -9.5 120t-34.5 93t-72.5 64.5t-118.5 21.5h-31v21z" />
    <glyph glyph-name="asterisk" unicode="*" horiz-adv-x="804" 
d="M702 1176l-286 -74l170 -244l-17 -12l-168 244l-168 -242l-16 10l170 244l-285 80l7 20l282 -84v299h21v-299l284 78z" />
    <glyph glyph-name="plus" unicode="+" horiz-adv-x="786" 
d="M705 707h-302v-308h-20v308h-301v20h301v303h20v-303h302v-20z" />
    <glyph glyph-name="comma" unicode="," horiz-adv-x="215" 
d="M82 -127l33 127h-2v160h20v-160l-37 -127h-14z" />
    <glyph glyph-name="hyphen" unicode="-" horiz-adv-x="520" 
d="M82 709v18h356v-18h-356z" />
    <glyph glyph-name="period" unicode="." horiz-adv-x="184" 
d="M82 160h20v-160h-20v160z" />
    <glyph glyph-name="slash" unicode="/" horiz-adv-x="749" 
d="M647 1434h21l-566 -1434h-20z" />
    <glyph glyph-name="zero" unicode="0" horiz-adv-x="763" 
d="M82 354v727q0 77 16.5 141t51.5 114.5t94 79t139 28.5q79 0 138 -28.5t93.5 -79t51 -114.5t16.5 -141v-727q0 -77 -16.5 -141t-51 -115t-93.5 -79.5t-138 -28.5q-80 0 -139 28.5t-94 79.5t-51.5 115t-16.5 141zM102 1081v-727q0 -58 9 -107.5t30.5 -93.5t53 -75.5
t80 -49.5t108.5 -18q75 0 130.5 27t87 75.5t46.5 108.5t15 133v727q0 73 -15 133t-46.5 108.5t-87 75.5t-130.5 27q-60 0 -108.5 -18t-80 -49.5t-53 -75.5t-30.5 -93.5t-9 -107.5z" />
    <glyph glyph-name="one" unicode="1" horiz-adv-x="442" 
d="M330 0v1399q-35 -82 -98.5 -133.5t-149.5 -61.5v21q88 10 148.5 66t91.5 145h28v-1436h-20z" />
    <glyph glyph-name="two" unicode="2" horiz-adv-x="751" 
d="M375 1444q66 0 117.5 -19.5t84.5 -53t54.5 -81t30 -100.5t8.5 -115q0 -79 -31 -152.5t-80 -134.5t-109 -122.5t-120.5 -128.5t-110.5 -139t-82.5 -168t-34.5 -203v-7h562v-20h-582v10q0 112 31.5 212t81.5 175t110 143.5t120.5 130.5t110.5 122.5t81.5 132.5t31.5 149
q0 350 -274 350q-75 0 -130 -29t-85 -80.5t-44 -112t-14 -132.5v-67h-20v67q0 77 15 141t48 118t91.5 84t138.5 30z" />
    <glyph glyph-name="three" unicode="3" 
d="M377 1444q79 0 138 -28.5t92.5 -79.5t49 -114.5t15.5 -140.5v-34q0 -103 -57 -185.5t-154 -111.5q102 -26 156.5 -103t54.5 -184v-109q0 -61 -9.5 -113.5t-31.5 -99.5t-55.5 -80t-84 -52t-114.5 -19t-114.5 19t-84 52t-55.5 80t-31.5 99.5t-9.5 113.5v60h20v-60
q0 -72 14.5 -131.5t45 -108.5t85.5 -76.5t130 -27.5t129.5 27.5t85.5 76.5t45 108t14 132v109q0 120 -65.5 194.5t-184.5 81.5h-108v19h108q113 9 181.5 91.5t68.5 197.5v34q0 73 -14 132t-45 108t-85.5 76.5t-129.5 27.5t-130 -27.5t-85.5 -76.5t-45 -108.5t-14.5 -131.5
v-37h-20v37q0 77 15.5 140.5t49 114.5t92.5 79.5t138 28.5z" />
    <glyph glyph-name="four" unicode="4" horiz-adv-x="833" 
d="M752 348h-129v-348h-21v348h-520v23l512 1065h29v-1067h129v-21zM602 1405l-500 -1036h500v1036z" />
    <glyph glyph-name="five" unicode="5" 
d="M158 1415l-31 -643q75 148 250 148q79 0 137.5 -29t92 -80.5t49.5 -115t16 -138.5v-203q0 -76 -16 -139.5t-49.5 -115t-92 -80.5t-137.5 -29t-137.5 29t-92 80.5t-49.5 115t-16 139.5v54h20v-54q0 -71 14.5 -131t45.5 -109t86 -76.5t129 -27.5q60 0 107 18.5t78 50
t51.5 76t29 93.5t8.5 106v203q0 72 -14.5 131t-45.5 107.5t-85.5 76t-128.5 27.5q-91 0 -156 -46.5t-98 -131.5v-12h-21l37 727h506v-21h-487z" />
    <glyph glyph-name="six" unicode="6" horiz-adv-x="765" 
d="M383 1444q79 0 137.5 -27t92 -76.5t49.5 -111.5t16 -139v-7h-21v7q0 72 -14 130.5t-45 105.5t-85.5 73t-129.5 26q-60 0 -108.5 -18t-80 -49.5t-53 -75.5t-30.5 -93.5t-9 -107.5v-444q31 100 102.5 153.5t178.5 53.5q80 0 139 -28.5t94 -79.5t51.5 -114.5t16.5 -140.5
v-127q0 -77 -16.5 -141t-51.5 -115t-94 -79.5t-139 -28.5t-139 28.5t-94 79.5t-51.5 115t-16.5 141v727q0 77 16.5 141t51.5 114.5t94 79t139 28.5zM383 823q-75 0 -131 -27t-88 -75.5t-47 -108t-15 -131.5v-127q0 -58 9 -107.5t30.5 -93.5t53 -75.5t80 -49.5t108.5 -18
t108.5 18t80 49.5t53 75.5t30.5 93.5t9 107.5v127q0 72 -15 131.5t-47 108t-88 75.5t-131 27z" />
    <glyph glyph-name="seven" unicode="7" 
d="M207 0l442 1415h-567v21h590v-23l-443 -1413h-22z" />
    <glyph glyph-name="eight" unicode="8" horiz-adv-x="784" 
d="M391 1444q153 0 232 -92t79 -248v-47q0 -122 -52.5 -204t-164.5 -103q217 -44 217 -314v-94q0 -160 -77.5 -256t-233.5 -96q-155 0 -232 96t-77 256v94q0 129 51 209t170 105q-221 42 -221 307v47q0 156 78.5 248t230.5 92zM391 1425q-143 0 -216 -87t-73 -234v-47
q0 -145 72.5 -222t216.5 -77q146 0 218.5 77t72.5 222v47q0 147 -73.5 234t-217.5 87zM391 737q-289 0 -289 -301v-94q0 -151 71.5 -241.5t217.5 -90.5q147 0 219 90.5t72 241.5v94q0 150 -71 225.5t-220 75.5z" />
    <glyph glyph-name="nine" unicode="9" horiz-adv-x="765" 
d="M383 1446q80 0 139 -28.5t94 -79.5t51.5 -115.5t16.5 -141.5v-727q0 -77 -16.5 -141t-51.5 -115t-94 -79.5t-139 -28.5q-154 0 -227.5 98.5t-73.5 259.5v8h20v-8q0 -151 68 -244.5t213 -93.5q60 0 108.5 18t80 49.5t53 75.5t30.5 93.5t9 107.5v445
q-31 -100 -102.5 -153.5t-178.5 -53.5q-80 0 -139 28.5t-94 79t-51.5 114t-16.5 140.5v127q0 77 16.5 141.5t51.5 115.5t94 79.5t139 28.5zM383 1425q-60 0 -108.5 -18t-80 -49.5t-53 -75.5t-30.5 -93.5t-9 -107.5v-127q0 -72 15 -131.5t47 -108t88 -75.5t131 -27t131 27
t88 75.5t47 108t15 131.5v127q0 58 -9 107.5t-30.5 93.5t-53 75.5t-80 49.5t-108.5 18z" />
    <glyph glyph-name="colon" unicode=":" horiz-adv-x="184" 
d="M82 940h20v-160h-20v160zM82 160h20v-160h-20v160z" />
    <glyph glyph-name="semicolon" unicode=";" horiz-adv-x="215" 
d="M113 940h20v-160h-20v160zM82 -127l33 127h-2v160h20v-160l-37 -127h-14z" />
    <glyph glyph-name="less" unicode="&#x3c;" horiz-adv-x="729" 
d="M647 440v-22l-565 289v20l565 289v-23l-541 -276z" />
    <glyph glyph-name="equal" unicode="=" horiz-adv-x="520" 
d="M82 872h356v-18h-356v18zM82 668h356v-19h-356v19z" />
    <glyph glyph-name="greater" unicode="&#x3e;" horiz-adv-x="729" 
d="M82 418v22l541 277l-541 276v23l565 -289v-20z" />
    <glyph glyph-name="question" unicode="?" horiz-adv-x="745" 
d="M373 1444q81 0 139.5 -29t90.5 -82t46.5 -116.5t14.5 -141.5q0 -80 -33 -152t-79.5 -128t-93 -112.5t-79.5 -130.5t-33 -157q0 -35 10 -73h-20q-10 42 -10 73q1 86 33.5 161.5t79 132.5t93 113t79 126t32.5 147q0 350 -270 350q-75 0 -130 -29.5t-84.5 -81t-43 -111.5
t-13.5 -132v-67h-20v67q0 76 15 140t47 118t90.5 84.5t138.5 30.5zM334 158h20v-158h-20v158z" />
    <glyph glyph-name="at" unicode="@" horiz-adv-x="1409" 
d="M795 1483q267 0 399.5 -147.5t132.5 -417.5q0 -55 -6 -115t-19 -131t-38 -133t-59 -114t-86 -83t-115 -31q-59 0 -89 42.5t-32 105.5q-69 -174 -234 -174q-64 0 -108 27t-64.5 74t-27 99t-0.5 111l20 201q6 60 24.5 110.5t49.5 91.5t79.5 64.5t110.5 23.5q159 0 197 -153
l14 141h21l-62 -579q-5 -65 18 -114.5t83 -49.5q51 0 94.5 23t74.5 60.5t55 88.5t39 104t24.5 110.5t12.5 105.5t3 91q0 263 -126.5 405t-385.5 142q-146 0 -265 -50t-197.5 -133.5t-131.5 -198t-76 -239.5t-23 -261q0 -639 605 -639q225 0 358 108v-26q-148 -103 -358 -103
q-316 0 -470.5 170t-154.5 490q0 116 17.5 224.5t52.5 210.5t93.5 186.5t135 148t182.5 98.5t232 35zM733 1067q-58 0 -103 -22t-73.5 -61.5t-45 -86t-22.5 -102.5l-20 -203q-8 -50 -1 -101t23.5 -92.5t57.5 -67.5t100 -26t105 25t74 67.5t43.5 92t21.5 106.5l22 201
q8 51 0.5 99.5t-25.5 86.5t-58.5 61t-98.5 23z" />
    <glyph glyph-name="A" unicode="A" horiz-adv-x="925" 
d="M733 348h-543l-88 -348h-20l362 1436h29l371 -1436h-21zM459 1409l-262 -1040h530z" />
    <glyph glyph-name="B" unicode="B" horiz-adv-x="741" 
d="M82 1434h280q148 0 208.5 -72.5t60.5 -220.5v-99q0 -129 -46 -196.5t-167 -81.5q241 -27 241 -307v-129q0 -328 -297 -328h-280v1434zM102 774h199q85 0 139.5 11t94.5 40t57.5 82t17.5 135v99q0 140 -54.5 206t-193.5 66h-260v-639zM102 20h260q146 0 211.5 79t65.5 229
v129q0 159 -77 228t-238 69h-222v-734z" />
    <glyph glyph-name="C" unicode="C" 
d="M377 1444q79 0 137.5 -29t92 -80.5t49.5 -115t16 -138.5v-108h-21v108q0 72 -14.5 131t-45.5 107.5t-85.5 76t-128.5 27.5t-129 -27.5t-86 -76t-45.5 -108t-14.5 -130.5v-729q0 -71 14.5 -130.5t45.5 -108t86 -76t129 -27.5t128.5 27.5t85.5 76t45.5 107.5t14.5 131v152
h21v-152q0 -75 -16 -138.5t-49.5 -114.5t-92 -80t-137.5 -29t-137.5 29t-92 80t-49.5 114.5t-16 138.5v729q0 75 16 138.5t49.5 115t92 80.5t137.5 29z" />
    <glyph glyph-name="D" unicode="D" horiz-adv-x="761" 
d="M82 1434h291q156 0 231.5 -99t75.5 -260v-719q0 -104 -30 -181.5t-100 -126t-175 -48.5h-293v1434zM102 20h273q147 0 215.5 92t68.5 244v719q0 153 -69.5 245.5t-216.5 92.5h-271v-1393z" />
    <glyph glyph-name="E" unicode="E" horiz-adv-x="700" 
d="M102 737h437v-20h-437v-697h516v-20h-536v1434h536v-21h-516v-676z" />
    <glyph glyph-name="F" unicode="F" horiz-adv-x="679" 
d="M102 700h416v-20h-416v-680h-20v1434h516v-21h-496v-713z" />
    <glyph glyph-name="G" unicode="G" 
d="M377 1444q79 0 137.5 -29t92 -80.5t49.5 -115t16 -138.5v-90h-21v90q0 72 -14.5 131t-45.5 107.5t-85.5 76t-128.5 27.5t-129 -27.5t-86 -76t-45.5 -108t-14.5 -130.5v-729q0 -71 14.5 -130.5t45.5 -108t86 -76t129 -27.5t128.5 27.5t85.5 76t45.5 107.5t14.5 131v334
h-241v21h262v-355q0 -75 -16 -138.5t-49.5 -114.5t-92 -80t-137.5 -29t-137.5 29t-92 80t-49.5 114.5t-16 138.5v729q0 75 16 138.5t49.5 115t92 80.5t137.5 29z" />
    <glyph glyph-name="H" unicode="H" horiz-adv-x="757" 
d="M655 707h-553v-707h-20v1434h20v-707h553v707h21v-1434h-21v707z" />
    <glyph glyph-name="I" unicode="I" horiz-adv-x="184" 
d="M82 1434h20v-1434h-20v1434z" />
    <glyph glyph-name="J" unicode="J" horiz-adv-x="516" 
d="M82 0v20q24 -2 86 3q129 12 187.5 89t58.5 238v1084h20v-1084q0 -170 -66 -253.5t-200 -94.5q-54 -4 -86 -2z" />
    <glyph glyph-name="K" unicode="K" horiz-adv-x="817" 
d="M711 0l-494 731l-115 -168v-563h-20v1434h20v-834l566 834h24l-463 -684l506 -750h-24z" />
    <glyph glyph-name="L" unicode="L" horiz-adv-x="679" 
d="M598 0h-516v1434h20v-1414h496v-20z" />
    <glyph glyph-name="M" unicode="M" horiz-adv-x="993" 
d="M891 1413l-381 -1409h-29l-379 1409v-1413h-20v1434h37l377 -1407l381 1407h34v-1434h-20v1413z" />
    <glyph glyph-name="N" unicode="N" horiz-adv-x="759" 
d="M102 1413v-1413h-20v1434h35l540 -1407v1407h21v-1434h-31z" />
    <glyph glyph-name="O" unicode="O" horiz-adv-x="763" 
d="M82 352v729q0 77 16.5 140.5t51 114.5t93.5 79.5t138 28.5q80 0 139 -28.5t94 -79.5t51.5 -114.5t16.5 -140.5v-729q0 -77 -16.5 -140.5t-51.5 -114t-94 -79t-139 -28.5q-79 0 -138 28.5t-93.5 79t-51 114t-16.5 140.5zM102 1081v-729q0 -73 15 -132.5t46.5 -107.5
t87 -75t130.5 -27t131 27t88 75t47 107.5t15 132.5v729q0 72 -15 131.5t-47 108t-88 75.5t-131 27t-130.5 -27t-87 -75.5t-46.5 -108t-15 -131.5z" />
    <glyph glyph-name="P" unicode="P" horiz-adv-x="731" 
d="M82 1434h276q291 0 291 -344v-140q0 -170 -79.5 -251t-250.5 -81h-217v-618h-20v1434zM102 639h217q163 0 236.5 74.5t73.5 236.5v140q0 152 -62 237.5t-209 85.5h-256v-774z" />
    <glyph glyph-name="Q" unicode="Q" horiz-adv-x="847" 
d="M383 1444q80 0 139 -28.5t94 -79.5t51.5 -114.5t16.5 -140.5v-729q0 -174 -82 -272q45 -72 141 -72h23v-20h-23q-103 0 -155 78q-76 -76 -205 -76q-80 0 -139 28.5t-94 79t-51.5 114t-16.5 140.5v729q0 77 16.5 140.5t51.5 114.5t94 79.5t139 28.5zM383 1423
q-75 0 -131 -27t-88 -75.5t-47 -108t-15 -131.5v-729q0 -73 15 -132.5t47 -107.5t88 -75t131 -27t131 27t88 75t47 107.5t15 132.5v729q0 72 -15 131.5t-47 108t-88 75.5t-131 27z" />
    <glyph glyph-name="R" unicode="R" horiz-adv-x="772" 
d="M82 1434h276q291 0 291 -322v-129q0 -136 -57.5 -210t-181.5 -93q239 -33 239 -285v-225q0 -120 41 -170h-24q-37 56 -37 170v225q0 81 -24 136.5t-71 85.5t-105.5 42.5t-137.5 12.5h-189v-672h-20v1434zM102 692h189q85 0 143.5 12.5t104.5 43.5t68 89.5t22 145.5v129
q0 145 -64 223t-207 78h-256v-721z" />
    <glyph glyph-name="S" unicode="S" 
d="M379 1444q78 0 135.5 -28t91 -78.5t49 -113t15.5 -137.5v-24h-21v24q0 71 -14 129t-44.5 106t-84 74.5t-127.5 26.5t-127.5 -26t-84 -73.5t-44.5 -105t-14 -128.5q0 -60 19.5 -111.5t52 -90t74.5 -72.5t88.5 -64t93.5 -60t89 -65t74.5 -74t52 -92t19.5 -115
q0 -159 -71 -257.5t-224 -98.5t-224 98.5t-71 257.5v68h20v-68q0 -151 65.5 -243.5t209.5 -92.5t209 92.5t65 243.5q0 75 -31 136.5t-80.5 105t-109.5 82.5t-120.5 79.5t-110 85.5t-80.5 110t-31 145q0 164 71 258.5t220 95.5z" />
    <glyph glyph-name="T" unicode="T" horiz-adv-x="772" 
d="M393 0h-20v1413h-324v21h668v-21h-324v-1413z" />
    <glyph glyph-name="U" unicode="U" horiz-adv-x="743" 
d="M102 1434v-1078q0 -72 13.5 -131.5t43.5 -109t84.5 -77.5t129.5 -28q74 0 128 28t83.5 77.5t43 109t13.5 131.5v1078h21v-1078q0 -76 -15 -139t-47.5 -115.5t-90.5 -82t-136 -29.5q-79 0 -137.5 29.5t-91 82t-47.5 115.5t-15 139v1078h20z" />
    <glyph glyph-name="V" unicode="V" horiz-adv-x="925" 
d="M82 1434h22l361 -1411l356 1411h23l-363 -1434h-30z" />
    <glyph glyph-name="W" unicode="W" horiz-adv-x="1282" 
d="M653 1405l-268 -1405h-31l-272 1434h20l269 -1405l266 1396h33l250 -1386l260 1395h20l-268 -1434h-27z" />
    <glyph glyph-name="X" unicode="X" horiz-adv-x="913" 
d="M809 0l-352 723l-351 -723h-24l364 745l-340 689h23l328 -666l327 666h23l-338 -689l362 -745h-22z" />
    <glyph glyph-name="Y" unicode="Y" horiz-adv-x="872" 
d="M424 0v594l-342 840h20l332 -811l334 811h23l-347 -840v-594h-20z" />
    <glyph glyph-name="Z" unicode="Z" horiz-adv-x="815" 
d="M721 20v-20h-639v23l627 1390h-596v21h618v-25l-627 -1389h617z" />
    <glyph glyph-name="bracketleft" unicode="[" horiz-adv-x="454" 
d="M102 20h271v-20h-291v1436h291v-21h-271v-1395z" />
    <glyph glyph-name="backslash" unicode="\" horiz-adv-x="749" 
d="M82 1434h20l566 -1434h-21z" />
    <glyph glyph-name="bracketright" unicode="]" horiz-adv-x="454" 
d="M82 20h270v1395h-270v21h291v-1436h-291v20z" />
    <glyph glyph-name="asciicircum" unicode="^" horiz-adv-x="851" 
d="M426 1411l-320 -610h-24l332 633h24l332 -633h-25z" />
    <glyph glyph-name="underscore" unicode="_" horiz-adv-x="1064" 
d="M82 -20h881v-19h-881v19z" />
    <glyph glyph-name="grave" unicode="`" horiz-adv-x="342" 
d="M82 1737h29l149 -176h-27z" />
    <glyph glyph-name="a" unicode="a" horiz-adv-x="925" 
d="M733 348h-543l-88 -348h-20l362 1436h29l371 -1436h-21zM459 1409l-262 -1040h530z" />
    <glyph glyph-name="b" unicode="b" horiz-adv-x="741" 
d="M82 1434h280q148 0 208.5 -72.5t60.5 -220.5v-99q0 -129 -46 -196.5t-167 -81.5q241 -27 241 -307v-129q0 -328 -297 -328h-280v1434zM102 774h199q85 0 139.5 11t94.5 40t57.5 82t17.5 135v99q0 140 -54.5 206t-193.5 66h-260v-639zM102 20h260q146 0 211.5 79t65.5 229
v129q0 159 -77 228t-238 69h-222v-734z" />
    <glyph glyph-name="c" unicode="c" 
d="M377 1444q79 0 137.5 -29t92 -80.5t49.5 -115t16 -138.5v-108h-21v108q0 72 -14.5 131t-45.5 107.5t-85.5 76t-128.5 27.5t-129 -27.5t-86 -76t-45.5 -108t-14.5 -130.5v-729q0 -71 14.5 -130.5t45.5 -108t86 -76t129 -27.5t128.5 27.5t85.5 76t45.5 107.5t14.5 131v152
h21v-152q0 -75 -16 -138.5t-49.5 -114.5t-92 -80t-137.5 -29t-137.5 29t-92 80t-49.5 114.5t-16 138.5v729q0 75 16 138.5t49.5 115t92 80.5t137.5 29z" />
    <glyph glyph-name="d" unicode="d" horiz-adv-x="761" 
d="M82 1434h291q156 0 231.5 -99t75.5 -260v-719q0 -104 -30 -181.5t-100 -126t-175 -48.5h-293v1434zM102 20h273q147 0 215.5 92t68.5 244v719q0 153 -69.5 245.5t-216.5 92.5h-271v-1393z" />
    <glyph glyph-name="e" unicode="e" horiz-adv-x="700" 
d="M102 737h437v-20h-437v-697h516v-20h-536v1434h536v-21h-516v-676z" />
    <glyph glyph-name="f" unicode="f" horiz-adv-x="679" 
d="M102 700h416v-20h-416v-680h-20v1434h516v-21h-496v-713z" />
    <glyph glyph-name="g" unicode="g" 
d="M377 1444q79 0 137.5 -29t92 -80.5t49.5 -115t16 -138.5v-90h-21v90q0 72 -14.5 131t-45.5 107.5t-85.5 76t-128.5 27.5t-129 -27.5t-86 -76t-45.5 -108t-14.5 -130.5v-729q0 -71 14.5 -130.5t45.5 -108t86 -76t129 -27.5t128.5 27.5t85.5 76t45.5 107.5t14.5 131v334
h-241v21h262v-355q0 -75 -16 -138.5t-49.5 -114.5t-92 -80t-137.5 -29t-137.5 29t-92 80t-49.5 114.5t-16 138.5v729q0 75 16 138.5t49.5 115t92 80.5t137.5 29z" />
    <glyph glyph-name="h" unicode="h" horiz-adv-x="757" 
d="M655 707h-553v-707h-20v1434h20v-707h553v707h21v-1434h-21v707z" />
    <glyph glyph-name="i" unicode="i" horiz-adv-x="184" 
d="M82 1434h20v-1434h-20v1434z" />
    <glyph glyph-name="j" unicode="j" horiz-adv-x="516" 
d="M82 0v20q24 -2 86 3q129 12 187.5 89t58.5 238v1084h20v-1084q0 -170 -66 -253.5t-200 -94.5q-54 -4 -86 -2z" />
    <glyph glyph-name="k" unicode="k" horiz-adv-x="817" 
d="M711 0l-494 731l-115 -168v-563h-20v1434h20v-834l566 834h24l-463 -684l506 -750h-24z" />
    <glyph glyph-name="l" unicode="l" horiz-adv-x="679" 
d="M598 0h-516v1434h20v-1414h496v-20z" />
    <glyph glyph-name="m" unicode="m" horiz-adv-x="993" 
d="M891 1413l-381 -1409h-29l-379 1409v-1413h-20v1434h37l377 -1407l381 1407h34v-1434h-20v1413z" />
    <glyph glyph-name="n" unicode="n" horiz-adv-x="759" 
d="M102 1413v-1413h-20v1434h35l540 -1407v1407h21v-1434h-31z" />
    <glyph glyph-name="o" unicode="o" horiz-adv-x="763" 
d="M82 352v729q0 77 16.5 140.5t51 114.5t93.5 79.5t138 28.5q80 0 139 -28.5t94 -79.5t51.5 -114.5t16.5 -140.5v-729q0 -77 -16.5 -140.5t-51.5 -114t-94 -79t-139 -28.5q-79 0 -138 28.5t-93.5 79t-51 114t-16.5 140.5zM102 1081v-729q0 -73 15 -132.5t46.5 -107.5
t87 -75t130.5 -27t131 27t88 75t47 107.5t15 132.5v729q0 72 -15 131.5t-47 108t-88 75.5t-131 27t-130.5 -27t-87 -75.5t-46.5 -108t-15 -131.5z" />
    <glyph glyph-name="p" unicode="p" horiz-adv-x="731" 
d="M82 1434h276q291 0 291 -344v-140q0 -170 -79.5 -251t-250.5 -81h-217v-618h-20v1434zM102 639h217q163 0 236.5 74.5t73.5 236.5v140q0 152 -62 237.5t-209 85.5h-256v-774z" />
    <glyph glyph-name="q" unicode="q" horiz-adv-x="788" 
d="M383 1444q80 0 139 -28.5t94 -79.5t51.5 -114.5t16.5 -140.5v-729q0 -174 -82 -272q45 -72 141 -72h23v-20h-23q-103 0 -155 78q-76 -76 -205 -76q-80 0 -139 28.5t-94 79t-51.5 114t-16.5 140.5v729q0 77 16.5 140.5t51.5 114.5t94 79.5t139 28.5zM383 1423
q-75 0 -131 -27t-88 -75.5t-47 -108t-15 -131.5v-729q0 -73 15 -132.5t47 -107.5t88 -75t131 -27t131 27t88 75t47 107.5t15 132.5v729q0 72 -15 131.5t-47 108t-88 75.5t-131 27z" />
    <glyph glyph-name="r" unicode="r" horiz-adv-x="772" 
d="M82 1434h276q291 0 291 -322v-129q0 -136 -57.5 -210t-181.5 -93q239 -33 239 -285v-225q0 -120 41 -170h-24q-37 56 -37 170v225q0 81 -24 136.5t-71 85.5t-105.5 42.5t-137.5 12.5h-189v-672h-20v1434zM102 692h189q85 0 143.5 12.5t104.5 43.5t68 89.5t22 145.5v129
q0 145 -64 223t-207 78h-256v-721z" />
    <glyph glyph-name="s" unicode="s" 
d="M379 1444q78 0 135.5 -28t91 -78.5t49 -113t15.5 -137.5v-24h-21v24q0 71 -14 129t-44.5 106t-84 74.5t-127.5 26.5t-127.5 -26t-84 -73.5t-44.5 -105t-14 -128.5q0 -60 19.5 -111.5t52 -90t74.5 -72.5t88.5 -64t93.5 -60t89 -65t74.5 -74t52 -92t19.5 -115
q0 -159 -71 -257.5t-224 -98.5t-224 98.5t-71 257.5v68h20v-68q0 -151 65.5 -243.5t209.5 -92.5t209 92.5t65 243.5q0 75 -31 136.5t-80.5 105t-109.5 82.5t-120.5 79.5t-110 85.5t-80.5 110t-31 145q0 164 71 258.5t220 95.5z" />
    <glyph glyph-name="t" unicode="t" horiz-adv-x="755" 
d="M385 0h-20v1413h-324v21h668v-21h-324v-1413z" />
    <glyph glyph-name="u" unicode="u" horiz-adv-x="743" 
d="M102 1434v-1078q0 -72 13.5 -131.5t43.5 -109t84.5 -77.5t129.5 -28q74 0 128 28t83.5 77.5t43 109t13.5 131.5v1078h21v-1078q0 -76 -15 -139t-47.5 -115.5t-90.5 -82t-136 -29.5q-79 0 -137.5 29.5t-91 82t-47.5 115.5t-15 139v1078h20z" />
    <glyph glyph-name="v" unicode="v" horiz-adv-x="925" 
d="M82 1434h22l361 -1411l356 1411h23l-363 -1434h-30z" />
    <glyph glyph-name="w" unicode="w" horiz-adv-x="1282" 
d="M653 1405l-268 -1405h-31l-272 1434h20l269 -1405l266 1396h33l250 -1386l260 1395h20l-268 -1434h-27z" />
    <glyph glyph-name="x" unicode="x" horiz-adv-x="913" 
d="M809 0l-352 723l-351 -723h-24l364 745l-340 689h23l328 -666l327 666h23l-338 -689l362 -745h-22z" />
    <glyph glyph-name="y" unicode="y" horiz-adv-x="872" 
d="M424 0v594l-342 840h20l332 -811l334 811h23l-347 -840v-594h-20z" />
    <glyph glyph-name="z" unicode="z" horiz-adv-x="815" 
d="M721 20v-20h-639v23l627 1390h-596v21h618v-25l-627 -1389h617z" />
    <glyph glyph-name="braceleft" unicode="{" horiz-adv-x="524" 
d="M442 1415h-53q-33 0 -57 -10.5t-37.5 -25.5t-22 -41.5t-11.5 -49t-5 -57.5l-14 -287q-1 -39 -3.5 -63t-10.5 -53t-22 -48t-38 -36t-59 -27q43 -12 70 -32.5t40 -53.5t17 -62.5t6 -79.5l14 -284q2 -35 5 -57.5t11.5 -49.5t22 -42t37.5 -25.5t57 -10.5h53v-20h-53
q-46 0 -77 15.5t-46 46.5t-21 63t-9 80l-15 284q-1 42 -3.5 64.5t-10 51.5t-22 44.5t-40 30t-63.5 22.5v29q38 9 63.5 23.5t40 30t22 44.5t10 51.5t3.5 65.5l15 285q2 38 5.5 64t13.5 54.5t26 46t43.5 29t64.5 11.5h53v-21z" />
    <glyph glyph-name="bar" unicode="|" horiz-adv-x="225" 
d="M102 1436h21v-1436h-21v1436z" />
    <glyph glyph-name="braceright" unicode="}" horiz-adv-x="524" 
d="M82 1436h53q46 0 77 -15.5t46.5 -47t21.5 -63.5t9 -79l14 -285q1 -43 3.5 -65.5t10 -51.5t22 -44.5t40 -30t63.5 -23.5v-29q-38 -8 -63.5 -22.5t-40 -30t-22 -44.5t-10 -51.5t-3.5 -64.5l-14 -284q-3 -48 -9 -80t-21.5 -63t-46.5 -46.5t-77 -15.5h-53v20h53q33 0 57 10.5
t37.5 25.5t22 42t11.5 49.5t5 57.5l15 284q2 50 6 79.5t17 62.5t40 53.5t70 32.5q-35 10 -59 27t-38 36t-22 48t-10.5 53t-3.5 63l-15 287q-2 35 -5 57.5t-11.5 49t-22 41.5t-37.5 25.5t-57 10.5h-53v21z" />
    <glyph glyph-name="asciitilde" unicode="~" horiz-adv-x="813" 
d="M250 788q42 1 90 -18.5t84 -44.5t80.5 -44.5t81.5 -18.5q72 5 127 108l18 -10q-62 -114 -143 -119q-40 -2 -86.5 18t-82.5 45t-82.5 45t-86.5 19q-91 0 -152 -106l-16 10q67 113 168 116z" />
    <glyph glyph-name="uni00A0" unicode="&#xa0;" horiz-adv-x="317" 
 />
    <glyph glyph-name="exclamdown" unicode="&#xa1;" horiz-adv-x="184" 
d="M82 1436h20v-158h-20v158zM82 0v707l2 411h16l2 -411v-707h-20z" />
    <glyph glyph-name="cent" unicode="&#xa2;" horiz-adv-x="751" 
d="M385 1434v-93q148 -3 216.5 -97.5t68.5 -250.5v-45h-21v45q0 72 -14.5 129.5t-45.5 103t-85 70.5t-129 25q-74 0 -128.5 -27.5t-85 -76t-45 -107.5t-14.5 -131v-520q0 -71 14.5 -130t45 -108t85 -76.5t128.5 -27.5t128.5 26.5t85.5 74t45.5 106.5t14.5 131v82h21v-82
q0 -75 -15.5 -137t-48 -112t-89 -79t-132.5 -31v-96h-20v96q-76 2 -132 32t-88 81t-47.5 113.5t-15.5 136.5v520q0 74 15.5 136t47.5 113t88 81t132 32v93h20z" />
    <glyph glyph-name="sterling" unicode="&#xa3;" horiz-adv-x="780" 
d="M399 1444q80 0 137.5 -30.5t89 -85t46 -118.5t14.5 -141v-55h-20v55q0 72 -13 132t-42 112t-83 81t-129 29q-270 0 -270 -348q0 -83 20.5 -158t46.5 -123t58 -117t49 -130h332v-21h-326q22 -105 -19.5 -223.5t-180.5 -282.5h589v-20h-616v20q24 29 44 53.5t43 56t40.5 61
t34.5 62.5t28 66t17.5 67t6 69.5t-8.5 70.5h-181v21h177q-17 62 -49.5 130.5t-58.5 116.5t-46 122.5t-20 158.5q0 62 8.5 114.5t29.5 100.5t53.5 81.5t83 53t115.5 19.5z" />
    <glyph glyph-name="currency" unicode="&#xa4;" horiz-adv-x="661" 
d="M580 950l-88 -88q57 -60 57 -145q0 -84 -57 -148l88 -86l-15 -14l-88 86q-61 -55 -147 -55q-85 0 -146 55l-88 -86l-14 14l88 86q-57 64 -57 148q0 85 57 145l-88 88l14 15l88 -88q60 57 146 57q87 0 147 -57l88 88zM330 913q-82 0 -139.5 -57t-57.5 -139t57.5 -139.5
t139.5 -57.5q83 0 140.5 57.5t57.5 139.5t-57.5 139t-140.5 57z" />
    <glyph glyph-name="yen" unicode="&#xa5;" horiz-adv-x="921" 
d="M715 545h-244v-180h244v-21h-244v-344h-20v344h-242v21h242v180h-242v20h240l-367 869h22l357 -842l358 842h21l-369 -869h244v-20z" />
    <glyph glyph-name="brokenbar" unicode="&#xa6;" horiz-adv-x="227" 
d="M102 838v596h23v-596h-23zM102 0v596h23v-596h-23z" />
    <glyph glyph-name="section" unicode="&#xa7;" 
d="M385 1444q116 -2 197.5 -71t81.5 -183v-19h-21v19q0 105 -75 168t-183 65q-113 0 -194.5 -53.5t-84.5 -159.5q-2 -58 28.5 -104t80 -76.5t110 -58t121 -56.5t111 -63.5t82 -88.5t31.5 -122q0 -101 -63.5 -171.5t-166.5 -111.5q54 -24 91 -45.5t73 -53t53 -73t15 -92.5
q-3 -105 -92 -165t-199 -60q-125 0 -212 66.5t-87 187.5v47h20v-47q0 -112 81.5 -173t197.5 -61q64 0 123 22t102.5 70t46.5 113q1 54 -22.5 97.5t-63 71.5t-90.5 55t-104.5 47.5t-104.5 49t-91.5 59.5t-64.5 80t-24 110q0 103 76 175t184 99q-51 23 -81 38t-69.5 41.5
t-61 51.5t-36.5 61.5t-14 79.5q3 115 90 174.5t209 59.5zM381 924q-109 -19 -190.5 -88t-81.5 -172q-1 -47 17 -87t44 -67.5t66.5 -52.5t75.5 -41.5t80 -35.5l7.5 -3t7 -3t7.5 -3q104 36 169.5 103t65.5 167q0 55 -21 99t-64.5 78.5t-82 56t-100.5 49.5z" />
    <glyph glyph-name="dieresis" unicode="&#xa8;" horiz-adv-x="319" 
d="M82 1696h20v-160h-20v160zM217 1696h21v-160h-21v160z" />
    <glyph glyph-name="copyright" unicode="&#xa9;" horiz-adv-x="1544" 
d="M772 1425q148 0 277 -55t219.5 -149.5t142 -225t51.5 -278.5t-51.5 -279t-142 -225.5t-219.5 -149.5t-277 -55q-199 0 -357.5 94t-245.5 255.5t-87 359.5t87 359.5t245.5 255t357.5 93.5zM772 1405q-145 0 -270 -53.5t-212.5 -145.5t-137.5 -218.5t-50 -270.5t50 -271
t137.5 -219.5t212.5 -146t270 -53.5t270 53.5t212.5 146t137.5 219.5t50 271t-50 270.5t-137.5 218.5t-212.5 145.5t-270 53.5zM764 1165q106 0 155.5 -70.5t49.5 -181.5v-34h-21v34q0 103 -43.5 167.5t-140.5 64.5q-51 0 -88 -18.5t-58 -51.5t-30.5 -73t-9.5 -89v-393
q0 -103 44 -168t142 -65q97 0 140.5 65t43.5 168v51h21v-51q0 -111 -49.5 -182.5t-155.5 -71.5q-107 0 -157 71.5t-50 182.5v393q0 111 50 181.5t157 70.5z" />
    <glyph glyph-name="ordfeminine" unicode="&#xaa;" horiz-adv-x="552" 
d="M299 1444q95 0 133.5 -59.5t38.5 -161.5v-533h-20v144q-25 -70 -73 -112t-118 -42q-87 0 -132.5 51.5t-45.5 140.5v7q0 222 369 227v117q0 44 -6.5 77.5t-22.5 62.5t-47 44.5t-76 15.5q-166 0 -166 -200v-15h-20v15q0 221 186 221zM451 924v161q-50 -1 -91 -4.5
t-91.5 -16.5t-85 -34t-58 -60t-23.5 -91v-7q0 -80 39.5 -126t118.5 -46q85 0 133 66.5t58 157.5zM86 526h385v-20h-385v20z" />
    <glyph glyph-name="guillemotleft" unicode="&#xab;" horiz-adv-x="503" 
d="M219 233l-137 486l137 487h21l-138 -487l138 -486h-21zM401 233l-137 486l137 487h21l-137 -487l137 -486h-21z" />
    <glyph glyph-name="logicalnot" unicode="&#xac;" horiz-adv-x="759" 
d="M657 709h-575v18h596v-291h-21v273z" />
    <glyph glyph-name="uni00AD" unicode="&#xad;" horiz-adv-x="520" 
d="M82 709v18h356v-18h-356z" />
    <glyph glyph-name="registered" unicode="&#xae;" horiz-adv-x="1544" 
d="M772 1425q148 0 277 -55t219.5 -149.5t142 -225t51.5 -278.5t-51.5 -279t-142 -225.5t-219.5 -149.5t-277 -55q-199 0 -357.5 94t-245.5 255.5t-87 359.5t87 359.5t245.5 255t357.5 93.5zM772 1405q-145 0 -270 -53.5t-212.5 -145.5t-137.5 -218.5t-50 -270.5t50 -271
t137.5 -219.5t212.5 -146t270 -53.5t270 53.5t212.5 146t137.5 219.5t50 271t-50 270.5t-137.5 218.5t-212.5 145.5t-270 53.5zM584 1155h194q205 0 205 -227v-29q0 -85 -32.5 -138.5t-110.5 -72.5q145 -36 145 -196v-95q0 -87 29 -118h-25q-24 42 -24 118v95q0 57 -17 95
t-51 58t-74 27.5t-96 7.5h-123v-401h-20v876zM604 700h148q108 0 159.5 46.5t51.5 152.5v29q0 100 -43 153.5t-142 53.5h-174v-435z" />
    <glyph glyph-name="macron" unicode="&#xaf;" horiz-adv-x="520" 
d="M82 1554h356v-18h-356v18z" />
    <glyph glyph-name="degree" unicode="&#xb0;" horiz-adv-x="409" 
d="M205 1450q51 0 87 -34t36 -85q0 -52 -35.5 -86.5t-87.5 -34.5t-87.5 34.5t-35.5 86.5q0 51 36 85t87 34zM205 1430q-43 0 -73 -28.5t-30 -70.5q0 -44 30 -72t73 -28q42 0 72 28.5t30 71.5q0 42 -30 70.5t-72 28.5z" />
    <glyph glyph-name="plusminus" unicode="&#xb1;" horiz-adv-x="786" 
d="M82 420h301v287h-301v20h301v303h20v-303h302v-20h-302v-287h302v-21h-623v21z" />
    <glyph glyph-name="twosuperior" unicode="&#xb2;" horiz-adv-x="544" 
d="M272 1638q101 0 146 -65.5t45 -171.5q0 -51 -19.5 -97.5t-50.5 -85t-69 -77t-76 -80t-70 -86.5t-53 -105t-23 -127v-4h353v-20h-373v10q0 71 20 134t51.5 110.5t70 90.5t77 82t70 77t51.5 83.5t20 94.5q0 217 -170 217q-91 0 -130.5 -62t-39.5 -159v-43h-20v43
q0 106 45 173.5t145 67.5z" />
    <glyph glyph-name="threesuperior" unicode="&#xb3;" horiz-adv-x="544" 
d="M272 1638q98 0 144.5 -65t46.5 -168v-23q0 -64 -32.5 -115.5t-90.5 -72.5q61 -20 92 -68t31 -114v-70q0 -103 -46.5 -168t-144.5 -65q-99 0 -144.5 65t-45.5 168v39h20v-39q0 -96 40 -154.5t130 -58.5t130 58.5t40 154.5v70q0 72 -42 121t-113 49h-68v20h68
q68 0 112.5 55.5t42.5 124.5v23q0 95 -40 154t-130 59t-130 -59t-40 -154v-25h-20v25q0 103 45.5 168t144.5 65z" />
    <glyph glyph-name="acute" unicode="&#xb4;" horiz-adv-x="342" 
d="M231 1737h29l-151 -176h-27z" />
    <glyph glyph-name="uni00B5" unicode="&#xb5;" horiz-adv-x="821" 
d="M676 0l2 231q-26 -110 -93.5 -170.5t-178.5 -60.5t-179.5 61t-91.5 164l2 -411h-20v1210h20v-662q0 -73 14 -133t44.5 -108.5t84 -75.5t126.5 -27q72 0 125.5 27t84.5 75.5t45.5 108.5t14.5 133v662h20v-1024h-20z" />
    <glyph glyph-name="paragraph" unicode="&#xb6;" horiz-adv-x="811" 
d="M674 1413h-338v-1536h-21v741q-144 9 -200 88t-56 246v150q0 80 10 135t36.5 102t78.5 70.5t131 24.5h379v-1557h-20v1536z" />
    <glyph glyph-name="periodcentered" unicode="&#xb7;" horiz-adv-x="184" 
d="M82 827h20v-159h-20v159z" />
    <glyph glyph-name="cedilla" unicode="&#xb8;" horiz-adv-x="503" 
d="M268 0v-80q154 -4 154 -110q0 -61 -52 -92t-116 -29q-66 0 -119 31t-53 92v6h20v-6q0 -35 26 -60t58.5 -34.5t67.5 -10.5q55 0 101 25.5t46 77.5q0 29 -12.5 48.5t-35 28.5t-44.5 12t-51 3h-10v98h20z" />
    <glyph glyph-name="onesuperior" unicode="&#xb9;" horiz-adv-x="337" 
d="M84 1479l-2 20q108 12 147 129h27v-909h-20v868q-50 -96 -152 -108z" />
    <glyph glyph-name="ordmasculine" unicode="&#xba;" horiz-adv-x="552" 
d="M276 1444q100 0 147.5 -65t47.5 -169v-305q0 -103 -47.5 -168t-147.5 -65t-147 64.5t-47 168.5v305q0 104 47 169t147 65zM276 1423q-91 0 -132.5 -59t-41.5 -154v-305q0 -95 41.5 -154t132.5 -59t133 59t42 154v305q0 95 -42 154t-133 59zM86 530h385v-20h-385v20z" />
    <glyph glyph-name="guillemotright" unicode="&#xbb;" horiz-adv-x="503" 
d="M82 233l137 486l-137 487h20l138 -487l-138 -486h-20zM264 233l137 486l-137 487h21l137 -487l-137 -486h-21z" />
    <glyph glyph-name="onequarter" unicode="&#xbc;" horiz-adv-x="966" 
d="M236 524v869q-51 -97 -152 -109l-2 21q108 12 147 129h27v-910h-20zM762 1434l-565 -1434h-21l565 1434h21zM807 215v-215h-21v215h-331v21l325 673h27v-673h78v-21h-78zM479 236h307v638z" />
    <glyph glyph-name="onehalf" unicode="&#xbd;" horiz-adv-x="1110" 
d="M236 524v869q-51 -97 -152 -109l-2 21q108 12 147 129h27v-910h-20zM741 1434h21l-565 -1434h-21zM838 920q101 0 145.5 -66t44.5 -172q0 -51 -19.5 -97.5t-50.5 -85t-68.5 -77t-75.5 -80t-70 -86.5t-53 -104.5t-23 -126.5v-5h352v-20h-373v10q0 71 20 134t51.5 110.5
t70.5 90.5t77.5 82t70 77t51.5 83.5t20 94.5q0 217 -170 217q-91 0 -130.5 -62t-39.5 -159v-43h-21v43q0 106 45.5 174t145.5 68z" />
    <glyph glyph-name="threequarters" unicode="&#xbe;" horiz-adv-x="1126" 
d="M272 1444q98 0 144.5 -65.5t46.5 -168.5v-22q0 -64 -32.5 -116t-90.5 -73q61 -20 92 -68t31 -114v-69q0 -103 -46.5 -168.5t-144.5 -65.5q-99 0 -144.5 65.5t-45.5 168.5v38h20v-38q0 -96 40 -154.5t130 -58.5t130 58.5t40 154.5v69q0 72 -42 121t-113 49h-68v21h68
q68 0 112.5 55.5t42.5 124.5v22q0 95 -40 154t-130 59t-130 -59t-40 -154v-24h-20v24q0 103 45.5 168.5t144.5 65.5zM336 0l565 1434h21l-566 -1434h-20zM946 0v215h-332v21l326 673h27v-673h77v-21h-77v-215h-21zM946 874l-307 -638h307v638z" />
    <glyph glyph-name="questiondown" unicode="&#xbf;" horiz-adv-x="745" 
d="M391 1434h21v-158h-21v158zM389 1112h21q10 -42 10 -74q0 -63 -18 -120.5t-46 -102t-62 -87t-67.5 -83.5t-61.5 -83t-45.5 -94.5t-17.5 -109.5q0 -350 271 -350q75 0 129.5 29.5t84 81t43 111.5t13.5 132v68h21v-68q0 -76 -15 -140t-47 -117.5t-90.5 -84t-138.5 -30.5
q-81 0 -139.5 29t-90.5 82t-46.5 116t-14.5 141q0 68 23.5 130.5t58.5 108t76.5 97.5t76.5 98.5t58.5 111t23.5 134.5q0 36 -10 74z" />
    <glyph glyph-name="Agrave" unicode="&#xc0;" horiz-adv-x="925" 
d="M338 1686h29l149 -177h-27zM733 348h-543l-88 -348h-20l362 1436h29l371 -1436h-21zM459 1409l-262 -1040h530z" />
    <glyph glyph-name="Aacute" unicode="&#xc1;" horiz-adv-x="925" 
d="M530 1688h29l-151 -177h-27zM733 348h-543l-88 -348h-20l362 1436h29l371 -1436h-21zM459 1409l-262 -1040h530z" />
    <glyph glyph-name="Acircumflex" unicode="&#xc2;" horiz-adv-x="925" 
d="M459 1649l-146 -140h-28l166 160h14l168 -160h-31zM733 348h-543l-88 -348h-20l362 1436h29l371 -1436h-21zM459 1409l-262 -1040h530z" />
    <glyph glyph-name="Atilde" unicode="&#xc3;" horiz-adv-x="925" 
d="M367 1638q38 1 101.5 -39t92.5 -38q39 2 70 63l18 -10q-37 -72 -88 -74q-36 -2 -98.5 38.5t-95.5 39.5q-49 0 -84 -64l-19 11q42 70 103 73zM733 348h-543l-88 -348h-20l362 1436h29l371 -1436h-21zM459 1409l-262 -1040h530z" />
    <glyph glyph-name="Adieresis" unicode="&#xc4;" horiz-adv-x="925" 
d="M381 1669h20v-160h-20v160zM516 1669h21v-160h-21v160zM733 348h-543l-88 -348h-20l362 1436h29l371 -1436h-21zM459 1409l-262 -1040h530z" />
    <glyph glyph-name="Aring" unicode="&#xc5;" horiz-adv-x="925" 
d="M457 1759q51 0 87 -34t36 -85q0 -52 -35.5 -86t-87.5 -34t-87.5 34t-35.5 86q0 51 36 85t87 34zM457 1739q-43 0 -73 -28.5t-30 -70.5q0 -44 30 -72t73 -28q42 0 72 28.5t30 71.5q0 42 -30 70.5t-72 28.5zM733 348h-543l-88 -348h-20l362 1436h29l371 -1436h-21z
M459 1409l-262 -1040h530z" />
    <glyph glyph-name="AE" unicode="&#xc6;" horiz-adv-x="1216" 
d="M698 737h369v-20h-369v-697h437v-20h-457v356h-430l-146 -356h-20l582 1434h471v-21h-437v-676zM678 1413l-422 -1036h422v1036z" />
    <glyph glyph-name="Ccedilla" unicode="&#xc7;" 
d="M377 1444q79 0 137.5 -29t92 -80.5t49.5 -115t16 -138.5v-108h-21v108q0 72 -14.5 131t-45.5 107.5t-85.5 76t-128.5 27.5t-129 -27.5t-86 -76t-45.5 -108t-14.5 -130.5v-729q0 -71 14.5 -130.5t45.5 -108t86 -76t129 -27.5t128.5 27.5t85.5 76t45.5 107.5t14.5 131v152
h21v-152q0 -74 -15.5 -136.5t-48 -113t-89 -80.5t-132.5 -32v-70q154 -4 154 -110q0 -61 -52 -92t-116 -29q-66 0 -119 31t-53 92v6h20v-6q0 -35 26 -60t58.5 -34.5t67.5 -10.5q55 0 101 25.5t46 77.5q0 29 -12.5 48.5t-35 28.5t-44.5 12t-51 3h-10v88q-76 2 -132.5 32
t-89 80.5t-48 113t-15.5 136.5v729q0 75 16 138.5t49.5 115t92 80.5t137.5 29z" />
    <glyph glyph-name="Egrave" unicode="&#xc8;" horiz-adv-x="700" 
d="M252 1718h29l149 -176h-27zM102 737h437v-20h-437v-697h516v-20h-536v1434h536v-21h-516v-676z" />
    <glyph glyph-name="Eacute" unicode="&#xc9;" horiz-adv-x="700" 
d="M451 1696h28l-151 -176h-27zM102 737h437v-20h-437v-697h516v-20h-536v1434h536v-21h-516v-676z" />
    <glyph glyph-name="Ecircumflex" unicode="&#xca;" horiz-adv-x="700" 
d="M350 1663l-145 -139h-29l166 159h14l168 -159h-30zM102 737h437v-20h-437v-697h516v-20h-536v1434h536v-21h-516v-676z" />
    <glyph glyph-name="Edieresis" unicode="&#xcb;" horiz-adv-x="700" 
d="M272 1679h21v-159h-21v159zM408 1679h20v-159h-20v159zM102 737h437v-20h-437v-697h516v-20h-536v1434h536v-21h-516v-676z" />
    <glyph glyph-name="Igrave" unicode="&#xcc;" horiz-adv-x="184" 
d="M102 1520l-151 176h29l149 -176h-27zM82 0v1434h20v-1434h-20z" />
    <glyph glyph-name="Iacute" unicode="&#xcd;" horiz-adv-x="184" 
d="M37 1522l149 176h29l-152 -176h-26zM82 0v1434h20v-1434h-20z" />
    <glyph glyph-name="Icircumflex" unicode="&#xce;" horiz-adv-x="184" 
d="M84 1679h14l168 -159h-30l-144 139l-145 -139h-29zM82 0v1434h20v-1434h-20z" />
    <glyph glyph-name="Idieresis" unicode="&#xcf;" horiz-adv-x="184" 
d="M14 1681h21v-159h-21v159zM150 1681h20v-159h-20v159zM82 1434h20v-1434h-20v1434z" />
    <glyph glyph-name="Eth" unicode="&#xd0;" horiz-adv-x="761" 
d="M82 1434h291q156 0 231.5 -99t75.5 -260v-719q0 -104 -30 -181.5t-100 -126t-175 -48.5h-293v709h-107v18h107v707zM309 727v-18h-207v-689h273q147 0 215.5 92t68.5 244v719q0 153 -69.5 245.5t-216.5 92.5h-271v-686h207z" />
    <glyph glyph-name="Ntilde" unicode="&#xd1;" horiz-adv-x="759" 
d="M557 1651l18 -11q-36 -71 -88 -73q-36 -2 -98.5 38.5t-95.5 39.5q-49 0 -84 -64l-19 10q42 71 103 74q38 1 101.5 -39.5t92.5 -38.5q38 2 70 64zM102 1413v-1413h-20v1434h35l540 -1407v1407h21v-1434h-31z" />
    <glyph glyph-name="Ograve" unicode="&#xd2;" horiz-adv-x="763" 
d="M258 1716h29l149 -176h-26zM381 1444q80 0 139 -28.5t94 -79.5t51.5 -114.5t16.5 -140.5v-729q0 -77 -16.5 -140.5t-51.5 -114t-94 -79t-139 -28.5q-79 0 -138 28.5t-93.5 79t-51 114t-16.5 140.5v729q0 77 16.5 140.5t51 114.5t93.5 79.5t138 28.5zM381 1423
q-75 0 -130.5 -27t-87 -75.5t-46.5 -108t-15 -131.5v-729q0 -73 15 -132.5t46.5 -107.5t87 -75t130.5 -27t131 27t88 75t47 107.5t15 132.5v729q0 72 -15 131.5t-47 108t-88 75.5t-131 27z" />
    <glyph glyph-name="Oacute" unicode="&#xd3;" horiz-adv-x="763" 
d="M475 1716h29l-152 -176h-26zM381 1444q80 0 139 -28.5t94 -79.5t51.5 -114.5t16.5 -140.5v-729q0 -77 -16.5 -140.5t-51.5 -114t-94 -79t-139 -28.5q-79 0 -138 28.5t-93.5 79t-51 114t-16.5 140.5v729q0 77 16.5 140.5t51 114.5t93.5 79.5t138 28.5zM381 1423
q-75 0 -130.5 -27t-87 -75.5t-46.5 -108t-15 -131.5v-729q0 -73 15 -132.5t46.5 -107.5t87 -75t130.5 -27t131 27t88 75t47 107.5t15 132.5v729q0 72 -15 131.5t-47 108t-88 75.5t-131 27z" />
    <glyph glyph-name="Ocircumflex" unicode="&#xd4;" horiz-adv-x="763" 
d="M381 1675l-145 -139h-29l166 160h14l168 -160h-31zM381 1444q80 0 139 -28.5t94 -79.5t51.5 -114.5t16.5 -140.5v-729q0 -77 -16.5 -140.5t-51.5 -114t-94 -79t-139 -28.5q-79 0 -138 28.5t-93.5 79t-51 114t-16.5 140.5v729q0 77 16.5 140.5t51 114.5t93.5 79.5
t138 28.5zM381 1423q-75 0 -130.5 -27t-87 -75.5t-46.5 -108t-15 -131.5v-729q0 -73 15 -132.5t46.5 -107.5t87 -75t130.5 -27t131 27t88 75t47 107.5t15 132.5v729q0 72 -15 131.5t-47 108t-88 75.5t-131 27z" />
    <glyph glyph-name="Otilde" unicode="&#xd5;" horiz-adv-x="763" 
d="M567 1642l19 -10q-36 -71 -88 -73q-36 -2 -99 38t-96 39q-50 0 -84 -63l-18 10q42 71 102 74q38 1 102 -39.5t93 -38.5q38 2 69 63zM381 1444q80 0 139 -28.5t94 -79.5t51.5 -114.5t16.5 -140.5v-729q0 -77 -16.5 -140.5t-51.5 -114t-94 -79t-139 -28.5q-79 0 -138 28.5
t-93.5 79t-51 114t-16.5 140.5v729q0 77 16.5 140.5t51 114.5t93.5 79.5t138 28.5zM381 1423q-75 0 -130.5 -27t-87 -75.5t-46.5 -108t-15 -131.5v-729q0 -73 15 -132.5t46.5 -107.5t87 -75t130.5 -27t131 27t88 75t47 107.5t15 132.5v729q0 72 -15 131.5t-47 108t-88 75.5
t-131 27z" />
    <glyph glyph-name="Odieresis" unicode="&#xd6;" horiz-adv-x="763" 
d="M303 1696h21v-160h-21v160zM438 1696h21v-160h-21v160zM381 1444q80 0 139 -28.5t94 -79.5t51.5 -114.5t16.5 -140.5v-729q0 -77 -16.5 -140.5t-51.5 -114t-94 -79t-139 -28.5q-79 0 -138 28.5t-93.5 79t-51 114t-16.5 140.5v729q0 77 16.5 140.5t51 114.5t93.5 79.5
t138 28.5zM381 1423q-75 0 -130.5 -27t-87 -75.5t-46.5 -108t-15 -131.5v-729q0 -73 15 -132.5t46.5 -107.5t87 -75t130.5 -27t131 27t88 75t47 107.5t15 132.5v729q0 72 -15 131.5t-47 108t-88 75.5t-131 27z" />
    <glyph glyph-name="multiply" unicode="&#xd7;" horiz-adv-x="622" 
d="M541 500l-15 -15l-215 215l-215 -215l-14 15l215 215l-215 215l14 14l215 -215l215 215l15 -14l-215 -215z" />
    <glyph glyph-name="Oslash" unicode="&#xd8;" horiz-adv-x="763" 
d="M381 1444q152 0 233 -109l39 99l17 -7l-43 -112q55 -89 55 -234v-729q0 -77 -16.5 -140.5t-51.5 -114t-94 -79t-139 -28.5q-158 0 -234 110l-43 -106l-16 6l47 119q-53 90 -53 233v729q0 77 16.5 140.5t51 114.5t93.5 79.5t138 28.5zM381 1423q-75 0 -130.5 -27
t-87 -75.5t-46.5 -108t-15 -131.5v-729q0 -126 41 -209l461 1168q-69 112 -223 112zM616 1290l-460 -1169q70 -111 225 -111q75 0 131 27t88 75t47 107.5t15 132.5v729q0 124 -46 209z" />
    <glyph glyph-name="Ugrave" unicode="&#xd9;" horiz-adv-x="743" 
d="M246 1698h28l150 -176h-27zM662 1434v-1078q0 -76 -15 -139t-47.5 -115.5t-90.5 -82t-136 -29.5q-79 0 -137.5 29.5t-91 82t-47.5 115.5t-15 139v1078h20v-1078q0 -72 13.5 -131.5t43.5 -109t84.5 -77.5t129.5 -28q74 0 128 28t83.5 77.5t43 109t13.5 131.5v1078h21z" />
    <glyph glyph-name="Uacute" unicode="&#xda;" horiz-adv-x="743" 
d="M485 1716h29l-152 -176h-26zM662 1434v-1078q0 -76 -15 -139t-47.5 -115.5t-90.5 -82t-136 -29.5q-79 0 -137.5 29.5t-91 82t-47.5 115.5t-15 139v1078h20v-1078q0 -72 13.5 -131.5t43.5 -109t84.5 -77.5t129.5 -28q74 0 128 28t83.5 77.5t43 109t13.5 131.5v1078h21z
" />
    <glyph glyph-name="Ucircumflex" unicode="&#xdb;" horiz-adv-x="743" 
d="M375 1675l-146 -139h-28l166 160h14l168 -160h-31zM662 1434v-1078q0 -76 -15 -139t-47.5 -115.5t-90.5 -82t-136 -29.5q-79 0 -137.5 29.5t-91 82t-47.5 115.5t-15 139v1078h20v-1078q0 -72 13.5 -131.5t43.5 -109t84.5 -77.5t129.5 -28q74 0 128 28t83.5 77.5t43 109
t13.5 131.5v1078h21z" />
    <glyph glyph-name="Udieresis" unicode="&#xdc;" horiz-adv-x="743" 
d="M293 1690h20v-160h-20v160zM428 1690h21v-160h-21v160zM662 1434v-1078q0 -76 -15 -139t-47.5 -115.5t-90.5 -82t-136 -29.5q-79 0 -137.5 29.5t-91 82t-47.5 115.5t-15 139v1078h20v-1078q0 -72 13.5 -131.5t43.5 -109t84.5 -77.5t129.5 -28q74 0 128 28t83.5 77.5
t43 109t13.5 131.5v1078h21z" />
    <glyph glyph-name="Yacute" unicode="&#xdd;" horiz-adv-x="872" 
d="M545 1696h28l-151 -176h-27zM424 0v594l-342 840h20l332 -811l334 811h23l-347 -840v-594h-20z" />
    <glyph glyph-name="Thorn" unicode="&#xde;" horiz-adv-x="772" 
d="M102 1135h256q291 0 291 -344v-140q0 -170 -79.5 -251t-250.5 -81h-217v-319h-20v1434h20v-299zM102 340h217q163 0 236.5 74.5t73.5 236.5v140q0 152 -62 237.5t-209 85.5h-256v-774z" />
    <glyph glyph-name="germandbls" unicode="&#xdf;" horiz-adv-x="1415" 
d="M369 1444q78 0 135.5 -28t90.5 -78.5t48.5 -112.5t15.5 -138v-24h-20v24q0 71 -14 129t-44.5 106t-84 74.5t-127.5 26.5q-59 0 -106 -17.5t-77.5 -47.5t-50.5 -73t-28.5 -91t-8.5 -104q0 -76 31 -139t81 -106.5t110 -83t120 -79.5t110 -84.5t81 -109t31 -142.5
q0 -159 -71 -257.5t-224 -98.5t-224 98.5t-71 257.5v68h20v-68q0 -151 65.5 -243.5t209.5 -92.5t209 92.5t65 243.5q0 75 -31 136.5t-80.5 105t-109.5 82.5t-120.5 79.5t-110 85.5t-80.5 110t-31 145q0 164 71 258.5t220 95.5zM1049 1444q78 0 135.5 -28t90.5 -78.5
t48.5 -112.5t15.5 -138v-24h-20v24q0 71 -14 129t-44.5 106t-84 74.5t-127.5 26.5q-59 0 -106 -17.5t-77.5 -47.5t-50.5 -73t-28.5 -91t-8.5 -104q0 -60 19.5 -111.5t52 -90t74.5 -72.5t89 -64t93.5 -60t88.5 -65t74.5 -74t52 -92t19.5 -115q0 -76 -16 -138.5t-49.5 -112.5
t-91.5 -77.5t-137 -27.5q-153 0 -224 98.5t-71 257.5v68h20v-68q0 -151 65.5 -243.5t209.5 -92.5t209 92.5t65 243.5q0 75 -31 136.5t-80.5 105t-109.5 82.5t-120.5 79.5t-110 85.5t-80.5 110t-31 145q0 164 71 258.5t220 95.5z" />
    <glyph glyph-name="agrave" unicode="&#xe0;" horiz-adv-x="925" 
d="M338 1686h29l149 -177h-27zM733 348h-543l-88 -348h-20l362 1436h29l371 -1436h-21zM459 1409l-262 -1040h530z" />
    <glyph glyph-name="aacute" unicode="&#xe1;" horiz-adv-x="925" 
d="M530 1688h29l-151 -177h-27zM733 348h-543l-88 -348h-20l362 1436h29l371 -1436h-21zM459 1409l-262 -1040h530z" />
    <glyph glyph-name="acircumflex" unicode="&#xe2;" horiz-adv-x="925" 
d="M459 1649l-146 -140h-28l166 160h14l168 -160h-31zM733 348h-543l-88 -348h-20l362 1436h29l371 -1436h-21zM459 1409l-262 -1040h530z" />
    <glyph glyph-name="atilde" unicode="&#xe3;" horiz-adv-x="925" 
d="M367 1638q38 1 101.5 -39t92.5 -38q39 2 70 63l18 -10q-37 -72 -88 -74q-36 -2 -98.5 38.5t-95.5 39.5q-49 0 -84 -64l-19 11q42 70 103 73zM733 348h-543l-88 -348h-20l362 1436h29l371 -1436h-21zM459 1409l-262 -1040h530z" />
    <glyph glyph-name="adieresis" unicode="&#xe4;" horiz-adv-x="925" 
d="M381 1669h20v-160h-20v160zM516 1669h21v-160h-21v160zM733 348h-543l-88 -348h-20l362 1436h29l371 -1436h-21zM459 1409l-262 -1040h530z" />
    <glyph glyph-name="aring" unicode="&#xe5;" horiz-adv-x="925" 
d="M457 1759q51 0 87 -34t36 -85q0 -52 -35.5 -86t-87.5 -34t-87.5 34t-35.5 86q0 51 36 85t87 34zM457 1739q-43 0 -73 -28.5t-30 -70.5q0 -44 30 -72t73 -28q42 0 72 28.5t30 71.5q0 42 -30 70.5t-72 28.5zM733 348h-543l-88 -348h-20l362 1436h29l371 -1436h-21z
M459 1409l-262 -1040h530z" />
    <glyph glyph-name="ae" unicode="&#xe6;" horiz-adv-x="1216" 
d="M698 737h369v-20h-369v-697h437v-20h-457v356h-430l-146 -356h-20l582 1434h471v-21h-437v-676zM678 1413l-422 -1036h422v1036z" />
    <glyph glyph-name="ccedilla" unicode="&#xe7;" 
d="M377 1444q79 0 137.5 -29t92 -80.5t49.5 -115t16 -138.5v-108h-21v108q0 72 -14.5 131t-45.5 107.5t-85.5 76t-128.5 27.5t-129 -27.5t-86 -76t-45.5 -108t-14.5 -130.5v-729q0 -71 14.5 -130.5t45.5 -108t86 -76t129 -27.5t128.5 27.5t85.5 76t45.5 107.5t14.5 131v152
h21v-152q0 -74 -15.5 -136.5t-48 -113t-89 -80.5t-132.5 -32v-70q154 -4 154 -110q0 -61 -52 -92t-116 -29q-66 0 -119 31t-53 92v6h20v-6q0 -35 26 -60t58.5 -34.5t67.5 -10.5q55 0 101 25.5t46 77.5q0 29 -12.5 48.5t-35 28.5t-44.5 12t-51 3h-10v88q-76 2 -132.5 32
t-89 80.5t-48 113t-15.5 136.5v729q0 75 16 138.5t49.5 115t92 80.5t137.5 29z" />
    <glyph glyph-name="egrave" unicode="&#xe8;" horiz-adv-x="700" 
d="M252 1718h29l149 -176h-27zM102 737h437v-20h-437v-697h516v-20h-536v1434h536v-21h-516v-676z" />
    <glyph glyph-name="eacute" unicode="&#xe9;" horiz-adv-x="700" 
d="M451 1696h28l-151 -176h-27zM102 737h437v-20h-437v-697h516v-20h-536v1434h536v-21h-516v-676z" />
    <glyph glyph-name="ecircumflex" unicode="&#xea;" horiz-adv-x="700" 
d="M350 1663l-145 -139h-29l166 159h14l168 -159h-30zM102 737h437v-20h-437v-697h516v-20h-536v1434h536v-21h-516v-676z" />
    <glyph glyph-name="edieresis" unicode="&#xeb;" horiz-adv-x="700" 
d="M272 1679h21v-159h-21v159zM408 1679h20v-159h-20v159zM102 737h437v-20h-437v-697h516v-20h-536v1434h536v-21h-516v-676z" />
    <glyph glyph-name="igrave" unicode="&#xec;" horiz-adv-x="184" 
d="M102 1520l-151 176h29l149 -176h-27zM82 0v1434h20v-1434h-20z" />
    <glyph glyph-name="iacute" unicode="&#xed;" horiz-adv-x="184" 
d="M37 1522l149 176h29l-152 -176h-26zM82 0v1434h20v-1434h-20z" />
    <glyph glyph-name="icircumflex" unicode="&#xee;" horiz-adv-x="184" 
d="M84 1679h14l168 -159h-30l-144 139l-145 -139h-29zM82 0v1434h20v-1434h-20z" />
    <glyph glyph-name="idieresis" unicode="&#xef;" horiz-adv-x="184" 
d="M14 1681h21v-159h-21v159zM150 1681h20v-159h-20v159zM82 1434h20v-1434h-20v1434z" />
    <glyph glyph-name="eth" unicode="&#xf0;" horiz-adv-x="761" 
d="M82 1434h291q156 0 231.5 -99t75.5 -260v-719q0 -104 -30 -181.5t-100 -126t-175 -48.5h-293v705h-94v18h94v711zM311 723v-18h-209v-685h273q147 0 215.5 92t68.5 244v719q0 153 -69.5 245.5t-216.5 92.5h-271v-690h209z" />
    <glyph glyph-name="ntilde" unicode="&#xf1;" horiz-adv-x="759" 
d="M557 1651l18 -11q-36 -71 -88 -73q-36 -2 -98.5 38.5t-95.5 39.5q-49 0 -84 -64l-19 10q42 71 103 74q38 1 101.5 -39.5t92.5 -38.5q38 2 70 64zM102 1413v-1413h-20v1434h35l540 -1407v1407h21v-1434h-31z" />
    <glyph glyph-name="ograve" unicode="&#xf2;" horiz-adv-x="763" 
d="M258 1716h29l149 -176h-26zM381 1444q80 0 139 -28.5t94 -79.5t51.5 -114.5t16.5 -140.5v-729q0 -77 -16.5 -140.5t-51.5 -114t-94 -79t-139 -28.5q-79 0 -138 28.5t-93.5 79t-51 114t-16.5 140.5v729q0 77 16.5 140.5t51 114.5t93.5 79.5t138 28.5zM381 1423
q-75 0 -130.5 -27t-87 -75.5t-46.5 -108t-15 -131.5v-729q0 -73 15 -132.5t46.5 -107.5t87 -75t130.5 -27t131 27t88 75t47 107.5t15 132.5v729q0 72 -15 131.5t-47 108t-88 75.5t-131 27z" />
    <glyph glyph-name="oacute" unicode="&#xf3;" horiz-adv-x="763" 
d="M475 1716h29l-152 -176h-26zM381 1444q80 0 139 -28.5t94 -79.5t51.5 -114.5t16.5 -140.5v-729q0 -77 -16.5 -140.5t-51.5 -114t-94 -79t-139 -28.5q-79 0 -138 28.5t-93.5 79t-51 114t-16.5 140.5v729q0 77 16.5 140.5t51 114.5t93.5 79.5t138 28.5zM381 1423
q-75 0 -130.5 -27t-87 -75.5t-46.5 -108t-15 -131.5v-729q0 -73 15 -132.5t46.5 -107.5t87 -75t130.5 -27t131 27t88 75t47 107.5t15 132.5v729q0 72 -15 131.5t-47 108t-88 75.5t-131 27z" />
    <glyph glyph-name="ocircumflex" unicode="&#xf4;" horiz-adv-x="763" 
d="M381 1675l-145 -139h-29l166 160h14l168 -160h-31zM381 1444q80 0 139 -28.5t94 -79.5t51.5 -114.5t16.5 -140.5v-729q0 -77 -16.5 -140.5t-51.5 -114t-94 -79t-139 -28.5q-79 0 -138 28.5t-93.5 79t-51 114t-16.5 140.5v729q0 77 16.5 140.5t51 114.5t93.5 79.5
t138 28.5zM381 1423q-75 0 -130.5 -27t-87 -75.5t-46.5 -108t-15 -131.5v-729q0 -73 15 -132.5t46.5 -107.5t87 -75t130.5 -27t131 27t88 75t47 107.5t15 132.5v729q0 72 -15 131.5t-47 108t-88 75.5t-131 27z" />
    <glyph glyph-name="otilde" unicode="&#xf5;" horiz-adv-x="763" 
d="M567 1642l19 -10q-36 -71 -88 -73q-36 -2 -99 38t-96 39q-50 0 -84 -63l-18 10q42 71 102 74q38 1 102 -39.5t93 -38.5q38 2 69 63zM381 1444q80 0 139 -28.5t94 -79.5t51.5 -114.5t16.5 -140.5v-729q0 -77 -16.5 -140.5t-51.5 -114t-94 -79t-139 -28.5q-79 0 -138 28.5
t-93.5 79t-51 114t-16.5 140.5v729q0 77 16.5 140.5t51 114.5t93.5 79.5t138 28.5zM381 1423q-75 0 -130.5 -27t-87 -75.5t-46.5 -108t-15 -131.5v-729q0 -73 15 -132.5t46.5 -107.5t87 -75t130.5 -27t131 27t88 75t47 107.5t15 132.5v729q0 72 -15 131.5t-47 108t-88 75.5
t-131 27z" />
    <glyph glyph-name="odieresis" unicode="&#xf6;" horiz-adv-x="763" 
d="M303 1696h21v-160h-21v160zM438 1696h21v-160h-21v160zM381 1444q80 0 139 -28.5t94 -79.5t51.5 -114.5t16.5 -140.5v-729q0 -77 -16.5 -140.5t-51.5 -114t-94 -79t-139 -28.5q-79 0 -138 28.5t-93.5 79t-51 114t-16.5 140.5v729q0 77 16.5 140.5t51 114.5t93.5 79.5
t138 28.5zM381 1423q-75 0 -130.5 -27t-87 -75.5t-46.5 -108t-15 -131.5v-729q0 -73 15 -132.5t46.5 -107.5t87 -75t130.5 -27t131 27t88 75t47 107.5t15 132.5v729q0 72 -15 131.5t-47 108t-88 75.5t-131 27z" />
    <glyph glyph-name="divide" unicode="&#xf7;" horiz-adv-x="520" 
d="M248 958h20v-159h-20v159zM82 727h356v-18h-356v18zM248 637h20v-160h-20v160z" />
    <glyph glyph-name="oslash" unicode="&#xf8;" horiz-adv-x="763" 
d="M381 1444q152 0 233 -109l39 99l17 -7l-43 -112q55 -89 55 -234v-729q0 -77 -16.5 -140.5t-51.5 -114t-94 -79t-139 -28.5q-158 0 -234 110l-43 -106l-16 6l47 119q-53 90 -53 233v729q0 77 16.5 140.5t51 114.5t93.5 79.5t138 28.5zM381 1423q-75 0 -130.5 -27
t-87 -75.5t-46.5 -108t-15 -131.5v-729q0 -126 41 -209l461 1168q-69 112 -223 112zM616 1290l-460 -1169q70 -111 225 -111q75 0 131 27t88 75t47 107.5t15 132.5v729q0 124 -46 209z" />
    <glyph glyph-name="ugrave" unicode="&#xf9;" horiz-adv-x="743" 
d="M246 1698h28l150 -176h-27zM662 1434v-1078q0 -76 -15 -139t-47.5 -115.5t-90.5 -82t-136 -29.5q-79 0 -137.5 29.5t-91 82t-47.5 115.5t-15 139v1078h20v-1078q0 -72 13.5 -131.5t43.5 -109t84.5 -77.5t129.5 -28q74 0 128 28t83.5 77.5t43 109t13.5 131.5v1078h21z" />
    <glyph glyph-name="uacute" unicode="&#xfa;" horiz-adv-x="743" 
d="M485 1716h29l-152 -176h-26zM662 1434v-1078q0 -76 -15 -139t-47.5 -115.5t-90.5 -82t-136 -29.5q-79 0 -137.5 29.5t-91 82t-47.5 115.5t-15 139v1078h20v-1078q0 -72 13.5 -131.5t43.5 -109t84.5 -77.5t129.5 -28q74 0 128 28t83.5 77.5t43 109t13.5 131.5v1078h21z
" />
    <glyph glyph-name="ucircumflex" unicode="&#xfb;" horiz-adv-x="743" 
d="M375 1675l-146 -139h-28l166 160h14l168 -160h-31zM662 1434v-1078q0 -76 -15 -139t-47.5 -115.5t-90.5 -82t-136 -29.5q-79 0 -137.5 29.5t-91 82t-47.5 115.5t-15 139v1078h20v-1078q0 -72 13.5 -131.5t43.5 -109t84.5 -77.5t129.5 -28q74 0 128 28t83.5 77.5t43 109
t13.5 131.5v1078h21z" />
    <glyph glyph-name="udieresis" unicode="&#xfc;" horiz-adv-x="743" 
d="M293 1690h20v-160h-20v160zM428 1690h21v-160h-21v160zM662 1434v-1078q0 -76 -15 -139t-47.5 -115.5t-90.5 -82t-136 -29.5q-79 0 -137.5 29.5t-91 82t-47.5 115.5t-15 139v1078h20v-1078q0 -72 13.5 -131.5t43.5 -109t84.5 -77.5t129.5 -28q74 0 128 28t83.5 77.5
t43 109t13.5 131.5v1078h21z" />
    <glyph glyph-name="yacute" unicode="&#xfd;" horiz-adv-x="872" 
d="M545 1696h28l-151 -176h-27zM424 0v594l-342 840h20l332 -811l334 811h23l-347 -840v-594h-20z" />
    <glyph glyph-name="thorn" unicode="&#xfe;" horiz-adv-x="772" 
d="M102 1135h256q291 0 291 -344v-140q0 -170 -79.5 -251t-250.5 -81h-217v-319h-20v1434h20v-299zM102 340h217q163 0 236.5 74.5t73.5 236.5v140q0 152 -62 237.5t-209 85.5h-256v-774z" />
    <glyph glyph-name="ydieresis" unicode="&#xff;" horiz-adv-x="872" 
d="M356 1681h21v-159h-21v159zM492 1681h20v-159h-20v159zM424 0v594l-342 840h20l332 -811l334 811h23l-347 -840v-594h-20z" />
    <glyph glyph-name="Amacron" unicode="&#x100;" horiz-adv-x="925" 
d="M281 1595h356v-18h-356v18zM733 348h-543l-88 -348h-20l362 1436h29l371 -1436h-21zM459 1409l-262 -1040h530z" />
    <glyph glyph-name="amacron" unicode="&#x101;" horiz-adv-x="925" 
d="M281 1595h356v-18h-356v18zM733 348h-543l-88 -348h-20l362 1436h29l371 -1436h-21zM459 1409l-262 -1040h530z" />
    <glyph glyph-name="Abreve" unicode="&#x102;" horiz-adv-x="925" 
d="M621 1651h20q-3 -69 -56 -109.5t-126 -40.5q-72 0 -125.5 40t-54.5 110h20q1 -61 48 -95t112 -34t112 34t50 95zM733 348h-543l-88 -348h-20l362 1436h29l371 -1436h-21zM459 1409l-262 -1040h530z" />
    <glyph glyph-name="abreve" unicode="&#x103;" horiz-adv-x="925" 
d="M621 1651h20q-3 -69 -56 -109.5t-126 -40.5q-72 0 -125.5 40t-54.5 110h20q1 -61 48 -95t112 -34t112 34t50 95zM733 348h-543l-88 -348h-20l362 1436h29l371 -1436h-21zM459 1409l-262 -1040h530z" />
    <glyph glyph-name="Aogonek" unicode="&#x104;" horiz-adv-x="925" 
d="M844 0h-2q-40 -32 -72 -87.5t-29 -100.5q3 -35 26.5 -52.5t59.5 -17.5q58 0 99 33v-25q-47 -29 -101 -29q-43 2 -72 24t-32 67q-3 47 26 100t74 94l-88 342h-543l-88 -348h-20l362 1436h29zM459 1409l-262 -1040h530z" />
    <glyph glyph-name="aogonek" unicode="&#x105;" horiz-adv-x="925" 
d="M844 0h-2q-40 -32 -72 -87.5t-29 -100.5q3 -35 26.5 -52.5t59.5 -17.5q58 0 99 33v-25q-47 -29 -101 -29q-43 2 -72 24t-32 67q-3 47 26 100t74 94l-88 342h-543l-88 -348h-20l362 1436h29zM459 1409l-262 -1040h530z" />
    <glyph glyph-name="Cacute" unicode="&#x106;" 
d="M483 1716h29l-152 -176h-26zM377 1444q79 0 137.5 -29t92 -80.5t49.5 -115t16 -138.5v-108h-21v108q0 72 -14.5 131t-45.5 107.5t-85.5 76t-128.5 27.5t-129 -27.5t-86 -76t-45.5 -108t-14.5 -130.5v-729q0 -71 14.5 -130.5t45.5 -108t86 -76t129 -27.5t128.5 27.5
t85.5 76t45.5 107.5t14.5 131v152h21v-152q0 -75 -16 -138.5t-49.5 -114.5t-92 -80t-137.5 -29t-137.5 29t-92 80t-49.5 114.5t-16 138.5v729q0 75 16 138.5t49.5 115t92 80.5t137.5 29z" />
    <glyph glyph-name="cacute" unicode="&#x107;" 
d="M483 1716h29l-152 -176h-26zM377 1444q79 0 137.5 -29t92 -80.5t49.5 -115t16 -138.5v-108h-21v108q0 72 -14.5 131t-45.5 107.5t-85.5 76t-128.5 27.5t-129 -27.5t-86 -76t-45.5 -108t-14.5 -130.5v-729q0 -71 14.5 -130.5t45.5 -108t86 -76t129 -27.5t128.5 27.5
t85.5 76t45.5 107.5t14.5 131v152h21v-152q0 -75 -16 -138.5t-49.5 -114.5t-92 -80t-137.5 -29t-137.5 29t-92 80t-49.5 114.5t-16 138.5v729q0 75 16 138.5t49.5 115t92 80.5t137.5 29z" />
    <glyph glyph-name="Ccircumflex" unicode="&#x108;" 
d="M389 1669l-145 -139h-29l166 160h14l168 -160h-31zM377 1444q79 0 137.5 -29t92 -80.5t49.5 -115t16 -138.5v-108h-21v108q0 72 -14.5 131t-45.5 107.5t-85.5 76t-128.5 27.5t-129 -27.5t-86 -76t-45.5 -108t-14.5 -130.5v-729q0 -71 14.5 -130.5t45.5 -108t86 -76
t129 -27.5t128.5 27.5t85.5 76t45.5 107.5t14.5 131v152h21v-152q0 -75 -16 -138.5t-49.5 -114.5t-92 -80t-137.5 -29t-137.5 29t-92 80t-49.5 114.5t-16 138.5v729q0 75 16 138.5t49.5 115t92 80.5t137.5 29z" />
    <glyph glyph-name="ccircumflex" unicode="&#x109;" 
d="M389 1669l-145 -139h-29l166 160h14l168 -160h-31zM377 1444q79 0 137.5 -29t92 -80.5t49.5 -115t16 -138.5v-108h-21v108q0 72 -14.5 131t-45.5 107.5t-85.5 76t-128.5 27.5t-129 -27.5t-86 -76t-45.5 -108t-14.5 -130.5v-729q0 -71 14.5 -130.5t45.5 -108t86 -76
t129 -27.5t128.5 27.5t85.5 76t45.5 107.5t14.5 131v152h21v-152q0 -75 -16 -138.5t-49.5 -114.5t-92 -80t-137.5 -29t-137.5 29t-92 80t-49.5 114.5t-16 138.5v729q0 75 16 138.5t49.5 115t92 80.5t137.5 29z" />
    <glyph glyph-name="Cdotaccent" unicode="&#x10a;" 
d="M367 1677h20v-159h-20v159zM377 1444q79 0 137.5 -29t92 -80.5t49.5 -115t16 -138.5v-108h-21v108q0 72 -14.5 131t-45.5 107.5t-85.5 76t-128.5 27.5t-129 -27.5t-86 -76t-45.5 -108t-14.5 -130.5v-729q0 -71 14.5 -130.5t45.5 -108t86 -76t129 -27.5t128.5 27.5
t85.5 76t45.5 107.5t14.5 131v152h21v-152q0 -75 -16 -138.5t-49.5 -114.5t-92 -80t-137.5 -29t-137.5 29t-92 80t-49.5 114.5t-16 138.5v729q0 75 16 138.5t49.5 115t92 80.5t137.5 29z" />
    <glyph glyph-name="cdotaccent" unicode="&#x10b;" 
d="M367 1677h20v-159h-20v159zM377 1444q79 0 137.5 -29t92 -80.5t49.5 -115t16 -138.5v-108h-21v108q0 72 -14.5 131t-45.5 107.5t-85.5 76t-128.5 27.5t-129 -27.5t-86 -76t-45.5 -108t-14.5 -130.5v-729q0 -71 14.5 -130.5t45.5 -108t86 -76t129 -27.5t128.5 27.5
t85.5 76t45.5 107.5t14.5 131v152h21v-152q0 -75 -16 -138.5t-49.5 -114.5t-92 -80t-137.5 -29t-137.5 29t-92 80t-49.5 114.5t-16 138.5v729q0 75 16 138.5t49.5 115t92 80.5t137.5 29z" />
    <glyph glyph-name="Ccaron" unicode="&#x10c;" 
d="M219 1692h29l145 -140l144 140h30l-168 -160h-14zM377 1444q79 0 137.5 -29t92 -80.5t49.5 -115t16 -138.5v-108h-21v108q0 72 -14.5 131t-45.5 107.5t-85.5 76t-128.5 27.5t-129 -27.5t-86 -76t-45.5 -108t-14.5 -130.5v-729q0 -71 14.5 -130.5t45.5 -108t86 -76
t129 -27.5t128.5 27.5t85.5 76t45.5 107.5t14.5 131v152h21v-152q0 -75 -16 -138.5t-49.5 -114.5t-92 -80t-137.5 -29t-137.5 29t-92 80t-49.5 114.5t-16 138.5v729q0 75 16 138.5t49.5 115t92 80.5t137.5 29z" />
    <glyph glyph-name="ccaron" unicode="&#x10d;" 
d="M219 1692h29l145 -140l144 140h30l-168 -160h-14zM377 1444q79 0 137.5 -29t92 -80.5t49.5 -115t16 -138.5v-108h-21v108q0 72 -14.5 131t-45.5 107.5t-85.5 76t-128.5 27.5t-129 -27.5t-86 -76t-45.5 -108t-14.5 -130.5v-729q0 -71 14.5 -130.5t45.5 -108t86 -76
t129 -27.5t128.5 27.5t85.5 76t45.5 107.5t14.5 131v152h21v-152q0 -75 -16 -138.5t-49.5 -114.5t-92 -80t-137.5 -29t-137.5 29t-92 80t-49.5 114.5t-16 138.5v729q0 75 16 138.5t49.5 115t92 80.5t137.5 29z" />
    <glyph glyph-name="Dcaron" unicode="&#x10e;" horiz-adv-x="761" 
d="M186 1679h29l145 -139l144 139h31l-168 -159h-15zM82 1434h291q156 0 231.5 -99t75.5 -260v-719q0 -104 -30 -181.5t-100 -126t-175 -48.5h-293v1434zM102 20h273q147 0 215.5 92t68.5 244v719q0 153 -69.5 245.5t-216.5 92.5h-271v-1393z" />
    <glyph glyph-name="dcaron" unicode="&#x10f;" horiz-adv-x="761" 
d="M186 1679h29l145 -139l144 139h31l-168 -159h-15zM82 1434h291q156 0 231.5 -99t75.5 -260v-719q0 -104 -30 -181.5t-100 -126t-175 -48.5h-293v1434zM102 20h273q147 0 215.5 92t68.5 244v719q0 153 -69.5 245.5t-216.5 92.5h-271v-1393z" />
    <glyph glyph-name="Dcroat" unicode="&#x110;" horiz-adv-x="761" 
d="M82 1434h291q156 0 231.5 -99t75.5 -260v-719q0 -104 -30 -181.5t-100 -126t-175 -48.5h-293v705h-94v18h94v711zM311 723v-18h-209v-685h273q147 0 215.5 92t68.5 244v719q0 153 -69.5 245.5t-216.5 92.5h-271v-690h209z" />
    <glyph glyph-name="dcroat" unicode="&#x111;" horiz-adv-x="761" 
d="M82 1434h291q156 0 231.5 -99t75.5 -260v-719q0 -104 -30 -181.5t-100 -126t-175 -48.5h-293v705h-94v18h94v711zM311 723v-18h-209v-685h273q147 0 215.5 92t68.5 244v719q0 153 -69.5 245.5t-216.5 92.5h-271v-690h209z" />
    <glyph glyph-name="Emacron" unicode="&#x112;" horiz-adv-x="700" 
d="M176 1604h336v-19h-336v19zM102 737h437v-20h-437v-697h516v-20h-536v1434h536v-21h-516v-676z" />
    <glyph glyph-name="emacron" unicode="&#x113;" horiz-adv-x="700" 
d="M176 1604h336v-19h-336v19zM102 737h437v-20h-437v-697h516v-20h-536v1434h536v-21h-516v-676z" />
    <glyph glyph-name="Ebreve" unicode="&#x114;" horiz-adv-x="700" 
d="M510 1686h20q-3 -69 -56 -109.5t-126 -40.5q-72 0 -125.5 40t-54.5 110h20q1 -61 48.5 -95.5t111.5 -34.5t111.5 34.5t50.5 95.5zM102 737h437v-20h-437v-697h516v-20h-536v1434h536v-21h-516v-676z" />
    <glyph glyph-name="ebreve" unicode="&#x115;" horiz-adv-x="700" 
d="M510 1686h20q-3 -69 -56 -109.5t-126 -40.5q-72 0 -125.5 40t-54.5 110h20q1 -61 48.5 -95.5t111.5 -34.5t111.5 34.5t50.5 95.5zM102 737h437v-20h-437v-697h516v-20h-536v1434h536v-21h-516v-676z" />
    <glyph glyph-name="Edotaccent" unicode="&#x116;" horiz-adv-x="700" 
d="M348 1686h21v-160h-21v160zM102 737h437v-20h-437v-697h516v-20h-536v1434h536v-21h-516v-676z" />
    <glyph glyph-name="edotaccent" unicode="&#x117;" horiz-adv-x="700" 
d="M348 1686h21v-160h-21v160zM102 737h437v-20h-437v-697h516v-20h-536v1434h536v-21h-516v-676z" />
    <glyph glyph-name="Eogonek" unicode="&#x118;" horiz-adv-x="700" 
d="M102 737h437v-20h-437v-697h516v-20h-32q-40 -32 -73 -88t-30 -100q3 -35 26.5 -52.5t59.5 -17.5q58 0 99 33v-25q-47 -29 -101 -29q-43 2 -72 24t-32 67t27 96t71 92h-479v1434h536v-21h-516v-676z" />
    <glyph glyph-name="eogonek" unicode="&#x119;" horiz-adv-x="700" 
d="M102 737h437v-20h-437v-697h516v-20h-32q-40 -32 -73 -88t-30 -100q3 -35 26.5 -52.5t59.5 -17.5q58 0 99 33v-25q-47 -29 -101 -29q-43 2 -72 24t-32 67t27 96t71 92h-479v1434h536v-21h-516v-676z" />
    <glyph glyph-name="Ecaron" unicode="&#x11a;" horiz-adv-x="700" 
d="M186 1681h29l145 -139l144 139h31l-168 -159h-15zM102 737h437v-20h-437v-697h516v-20h-536v1434h536v-21h-516v-676z" />
    <glyph glyph-name="ecaron" unicode="&#x11b;" horiz-adv-x="700" 
d="M186 1681h29l145 -139l144 139h31l-168 -159h-15zM102 737h437v-20h-437v-697h516v-20h-536v1434h536v-21h-516v-676z" />
    <glyph glyph-name="Gcircumflex" unicode="&#x11c;" 
d="M381 1681l-145 -139h-29l166 160h14l168 -160h-31zM377 1444q79 0 137.5 -29t92 -80.5t49.5 -115t16 -138.5v-90h-21v90q0 72 -14.5 131t-45.5 107.5t-85.5 76t-128.5 27.5t-129 -27.5t-86 -76t-45.5 -108t-14.5 -130.5v-729q0 -71 14.5 -130.5t45.5 -108t86 -76
t129 -27.5t128.5 27.5t85.5 76t45.5 107.5t14.5 131v334h-241v21h262v-355q0 -75 -16 -138.5t-49.5 -114.5t-92 -80t-137.5 -29t-137.5 29t-92 80t-49.5 114.5t-16 138.5v729q0 75 16 138.5t49.5 115t92 80.5t137.5 29z" />
    <glyph glyph-name="gcircumflex" unicode="&#x11d;" 
d="M381 1681l-145 -139h-29l166 160h14l168 -160h-31zM377 1444q79 0 137.5 -29t92 -80.5t49.5 -115t16 -138.5v-90h-21v90q0 72 -14.5 131t-45.5 107.5t-85.5 76t-128.5 27.5t-129 -27.5t-86 -76t-45.5 -108t-14.5 -130.5v-729q0 -71 14.5 -130.5t45.5 -108t86 -76
t129 -27.5t128.5 27.5t85.5 76t45.5 107.5t14.5 131v334h-241v21h262v-355q0 -75 -16 -138.5t-49.5 -114.5t-92 -80t-137.5 -29t-137.5 29t-92 80t-49.5 114.5t-16 138.5v729q0 75 16 138.5t49.5 115t92 80.5t137.5 29z" />
    <glyph glyph-name="Gbreve" unicode="&#x11e;" 
d="M543 1692h20q-3 -69 -56 -109.5t-126 -40.5q-72 0 -125.5 40t-54.5 110h20q1 -61 48 -95t112 -34q64 0 111.5 34t50.5 95zM377 1444q79 0 137.5 -29t92 -80.5t49.5 -115t16 -138.5v-90h-21v90q0 72 -14.5 131t-45.5 107.5t-85.5 76t-128.5 27.5t-129 -27.5t-86 -76
t-45.5 -108t-14.5 -130.5v-729q0 -71 14.5 -130.5t45.5 -108t86 -76t129 -27.5t128.5 27.5t85.5 76t45.5 107.5t14.5 131v334h-241v21h262v-355q0 -75 -16 -138.5t-49.5 -114.5t-92 -80t-137.5 -29t-137.5 29t-92 80t-49.5 114.5t-16 138.5v729q0 75 16 138.5t49.5 115
t92 80.5t137.5 29z" />
    <glyph glyph-name="gbreve" unicode="&#x11f;" 
d="M543 1692h20q-3 -69 -56 -109.5t-126 -40.5q-72 0 -125.5 40t-54.5 110h20q1 -61 48 -95t112 -34q64 0 111.5 34t50.5 95zM377 1444q79 0 137.5 -29t92 -80.5t49.5 -115t16 -138.5v-90h-21v90q0 72 -14.5 131t-45.5 107.5t-85.5 76t-128.5 27.5t-129 -27.5t-86 -76
t-45.5 -108t-14.5 -130.5v-729q0 -71 14.5 -130.5t45.5 -108t86 -76t129 -27.5t128.5 27.5t85.5 76t45.5 107.5t14.5 131v334h-241v21h262v-355q0 -75 -16 -138.5t-49.5 -114.5t-92 -80t-137.5 -29t-137.5 29t-92 80t-49.5 114.5t-16 138.5v729q0 75 16 138.5t49.5 115
t92 80.5t137.5 29z" />
    <glyph glyph-name="Gdotaccent" unicode="&#x120;" 
d="M387 1690h21v-160h-21v160zM377 1444q79 0 137.5 -29t92 -80.5t49.5 -115t16 -138.5v-90h-21v90q0 72 -14.5 131t-45.5 107.5t-85.5 76t-128.5 27.5t-129 -27.5t-86 -76t-45.5 -108t-14.5 -130.5v-729q0 -71 14.5 -130.5t45.5 -108t86 -76t129 -27.5t128.5 27.5t85.5 76
t45.5 107.5t14.5 131v334h-241v21h262v-355q0 -75 -16 -138.5t-49.5 -114.5t-92 -80t-137.5 -29t-137.5 29t-92 80t-49.5 114.5t-16 138.5v729q0 75 16 138.5t49.5 115t92 80.5t137.5 29z" />
    <glyph glyph-name="gdotaccent" unicode="&#x121;" 
d="M387 1690h21v-160h-21v160zM377 1444q79 0 137.5 -29t92 -80.5t49.5 -115t16 -138.5v-90h-21v90q0 72 -14.5 131t-45.5 107.5t-85.5 76t-128.5 27.5t-129 -27.5t-86 -76t-45.5 -108t-14.5 -130.5v-729q0 -71 14.5 -130.5t45.5 -108t86 -76t129 -27.5t128.5 27.5t85.5 76
t45.5 107.5t14.5 131v334h-241v21h262v-355q0 -75 -16 -138.5t-49.5 -114.5t-92 -80t-137.5 -29t-137.5 29t-92 80t-49.5 114.5t-16 138.5v729q0 75 16 138.5t49.5 115t92 80.5t137.5 29z" />
    <glyph glyph-name="uni0122" unicode="&#x122;" 
d="M377 1444q79 0 137.5 -29t92 -80.5t49.5 -115t16 -138.5v-90h-21v90q0 72 -14.5 131t-45.5 107.5t-85.5 76t-128.5 27.5t-129 -27.5t-86 -76t-45.5 -108t-14.5 -130.5v-729q0 -71 14.5 -130.5t45.5 -108t86 -76t129 -27.5t128.5 27.5t85.5 76t45.5 107.5t14.5 131v334
h-241v21h262v-355q0 -75 -16 -138.5t-49.5 -114.5t-92 -80t-137.5 -29t-137.5 29t-92 80t-49.5 114.5t-16 138.5v729q0 75 16 138.5t49.5 115t92 80.5t137.5 29zM334 -356l33 127h-2v159h20v-159l-37 -127h-14z" />
    <glyph glyph-name="uni0123" unicode="&#x123;" 
d="M377 1444q79 0 137.5 -29t92 -80.5t49.5 -115t16 -138.5v-90h-21v90q0 72 -14.5 131t-45.5 107.5t-85.5 76t-128.5 27.5t-129 -27.5t-86 -76t-45.5 -108t-14.5 -130.5v-729q0 -71 14.5 -130.5t45.5 -108t86 -76t129 -27.5t128.5 27.5t85.5 76t45.5 107.5t14.5 131v334
h-241v21h262v-355q0 -75 -16 -138.5t-49.5 -114.5t-92 -80t-137.5 -29t-137.5 29t-92 80t-49.5 114.5t-16 138.5v729q0 75 16 138.5t49.5 115t92 80.5t137.5 29zM336 -356l33 127h-2v159h20v-159l-37 -127h-14z" />
    <glyph glyph-name="Hcircumflex" unicode="&#x124;" horiz-adv-x="757" 
d="M379 1675l-146 -139h-28l166 160h14l168 -160h-31zM655 707h-553v-707h-20v1434h20v-707h553v707h21v-1434h-21v707z" />
    <glyph glyph-name="hcircumflex" unicode="&#x125;" horiz-adv-x="757" 
d="M379 1675l-146 -139h-28l166 160h14l168 -160h-31zM655 707h-553v-707h-20v1434h20v-707h553v707h21v-1434h-21v707z" />
    <glyph glyph-name="Hbar" unicode="&#x126;" horiz-adv-x="757" 
d="M754 1102h-78v-1102h-21v707h-553v-707h-20v1102h-82v18h82v314h20v-314h553v314h21v-314h78v-18zM655 727v375h-553v-375h553z" />
    <glyph glyph-name="hbar" unicode="&#x127;" horiz-adv-x="757" 
d="M754 1102h-78v-1102h-21v707h-553v-707h-20v1102h-82v18h82v314h20v-314h553v314h21v-314h78v-18zM655 727v375h-553v-375h553z" />
    <glyph glyph-name="Itilde" unicode="&#x128;" horiz-adv-x="184" 
d="M268 1638l19 -10q-37 -72 -88 -74q-36 -2 -99 38.5t-96 39.5q-50 0 -84 -63l-18 10q42 71 102 74q38 1 102 -39.5t93 -38.5q38 2 69 63zM82 1434h20v-1434h-20v1434z" />
    <glyph glyph-name="itilde" unicode="&#x129;" horiz-adv-x="184" 
d="M268 1638l19 -10q-37 -72 -88 -74q-36 -2 -99 38.5t-96 39.5q-50 0 -84 -63l-18 10q42 71 102 74q38 1 102 -39.5t93 -38.5q38 2 69 63zM82 1434h20v-1434h-20v1434z" />
    <glyph glyph-name="Imacron" unicode="&#x12a;" horiz-adv-x="184" 
d="M-45 1595h274v-18h-274v18zM82 1434h20v-1434h-20v1434z" />
    <glyph glyph-name="imacron" unicode="&#x12b;" horiz-adv-x="184" 
d="M-45 1595h274v-18h-274v18zM82 1434h20v-1434h-20v1434z" />
    <glyph glyph-name="Ibreve" unicode="&#x12c;" horiz-adv-x="184" 
d="M254 1671h20q-3 -69 -56 -109t-126 -40q-72 0 -125.5 39.5t-54.5 109.5h20q1 -61 48 -95t112 -34q64 0 111.5 34t50.5 95zM82 0v1434h20v-1434h-20z" />
    <glyph glyph-name="ibreve" unicode="&#x12d;" horiz-adv-x="184" 
d="M254 1671h20q-3 -69 -56 -109t-126 -40q-72 0 -125.5 39.5t-54.5 109.5h20q1 -61 48 -95t112 -34q64 0 111.5 34t50.5 95zM82 0v1434h20v-1434h-20z" />
    <glyph glyph-name="Iogonek" unicode="&#x12e;" horiz-adv-x="184" 
d="M102 0h-2q-40 -32 -71.5 -87.5t-28.5 -100.5q3 -35 26.5 -52.5t59.5 -17.5q57 0 98 33v-25q-47 -29 -100 -29q-43 2 -72 24t-32 67t26 95.5t76 92.5h-2l2 1434h20v-1434z" />
    <glyph glyph-name="iogonek" unicode="&#x12f;" horiz-adv-x="184" 
d="M102 0h-2q-40 -32 -71.5 -87.5t-28.5 -100.5q3 -35 26.5 -52.5t59.5 -17.5q57 0 98 33v-25q-47 -29 -100 -29q-43 2 -72 24t-32 67t26 95.5t76 92.5h-2l2 1434h20v-1434z" />
    <glyph glyph-name="Idotaccent" unicode="&#x130;" horiz-adv-x="184" 
d="M82 1681h20v-159h-20v159zM82 1434h20v-1434h-20v1434z" />
    <glyph glyph-name="dotlessi" unicode="&#x131;" horiz-adv-x="184" 
d="M82 1434h20v-1434h-20v1434z" />
    <glyph glyph-name="IJ" unicode="&#x132;" horiz-adv-x="700" 
d="M82 1434h20v-1434h-20v1434zM618 1434v-1084q0 -176 -67.5 -257.5t-210.5 -92.5h-74v20h74q139 12 198.5 90t59.5 240v1084h20z" />
    <glyph glyph-name="ij" unicode="&#x133;" horiz-adv-x="700" 
d="M82 1434h20v-1434h-20v1434zM618 1434v-1084q0 -176 -67.5 -257.5t-210.5 -92.5h-74v20h74q139 12 198.5 90t59.5 240v1084h20z" />
    <glyph glyph-name="Jcircumflex" unicode="&#x134;" horiz-adv-x="516" 
d="M424 1663l-145 -139h-29l166 159h14l168 -159h-31zM434 1434v-1084q0 -170 -66 -253.5t-200 -94.5q-54 -4 -86 -2v20q24 -2 86 3q129 12 187.5 89t58.5 238v1084h20z" />
    <glyph glyph-name="jcircumflex" unicode="&#x135;" horiz-adv-x="516" 
d="M424 1663l-145 -139h-29l166 159h14l168 -159h-31zM434 1434v-1084q0 -170 -66 -253.5t-200 -94.5q-54 -4 -86 -2v20q24 -2 86 3q129 12 187.5 89t58.5 238v1084h20z" />
    <glyph glyph-name="uni0136" unicode="&#x136;" horiz-adv-x="817" 
d="M711 0l-494 731l-115 -168v-563h-20v1434h20v-834l566 834h24l-463 -684l506 -750h-24zM336 -356l33 127h-2v159h20v-159l-37 -127h-14z" />
    <glyph glyph-name="uni0137" unicode="&#x137;" horiz-adv-x="817" 
d="M711 0l-494 731l-115 -168v-563h-20v1434h20v-834l566 834h24l-463 -684l506 -750h-24zM336 -356l33 127h-2v159h20v-159l-37 -127h-14z" />
    <glyph glyph-name="kgreenlandic" unicode="&#x138;" horiz-adv-x="817" 
d="M711 0l-494 731l-115 -168v-563h-20v1434h20v-834l566 834h24l-463 -684l506 -750h-24z" />
    <glyph glyph-name="Lacute" unicode="&#x139;" horiz-adv-x="679" 
d="M215 1696h29l-152 -176h-26zM598 0h-516v1434h20v-1414h496v-20z" />
    <glyph glyph-name="lacute" unicode="&#x13a;" horiz-adv-x="679" 
d="M195 1700h28l-151 -176h-27zM598 0h-516v1434h20v-1414h496v-20z" />
    <glyph glyph-name="uni013B" unicode="&#x13b;" horiz-adv-x="679" 
d="M598 0h-516v1434h20v-1414h496v-20zM315 -367l33 127h-2v160h21v-160l-37 -127h-15z" />
    <glyph glyph-name="uni013C" unicode="&#x13c;" horiz-adv-x="679" 
d="M598 0h-516v1434h20v-1414h496v-20zM336 -356l33 127h-2v159h20v-159l-37 -127h-14z" />
    <glyph glyph-name="Lcaron" unicode="&#x13d;" horiz-adv-x="679" 
d="M598 0h-516v1434h20v-1414h496v-20zM416 1147l33 127h-3v160h21v-160l-37 -127h-14z" />
    <glyph glyph-name="lcaron" unicode="&#x13e;" horiz-adv-x="679" 
d="M598 0h-516v1434h20v-1414h496v-20zM416 1147l33 127h-3v160h21v-160l-37 -127h-14z" />
    <glyph glyph-name="Ldot" unicode="&#x13f;" horiz-adv-x="679" 
d="M598 0h-516v1434h20v-1414h496v-20zM350 807h21v-160h-21v160z" />
    <glyph glyph-name="ldot" unicode="&#x140;" horiz-adv-x="679" 
d="M598 0h-516v1434h20v-1414h496v-20zM350 807h21v-160h-21v160z" />
    <glyph glyph-name="Lslash" unicode="&#x141;" horiz-adv-x="710" 
d="M301 864l-168 -155v-689h496v-20h-516v688l-113 -96v26l113 97v719h20v-699l168 156v-27z" />
    <glyph glyph-name="lslash" unicode="&#x142;" horiz-adv-x="710" 
d="M113 0v688l-113 -96v26l113 97v719h20v-699l168 156v-27l-168 -155v-689h496v-20h-516z" />
    <glyph glyph-name="Nacute" unicode="&#x143;" horiz-adv-x="759" 
d="M494 1702h28l-151 -176h-27zM102 1415v-1413h-20v1434h35l540 -1407v1407h21v-1434h-31z" />
    <glyph glyph-name="nacute" unicode="&#x144;" horiz-adv-x="759" 
d="M494 1702h28l-151 -176h-27zM102 1415v-1413h-20v1434h35l540 -1407v1407h21v-1434h-31z" />
    <glyph glyph-name="uni0145" unicode="&#x145;" horiz-adv-x="759" 
d="M102 1413v-1413h-20v1434h35l540 -1407v1407h21v-1434h-31zM336 -356l33 127h-2v159h20v-159l-37 -127h-14z" />
    <glyph glyph-name="uni0146" unicode="&#x146;" horiz-adv-x="759" 
d="M102 1413v-1413h-20v1434h35l540 -1407v1407h21v-1434h-31zM336 -356l33 127h-2v159h20v-159l-37 -127h-14z" />
    <glyph glyph-name="Ncaron" unicode="&#x147;" horiz-adv-x="759" 
d="M211 1696h29l145 -140l143 140h31l-168 -160h-14zM102 1413v-1413h-20v1434h35l540 -1407v1407h21v-1434h-31z" />
    <glyph glyph-name="ncaron" unicode="&#x148;" horiz-adv-x="759" 
d="M211 1696h29l145 -140l143 140h31l-168 -160h-14zM102 1413v-1413h-20v1434h35l540 -1407v1407h21v-1434h-31z" />
    <glyph glyph-name="napostrophe" unicode="&#x149;" horiz-adv-x="862" 
d="M20 1147l33 127h-2v160h21v-160l-37 -127h-15zM205 1413v-1413h-21v1434h35l541 -1407v1407h20v-1434h-30z" />
    <glyph glyph-name="Omacron" unicode="&#x14c;" horiz-adv-x="763" 
d="M219 1597h332v-18h-332v18zM381 1444q80 0 139 -28.5t94 -79.5t51.5 -114.5t16.5 -140.5v-729q0 -77 -16.5 -140.5t-51.5 -114t-94 -79t-139 -28.5q-79 0 -138 28.5t-93.5 79t-51 114t-16.5 140.5v729q0 77 16.5 140.5t51 114.5t93.5 79.5t138 28.5zM381 1423
q-75 0 -130.5 -27t-87 -75.5t-46.5 -108t-15 -131.5v-729q0 -73 15 -132.5t46.5 -107.5t87 -75t130.5 -27t131 27t88 75t47 107.5t15 132.5v729q0 72 -15 131.5t-47 108t-88 75.5t-131 27z" />
    <glyph glyph-name="omacron" unicode="&#x14d;" horiz-adv-x="763" 
d="M219 1597h332v-18h-332v18zM381 1444q80 0 139 -28.5t94 -79.5t51.5 -114.5t16.5 -140.5v-729q0 -77 -16.5 -140.5t-51.5 -114t-94 -79t-139 -28.5q-79 0 -138 28.5t-93.5 79t-51 114t-16.5 140.5v729q0 77 16.5 140.5t51 114.5t93.5 79.5t138 28.5zM381 1423
q-75 0 -130.5 -27t-87 -75.5t-46.5 -108t-15 -131.5v-729q0 -73 15 -132.5t46.5 -107.5t87 -75t130.5 -27t131 27t88 75t47 107.5t15 132.5v729q0 72 -15 131.5t-47 108t-88 75.5t-131 27z" />
    <glyph glyph-name="Obreve" unicode="&#x14e;" horiz-adv-x="763" 
d="M543 1692h20q-3 -69 -56 -109.5t-126 -40.5q-72 0 -125.5 40t-54.5 110h20q1 -61 48 -95t112 -34q64 0 111.5 34t50.5 95zM381 1444q80 0 139 -28.5t94 -79.5t51.5 -114.5t16.5 -140.5v-729q0 -77 -16.5 -140.5t-51.5 -114t-94 -79t-139 -28.5q-79 0 -138 28.5t-93.5 79
t-51 114t-16.5 140.5v729q0 77 16.5 140.5t51 114.5t93.5 79.5t138 28.5zM381 1423q-75 0 -130.5 -27t-87 -75.5t-46.5 -108t-15 -131.5v-729q0 -73 15 -132.5t46.5 -107.5t87 -75t130.5 -27t131 27t88 75t47 107.5t15 132.5v729q0 72 -15 131.5t-47 108t-88 75.5t-131 27z
" />
    <glyph glyph-name="obreve" unicode="&#x14f;" horiz-adv-x="763" 
d="M543 1692h20q-3 -69 -56 -109.5t-126 -40.5q-72 0 -125.5 40t-54.5 110h20q1 -61 48 -95t112 -34q64 0 111.5 34t50.5 95zM381 1444q80 0 139 -28.5t94 -79.5t51.5 -114.5t16.5 -140.5v-729q0 -77 -16.5 -140.5t-51.5 -114t-94 -79t-139 -28.5q-79 0 -138 28.5t-93.5 79
t-51 114t-16.5 140.5v729q0 77 16.5 140.5t51 114.5t93.5 79.5t138 28.5zM381 1423q-75 0 -130.5 -27t-87 -75.5t-46.5 -108t-15 -131.5v-729q0 -73 15 -132.5t46.5 -107.5t87 -75t130.5 -27t131 27t88 75t47 107.5t15 132.5v729q0 72 -15 131.5t-47 108t-88 75.5t-131 27z
" />
    <glyph glyph-name="Ohungarumlaut" unicode="&#x150;" horiz-adv-x="763" 
d="M434 1716h29l-152 -176h-26zM555 1716h29l-152 -176h-26zM381 1444q80 0 139 -28.5t94 -79.5t51.5 -114.5t16.5 -140.5v-729q0 -77 -16.5 -140.5t-51.5 -114t-94 -79t-139 -28.5q-79 0 -138 28.5t-93.5 79t-51 114t-16.5 140.5v729q0 77 16.5 140.5t51 114.5t93.5 79.5
t138 28.5zM381 1423q-75 0 -130.5 -27t-87 -75.5t-46.5 -108t-15 -131.5v-729q0 -73 15 -132.5t46.5 -107.5t87 -75t130.5 -27t131 27t88 75t47 107.5t15 132.5v729q0 72 -15 131.5t-47 108t-88 75.5t-131 27z" />
    <glyph glyph-name="ohungarumlaut" unicode="&#x151;" horiz-adv-x="763" 
d="M434 1716h29l-152 -176h-26zM555 1716h29l-152 -176h-26zM381 1444q80 0 139 -28.5t94 -79.5t51.5 -114.5t16.5 -140.5v-729q0 -77 -16.5 -140.5t-51.5 -114t-94 -79t-139 -28.5q-79 0 -138 28.5t-93.5 79t-51 114t-16.5 140.5v729q0 77 16.5 140.5t51 114.5t93.5 79.5
t138 28.5zM381 1423q-75 0 -130.5 -27t-87 -75.5t-46.5 -108t-15 -131.5v-729q0 -73 15 -132.5t46.5 -107.5t87 -75t130.5 -27t131 27t88 75t47 107.5t15 132.5v729q0 72 -15 131.5t-47 108t-88 75.5t-131 27z" />
    <glyph glyph-name="OE" unicode="&#x152;" horiz-adv-x="1142" 
d="M623 737h370v-20h-370v-697h438v-20h-703q-61 0 -109 20t-79 53.5t-51 80t-28.5 97t-8.5 107.5v717q0 72 14 133.5t45 113.5t86.5 82t130.5 30h703v-21h-438v-676zM602 1413h-244q-71 0 -122.5 -28t-79.5 -77.5t-41 -107t-13 -125.5v-717q0 -68 13 -125.5t41 -107
t79.5 -77.5t122.5 -28h244v1393z" />
    <glyph glyph-name="oe" unicode="&#x153;" horiz-adv-x="1142" 
d="M623 737h370v-20h-370v-697h438v-20h-703q-61 0 -109 20t-79 53.5t-51 80t-28.5 97t-8.5 107.5v717q0 72 14 133.5t45 113.5t86.5 82t130.5 30h703v-21h-438v-676zM602 1413h-244q-71 0 -122.5 -28t-79.5 -77.5t-41 -107t-13 -125.5v-717q0 -68 13 -125.5t41 -107
t79.5 -77.5t122.5 -28h244v1393z" />
    <glyph glyph-name="Racute" unicode="&#x154;" horiz-adv-x="772" 
d="M446 1716h29l-151 -176h-27zM82 1434h276q291 0 291 -322v-129q0 -136 -57.5 -210t-181.5 -93q239 -33 239 -285v-225q0 -120 41 -170h-24q-37 56 -37 170v225q0 81 -24 136.5t-71 85.5t-105.5 42.5t-137.5 12.5h-189v-672h-20v1434zM102 692h189q85 0 143.5 12.5
t104.5 43.5t68 89.5t22 145.5v129q0 145 -64 223t-207 78h-256v-721z" />
    <glyph glyph-name="racute" unicode="&#x155;" horiz-adv-x="772" 
d="M446 1716h29l-151 -176h-27zM82 1434h276q291 0 291 -322v-129q0 -136 -57.5 -210t-181.5 -93q239 -33 239 -285v-225q0 -120 41 -170h-24q-37 56 -37 170v225q0 81 -24 136.5t-71 85.5t-105.5 42.5t-137.5 12.5h-189v-672h-20v1434zM102 692h189q85 0 143.5 12.5
t104.5 43.5t68 89.5t22 145.5v129q0 145 -64 223t-207 78h-256v-721z" />
    <glyph glyph-name="uni0156" unicode="&#x156;" horiz-adv-x="772" 
d="M82 1434h276q291 0 291 -322v-129q0 -136 -57.5 -210t-181.5 -93q239 -33 239 -285v-225q0 -120 41 -170h-24q-37 56 -37 170v225q0 81 -24 136.5t-71 85.5t-105.5 42.5t-137.5 12.5h-189v-672h-20v1434zM102 692h189q85 0 143.5 12.5t104.5 43.5t68 89.5t22 145.5v129
q0 145 -64 223t-207 78h-256v-721zM332 -354l33 127h-3v159h21v-159l-37 -127h-14z" />
    <glyph glyph-name="uni0157" unicode="&#x157;" horiz-adv-x="772" 
d="M82 1434h276q291 0 291 -322v-129q0 -136 -57.5 -210t-181.5 -93q239 -33 239 -285v-225q0 -120 41 -170h-24q-37 56 -37 170v225q0 81 -24 136.5t-71 85.5t-105.5 42.5t-137.5 12.5h-189v-672h-20v1434zM102 692h189q85 0 143.5 12.5t104.5 43.5t68 89.5t22 145.5v129
q0 145 -64 223t-207 78h-256v-721zM336 -356l33 127h-2v159h20v-159l-37 -127h-14z" />
    <glyph glyph-name="Rcaron" unicode="&#x158;" horiz-adv-x="772" 
d="M170 1698h29l145 -139l143 139h31l-168 -160h-14zM82 1434h276q291 0 291 -322v-129q0 -136 -57.5 -210t-181.5 -93q239 -33 239 -285v-225q0 -120 41 -170h-24q-37 56 -37 170v225q0 81 -24 136.5t-71 85.5t-105.5 42.5t-137.5 12.5h-189v-672h-20v1434zM102 692h189
q85 0 143.5 12.5t104.5 43.5t68 89.5t22 145.5v129q0 145 -64 223t-207 78h-256v-721z" />
    <glyph glyph-name="rcaron" unicode="&#x159;" horiz-adv-x="772" 
d="M170 1698h29l145 -139l143 139h31l-168 -160h-14zM82 1434h276q291 0 291 -322v-129q0 -136 -57.5 -210t-181.5 -93q239 -33 239 -285v-225q0 -120 41 -170h-24q-37 56 -37 170v225q0 81 -24 136.5t-71 85.5t-105.5 42.5t-137.5 12.5h-189v-672h-20v1434zM102 692h189
q85 0 143.5 12.5t104.5 43.5t68 89.5t22 145.5v129q0 145 -64 223t-207 78h-256v-721z" />
    <glyph glyph-name="Sacute" unicode="&#x15a;" 
d="M494 1716h28l-151 -176h-27zM379 1444q78 0 135.5 -28t91 -78.5t49 -113t15.5 -137.5v-24h-21v24q0 71 -14 129t-44.5 106t-84 74.5t-127.5 26.5t-127.5 -26t-84 -73.5t-44.5 -105t-14 -128.5q0 -60 19.5 -111.5t52 -90t74.5 -72.5t88.5 -64t93.5 -60t89 -65t74.5 -74
t52 -92t19.5 -115q0 -159 -71 -257.5t-224 -98.5t-224 98.5t-71 257.5v68h20v-68q0 -151 65.5 -243.5t209.5 -92.5t209 92.5t65 243.5q0 75 -31 136.5t-80.5 105t-109.5 82.5t-120.5 79.5t-110 85.5t-80.5 110t-31 145q0 164 71 258.5t220 95.5z" />
    <glyph glyph-name="sacute" unicode="&#x15b;" 
d="M494 1716h28l-151 -176h-27zM379 1444q78 0 135.5 -28t91 -78.5t49 -113t15.5 -137.5v-24h-21v24q0 71 -14 129t-44.5 106t-84 74.5t-127.5 26.5t-127.5 -26t-84 -73.5t-44.5 -105t-14 -128.5q0 -60 19.5 -111.5t52 -90t74.5 -72.5t88.5 -64t93.5 -60t89 -65t74.5 -74
t52 -92t19.5 -115q0 -159 -71 -257.5t-224 -98.5t-224 98.5t-71 257.5v68h20v-68q0 -151 65.5 -243.5t209.5 -92.5t209 92.5t65 243.5q0 75 -31 136.5t-80.5 105t-109.5 82.5t-120.5 79.5t-110 85.5t-80.5 110t-31 145q0 164 71 258.5t220 95.5z" />
    <glyph glyph-name="Scircumflex" unicode="&#x15c;" 
d="M393 1675l-145 -139h-29l166 160h14l168 -160h-30zM379 1444q78 0 135.5 -28t91 -78.5t49 -113t15.5 -137.5v-24h-21v24q0 71 -14 129t-44.5 106t-84 74.5t-127.5 26.5t-127.5 -26t-84 -73.5t-44.5 -105t-14 -128.5q0 -60 19.5 -111.5t52 -90t74.5 -72.5t88.5 -64
t93.5 -60t89 -65t74.5 -74t52 -92t19.5 -115q0 -159 -71 -257.5t-224 -98.5t-224 98.5t-71 257.5v68h20v-68q0 -151 65.5 -243.5t209.5 -92.5t209 92.5t65 243.5q0 75 -31 136.5t-80.5 105t-109.5 82.5t-120.5 79.5t-110 85.5t-80.5 110t-31 145q0 164 71 258.5t220 95.5z
" />
    <glyph glyph-name="scircumflex" unicode="&#x15d;" 
d="M393 1675l-145 -139h-29l166 160h14l168 -160h-30zM379 1444q78 0 135.5 -28t91 -78.5t49 -113t15.5 -137.5v-24h-21v24q0 71 -14 129t-44.5 106t-84 74.5t-127.5 26.5t-127.5 -26t-84 -73.5t-44.5 -105t-14 -128.5q0 -60 19.5 -111.5t52 -90t74.5 -72.5t88.5 -64
t93.5 -60t89 -65t74.5 -74t52 -92t19.5 -115q0 -159 -71 -257.5t-224 -98.5t-224 98.5t-71 257.5v68h20v-68q0 -151 65.5 -243.5t209.5 -92.5t209 92.5t65 243.5q0 75 -31 136.5t-80.5 105t-109.5 82.5t-120.5 79.5t-110 85.5t-80.5 110t-31 145q0 164 71 258.5t220 95.5z
" />
    <glyph glyph-name="Scedilla" unicode="&#x15e;" 
d="M379 1444q78 0 135.5 -28t91 -78.5t49 -113t15.5 -137.5v-24h-21v24q0 71 -14 129t-44.5 106t-84 74.5t-127.5 26.5t-127.5 -26t-84 -73.5t-44.5 -105t-14 -128.5q0 -60 19.5 -111.5t52 -90t74.5 -72.5t88.5 -64t93.5 -60t89 -65t74.5 -74t52 -92t19.5 -115
q0 -155 -67 -252.5t-212 -103.5v-70q154 -4 154 -110q0 -61 -52 -92t-116 -29q-66 0 -119 31t-53 92v6h20v-6q0 -35 26 -60t58.5 -34.5t67.5 -10.5q55 0 101 25.5t46 77.5q0 29 -12.5 48.5t-35 28.5t-44.5 12t-51 3h-10v88q-77 1 -134.5 29t-91 78t-49.5 112t-16 137v68h20
v-68q0 -151 65.5 -243.5t209.5 -92.5t209 92.5t65 243.5q0 75 -31 136.5t-80.5 105t-109.5 82.5t-120.5 79.5t-110 85.5t-80.5 110t-31 145q0 164 71 258.5t220 95.5z" />
    <glyph glyph-name="scedilla" unicode="&#x15f;" 
d="M379 1444q78 0 135.5 -28t91 -78.5t49 -113t15.5 -137.5v-24h-21v24q0 71 -14 129t-44.5 106t-84 74.5t-127.5 26.5t-127.5 -26t-84 -73.5t-44.5 -105t-14 -128.5q0 -60 19.5 -111.5t52 -90t74.5 -72.5t88.5 -64t93.5 -60t89 -65t74.5 -74t52 -92t19.5 -115
q0 -155 -67 -252.5t-212 -103.5v-70q154 -4 154 -110q0 -61 -52 -92t-116 -29q-66 0 -119 31t-53 92v6h20v-6q0 -35 26 -60t58.5 -34.5t67.5 -10.5q55 0 101 25.5t46 77.5q0 29 -12.5 48.5t-35 28.5t-44.5 12t-51 3h-10v88q-77 1 -134.5 29t-91 78t-49.5 112t-16 137v68h20
v-68q0 -151 65.5 -243.5t209.5 -92.5t209 92.5t65 243.5q0 75 -31 136.5t-80.5 105t-109.5 82.5t-120.5 79.5t-110 85.5t-80.5 110t-31 145q0 164 71 258.5t220 95.5z" />
    <glyph glyph-name="Scaron" unicode="&#x160;" 
d="M211 1698h29l145 -139l143 139h31l-168 -160h-14zM379 1444q78 0 135.5 -28t91 -78.5t49 -113t15.5 -137.5v-24h-21v24q0 71 -14 129t-44.5 106t-84 74.5t-127.5 26.5t-127.5 -26t-84 -73.5t-44.5 -105t-14 -128.5q0 -60 19.5 -111.5t52 -90t74.5 -72.5t88.5 -64
t93.5 -60t89 -65t74.5 -74t52 -92t19.5 -115q0 -159 -71 -257.5t-224 -98.5t-224 98.5t-71 257.5v68h20v-68q0 -151 65.5 -243.5t209.5 -92.5t209 92.5t65 243.5q0 75 -31 136.5t-80.5 105t-109.5 82.5t-120.5 79.5t-110 85.5t-80.5 110t-31 145q0 164 71 258.5t220 95.5z
" />
    <glyph glyph-name="scaron" unicode="&#x161;" 
d="M211 1698h29l145 -139l143 139h31l-168 -160h-14zM379 1444q78 0 135.5 -28t91 -78.5t49 -113t15.5 -137.5v-24h-21v24q0 71 -14 129t-44.5 106t-84 74.5t-127.5 26.5t-127.5 -26t-84 -73.5t-44.5 -105t-14 -128.5q0 -60 19.5 -111.5t52 -90t74.5 -72.5t88.5 -64
t93.5 -60t89 -65t74.5 -74t52 -92t19.5 -115q0 -159 -71 -257.5t-224 -98.5t-224 98.5t-71 257.5v68h20v-68q0 -151 65.5 -243.5t209.5 -92.5t209 92.5t65 243.5q0 75 -31 136.5t-80.5 105t-109.5 82.5t-120.5 79.5t-110 85.5t-80.5 110t-31 145q0 164 71 258.5t220 95.5z
" />
    <glyph glyph-name="uni0162" unicode="&#x162;" horiz-adv-x="831" 
d="M426 0h-2v-72q156 -4 156 -110q0 -61 -52 -92t-116 -29q-66 0 -119 31t-53 92v6h20v-6q0 -35 26 -60t58.5 -34.5t67.5 -10.5q55 0 101 25.5t46 77.5q0 29 -12.5 48.5t-35 28.5t-44.5 12t-51 3h-8v90h-2v1413h-324v21h668v-21h-324v-1413z" />
    <glyph glyph-name="uni0163" unicode="&#x163;" horiz-adv-x="831" 
d="M426 0h-2v-72q156 -4 156 -110q0 -61 -52 -92t-116 -29q-66 0 -119 31t-53 92v6h20v-6q0 -35 26 -60t58.5 -34.5t67.5 -10.5q55 0 101 25.5t46 77.5q0 29 -12.5 48.5t-35 28.5t-44.5 12t-51 3h-8v90h-2v1413h-324v21h668v-21h-324v-1413z" />
    <glyph glyph-name="Tcaron" unicode="&#x164;" horiz-adv-x="831" 
d="M242 1683h28l146 -139l143 139h31l-168 -159h-14zM426 0h-20v1413h-324v21h668v-21h-324v-1413z" />
    <glyph glyph-name="tcaron" unicode="&#x165;" horiz-adv-x="831" 
d="M242 1683h28l146 -139l143 139h31l-168 -159h-14zM426 0h-20v1413h-324v21h668v-21h-324v-1413z" />
    <glyph glyph-name="Tbar" unicode="&#x166;" horiz-adv-x="831" 
d="M426 928h168v-19h-168v-909h-20v909h-168v19h168v485h-324v21h668v-21h-324v-485z" />
    <glyph glyph-name="tbar" unicode="&#x167;" horiz-adv-x="831" 
d="M426 928h168v-19h-168v-909h-20v909h-168v19h168v485h-324v21h668v-21h-324v-485z" />
    <glyph glyph-name="Utilde" unicode="&#x168;" horiz-adv-x="743" 
d="M549 1642l18 -10q-36 -71 -88 -73q-36 -2 -98.5 38t-95.5 39q-50 0 -84 -63l-19 10q42 71 103 74q38 1 101.5 -39.5t92.5 -38.5q39 2 70 63zM662 1434v-1078q0 -76 -15 -139t-47.5 -115.5t-90.5 -82t-136 -29.5q-79 0 -137.5 29.5t-91 82t-47.5 115.5t-15 139v1078h20
v-1078q0 -72 13.5 -131.5t43.5 -109t84.5 -77.5t129.5 -28q74 0 128 28t83.5 77.5t43 109t13.5 131.5v1078h21z" />
    <glyph glyph-name="utilde" unicode="&#x169;" horiz-adv-x="743" 
d="M549 1642l18 -10q-36 -71 -88 -73q-36 -2 -98.5 38t-95.5 39q-50 0 -84 -63l-19 10q42 71 103 74q38 1 101.5 -39.5t92.5 -38.5q39 2 70 63zM662 1434v-1078q0 -76 -15 -139t-47.5 -115.5t-90.5 -82t-136 -29.5q-79 0 -137.5 29.5t-91 82t-47.5 115.5t-15 139v1078h20
v-1078q0 -72 13.5 -131.5t43.5 -109t84.5 -77.5t129.5 -28q74 0 128 28t83.5 77.5t43 109t13.5 131.5v1078h21z" />
    <glyph glyph-name="Umacron" unicode="&#x16a;" horiz-adv-x="743" 
d="M223 1595h316v-18h-316v18zM662 1434v-1078q0 -76 -15 -139t-47.5 -115.5t-90.5 -82t-136 -29.5q-79 0 -137.5 29.5t-91 82t-47.5 115.5t-15 139v1078h20v-1078q0 -72 13.5 -131.5t43.5 -109t84.5 -77.5t129.5 -28q74 0 128 28t83.5 77.5t43 109t13.5 131.5v1078h21z" />
    <glyph glyph-name="umacron" unicode="&#x16b;" horiz-adv-x="743" 
d="M223 1595h316v-18h-316v18zM662 1434v-1078q0 -76 -15 -139t-47.5 -115.5t-90.5 -82t-136 -29.5q-79 0 -137.5 29.5t-91 82t-47.5 115.5t-15 139v1078h20v-1078q0 -72 13.5 -131.5t43.5 -109t84.5 -77.5t129.5 -28q74 0 128 28t83.5 77.5t43 109t13.5 131.5v1078h21z" />
    <glyph glyph-name="Ubreve" unicode="&#x16c;" horiz-adv-x="743" 
d="M537 1671h20q-3 -69 -56 -109t-126 -40q-72 0 -125.5 39.5t-54.5 109.5h20q1 -61 48 -95t112 -34t112 34t50 95zM662 1434v-1078q0 -76 -15 -139t-47.5 -115.5t-90.5 -82t-136 -29.5q-79 0 -137.5 29.5t-91 82t-47.5 115.5t-15 139v1078h20v-1078q0 -72 13.5 -131.5
t43.5 -109t84.5 -77.5t129.5 -28q74 0 128 28t83.5 77.5t43 109t13.5 131.5v1078h21z" />
    <glyph glyph-name="ubreve" unicode="&#x16d;" horiz-adv-x="743" 
d="M537 1671h20q-3 -69 -56 -109t-126 -40q-72 0 -125.5 39.5t-54.5 109.5h20q1 -61 48 -95t112 -34t112 34t50 95zM662 1434v-1078q0 -76 -15 -139t-47.5 -115.5t-90.5 -82t-136 -29.5q-79 0 -137.5 29.5t-91 82t-47.5 115.5t-15 139v1078h20v-1078q0 -72 13.5 -131.5
t43.5 -109t84.5 -77.5t129.5 -28q74 0 128 28t83.5 77.5t43 109t13.5 131.5v1078h21z" />
    <glyph glyph-name="Uring" unicode="&#x16e;" horiz-adv-x="743" 
d="M385 1749q51 0 87 -34t36 -85q0 -52 -35.5 -86.5t-87.5 -34.5t-87.5 34.5t-35.5 86.5q0 51 36 85t87 34zM385 1729q-43 0 -72.5 -28.5t-29.5 -70.5q0 -44 29.5 -72t72.5 -28q42 0 72 28.5t30 71.5q0 42 -30 70.5t-72 28.5zM662 1434v-1078q0 -76 -15 -139t-47.5 -115.5
t-90.5 -82t-136 -29.5q-79 0 -137.5 29.5t-91 82t-47.5 115.5t-15 139v1078h20v-1078q0 -72 13.5 -131.5t43.5 -109t84.5 -77.5t129.5 -28q74 0 128 28t83.5 77.5t43 109t13.5 131.5v1078h21z" />
    <glyph glyph-name="uring" unicode="&#x16f;" horiz-adv-x="743" 
d="M385 1749q51 0 87 -34t36 -85q0 -52 -35.5 -86.5t-87.5 -34.5t-87.5 34.5t-35.5 86.5q0 51 36 85t87 34zM385 1729q-43 0 -72.5 -28.5t-29.5 -70.5q0 -44 29.5 -72t72.5 -28q42 0 72 28.5t30 71.5q0 42 -30 70.5t-72 28.5zM662 1434v-1078q0 -76 -15 -139t-47.5 -115.5
t-90.5 -82t-136 -29.5q-79 0 -137.5 29.5t-91 82t-47.5 115.5t-15 139v1078h20v-1078q0 -72 13.5 -131.5t43.5 -109t84.5 -77.5t129.5 -28q74 0 128 28t83.5 77.5t43 109t13.5 131.5v1078h21z" />
    <glyph glyph-name="Uhungarumlaut" unicode="&#x170;" horiz-adv-x="743" 
d="M422 1710h29l-152 -176h-27zM543 1710h28l-151 -176h-27zM662 1434v-1078q0 -76 -15 -139t-47.5 -115.5t-90.5 -82t-136 -29.5q-79 0 -137.5 29.5t-91 82t-47.5 115.5t-15 139v1078h20v-1078q0 -72 13.5 -131.5t43.5 -109t84.5 -77.5t129.5 -28q74 0 128 28t83.5 77.5
t43 109t13.5 131.5v1078h21z" />
    <glyph glyph-name="uhungarumlaut" unicode="&#x171;" horiz-adv-x="743" 
d="M422 1710h29l-152 -176h-27zM543 1710h28l-151 -176h-27zM662 1434v-1078q0 -76 -15 -139t-47.5 -115.5t-90.5 -82t-136 -29.5q-79 0 -137.5 29.5t-91 82t-47.5 115.5t-15 139v1078h20v-1078q0 -72 13.5 -131.5t43.5 -109t84.5 -77.5t129.5 -28q74 0 128 28t83.5 77.5
t43 109t13.5 131.5v1078h21z" />
    <glyph glyph-name="Uogonek" unicode="&#x172;" horiz-adv-x="743" 
d="M662 1434v-1078q0 -65 -11 -120.5t-34 -104.5t-64 -83t-96 -48q-40 -32 -73 -88t-30 -100q3 -35 26.5 -52.5t59.5 -17.5q58 0 99 33v-25q-47 -29 -101 -29q-43 2 -72 24t-32 67q-3 42 23.5 92t64.5 90q-32 -4 -49 -4q-79 0 -137.5 29.5t-91 82t-47.5 115.5t-15 139v1078
h20v-1078q0 -72 13.5 -131.5t43.5 -109t84.5 -77.5t129.5 -28q74 0 128 28t83.5 77.5t43 109t13.5 131.5v1078h21z" />
    <glyph glyph-name="uogonek" unicode="&#x173;" horiz-adv-x="743" 
d="M662 1434v-1078q0 -65 -11 -120.5t-34 -104.5t-64 -83t-96 -48q-40 -32 -73 -88t-30 -100q3 -35 26.5 -52.5t59.5 -17.5q58 0 99 33v-25q-47 -29 -101 -29q-43 2 -72 24t-32 67q-3 42 23.5 92t64.5 90q-32 -4 -49 -4q-79 0 -137.5 29.5t-91 82t-47.5 115.5t-15 139v1078
h20v-1078q0 -72 13.5 -131.5t43.5 -109t84.5 -77.5t129.5 -28q74 0 128 28t83.5 77.5t43 109t13.5 131.5v1078h21z" />
    <glyph glyph-name="Wcircumflex" unicode="&#x174;" horiz-adv-x="1282" 
d="M649 1669l-145 -139h-29l166 160h14l168 -160h-30zM653 1405l-268 -1405h-31l-272 1434h20l269 -1405l266 1396h33l250 -1386l260 1395h20l-268 -1434h-27z" />
    <glyph glyph-name="wcircumflex" unicode="&#x175;" horiz-adv-x="1282" 
d="M649 1669l-145 -139h-29l166 160h14l168 -160h-30zM653 1405l-268 -1405h-31l-272 1434h20l269 -1405l266 1396h33l250 -1386l260 1395h20l-268 -1434h-27z" />
    <glyph glyph-name="Ycircumflex" unicode="&#x176;" horiz-adv-x="872" 
d="M436 1667l-145 -139h-29l166 160h14l168 -160h-30zM424 0v594l-342 840h20l332 -811l334 811h23l-347 -840v-594h-20z" />
    <glyph glyph-name="ycircumflex" unicode="&#x177;" horiz-adv-x="872" 
d="M436 1667l-145 -139h-29l166 160h14l168 -160h-30zM424 0v594l-342 840h20l332 -811l334 811h23l-347 -840v-594h-20z" />
    <glyph glyph-name="Ydieresis" unicode="&#x178;" horiz-adv-x="872" 
d="M356 1681h21v-159h-21v159zM492 1681h20v-159h-20v159zM424 0v594l-342 840h20l332 -811l334 811h23l-347 -840v-594h-20z" />
    <glyph glyph-name="Zacute" unicode="&#x179;" horiz-adv-x="815" 
d="M549 1716h29l-152 -176h-27zM721 20v-20h-639v23l627 1390h-596v21h618v-25l-627 -1389h617z" />
    <glyph glyph-name="zacute" unicode="&#x17a;" horiz-adv-x="815" 
d="M549 1716h29l-152 -176h-27zM721 20v-20h-639v23l627 1390h-596v21h618v-25l-627 -1389h617z" />
    <glyph glyph-name="Zdotaccent" unicode="&#x17b;" horiz-adv-x="815" 
d="M438 1698h21v-160h-21v160zM721 20v-20h-639v23l627 1390h-596v21h618v-25l-627 -1389h617z" />
    <glyph glyph-name="zdotaccent" unicode="&#x17c;" horiz-adv-x="815" 
d="M438 1698h21v-160h-21v160zM721 20v-20h-639v23l627 1390h-596v21h618v-25l-627 -1389h617z" />
    <glyph glyph-name="Zcaron" unicode="&#x17d;" horiz-adv-x="815" 
d="M254 1696h29l145 -140l143 140h31l-168 -160h-14zM721 20v-20h-639v23l627 1390h-596v21h618v-25l-627 -1389h617z" />
    <glyph glyph-name="zcaron" unicode="&#x17e;" horiz-adv-x="815" 
d="M254 1696h29l145 -140l143 140h31l-168 -160h-14zM721 20v-20h-639v23l627 1390h-596v21h618v-25l-627 -1389h617z" />
    <glyph glyph-name="AEacute" unicode="&#x1fc;" horiz-adv-x="1216" 
d="M819 1710h29l-152 -176h-26zM698 737h369v-20h-369v-697h437v-20h-457v356h-430l-146 -356h-20l582 1434h471v-21h-437v-676zM678 1413l-422 -1036h422v1036z" />
    <glyph glyph-name="aeacute" unicode="&#x1fd;" horiz-adv-x="1216" 
d="M819 1710h29l-152 -176h-26zM698 737h369v-20h-369v-697h437v-20h-457v356h-430l-146 -356h-20l582 1434h471v-21h-437v-676zM678 1413l-422 -1036h422v1036z" />
    <glyph glyph-name="Oslashacute" unicode="&#x1fe;" horiz-adv-x="763" 
d="M346 1540l150 176h28l-151 -176h-27zM674 1434l-47 -119q55 -89 55 -234v-729q0 -77 -16.5 -140.5t-51.5 -114t-94 -79t-139 -28.5q-158 0 -234 110l-38 -100h-21l47 119q-53 90 -53 233v729q0 77 16.5 140.5t51 114.5t93.5 79.5t138 28.5q152 0 233 -109l39 99h21z
M381 1423q-75 0 -130.5 -27t-87 -75.5t-46.5 -108t-15 -131.5v-729q0 -126 41 -209l461 1168q-69 112 -223 112zM616 1290l-460 -1169q70 -111 225 -111q75 0 131 27t88 75t47 107.5t15 132.5v729q0 124 -46 209z" />
    <glyph glyph-name="oslashacute" unicode="&#x1ff;" horiz-adv-x="763" 
d="M346 1540l150 176h28l-151 -176h-27zM674 1434l-47 -119q55 -89 55 -234v-729q0 -77 -16.5 -140.5t-51.5 -114t-94 -79t-139 -28.5q-158 0 -234 110l-38 -100h-21l47 119q-53 90 -53 233v729q0 77 16.5 140.5t51 114.5t93.5 79.5t138 28.5q152 0 233 -109l39 99h21z
M381 1423q-75 0 -130.5 -27t-87 -75.5t-46.5 -108t-15 -131.5v-729q0 -126 41 -209l461 1168q-69 112 -223 112zM616 1290l-460 -1169q70 -111 225 -111q75 0 131 27t88 75t47 107.5t15 132.5v729q0 124 -46 209z" />
    <glyph glyph-name="uni0218" unicode="&#x218;" 
d="M379 1444q78 0 135.5 -28t91 -78.5t49 -113t15.5 -137.5v-24h-21v24q0 71 -14 129t-44.5 106t-84 74.5t-127.5 26.5t-127.5 -26t-84 -73.5t-44.5 -105t-14 -128.5q0 -60 19.5 -111.5t52 -90t74.5 -72.5t88.5 -64t93.5 -60t89 -65t74.5 -74t52 -92t19.5 -115
q0 -159 -71 -257.5t-224 -98.5t-224 98.5t-71 257.5v68h20v-68q0 -151 65.5 -243.5t209.5 -92.5t209 92.5t65 243.5q0 75 -31 136.5t-80.5 105t-109.5 82.5t-120.5 79.5t-110 85.5t-80.5 110t-31 145q0 164 71 258.5t220 95.5zM336 -356l33 127h-2v159h20v-159l-37 -127h-14
z" />
    <glyph glyph-name="uni0219" unicode="&#x219;" 
d="M379 1444q78 0 135.5 -28t91 -78.5t49 -113t15.5 -137.5v-24h-21v24q0 71 -14 129t-44.5 106t-84 74.5t-127.5 26.5t-127.5 -26t-84 -73.5t-44.5 -105t-14 -128.5q0 -60 19.5 -111.5t52 -90t74.5 -72.5t88.5 -64t93.5 -60t89 -65t74.5 -74t52 -92t19.5 -115
q0 -159 -71 -257.5t-224 -98.5t-224 98.5t-71 257.5v68h20v-68q0 -151 65.5 -243.5t209.5 -92.5t209 92.5t65 243.5q0 75 -31 136.5t-80.5 105t-109.5 82.5t-120.5 79.5t-110 85.5t-80.5 110t-31 145q0 164 71 258.5t220 95.5zM336 -356l33 127h-2v159h20v-159l-37 -127h-14
z" />
    <glyph glyph-name="uni021A" unicode="&#x21a;" horiz-adv-x="831" 
d="M426 0h-20v1413h-324v21h668v-21h-324v-1413zM375 -356l33 127h-2v159h20v-159l-37 -127h-14z" />
    <glyph glyph-name="uni021B" unicode="&#x21b;" horiz-adv-x="831" 
d="M426 0h-20v1413h-324v21h668v-21h-324v-1413zM375 -356l33 127h-2v159h20v-159l-37 -127h-14z" />
    <glyph glyph-name="uni0237" unicode="&#x237;" horiz-adv-x="516" 
d="M82 0v20q24 -2 86 3q129 12 187.5 89t58.5 238v1084h20v-1084q0 -170 -66 -253.5t-200 -94.5q-54 -4 -86 -2z" />
    <glyph glyph-name="uni02BC" unicode="&#x2bc;" horiz-adv-x="215" 
d="M133 1274l-37 -127h-14l33 127h-2v160h20v-160z" />
    <glyph glyph-name="circumflex" unicode="&#x2c6;" horiz-adv-x="512" 
d="M256 1716l-145 -139h-29l166 160h14l168 -160h-31z" />
    <glyph glyph-name="caron" unicode="&#x2c7;" horiz-adv-x="512" 
d="M82 1737h29l145 -140l143 140h31l-168 -160h-14z" />
    <glyph glyph-name="breve" unicode="&#x2d8;" horiz-adv-x="526" 
d="M424 1651h20q-3 -69 -56 -109.5t-126 -40.5q-72 0 -125.5 40t-54.5 110h20q1 -61 48 -95t112 -34q64 0 111.5 34t50.5 95z" />
    <glyph glyph-name="dotaccent" unicode="&#x2d9;" horiz-adv-x="184" 
d="M82 1706h20v-160h-20v160z" />
    <glyph glyph-name="ring" unicode="&#x2da;" horiz-adv-x="409" 
d="M205 1786q51 0 87 -34t36 -85q0 -52 -35.5 -86.5t-87.5 -34.5t-87.5 34.5t-35.5 86.5q0 51 36 85t87 34zM205 1765q-43 0 -73 -28t-30 -70q0 -44 30 -72t73 -28q42 0 72 28.5t30 71.5q0 42 -30 70t-72 28z" />
    <glyph glyph-name="ogonek" unicode="&#x2db;" horiz-adv-x="368" 
d="M176 0h29q-40 -32 -73 -88t-30 -100q3 -35 26.5 -52.5t59.5 -17.5q58 0 99 33v-25q-47 -29 -101 -29q-43 2 -72 24t-32 67t25.5 96.5t68.5 91.5z" />
    <glyph glyph-name="tilde" unicode="&#x2dc;" horiz-adv-x="548" 
d="M449 1638l18 -10q-37 -72 -88 -74q-36 -2 -99 38.5t-96 39.5q-50 0 -84 -63l-18 10q42 71 102 74q38 1 102 -39.5t93 -38.5q39 2 70 63z" />
    <glyph glyph-name="hungarumlaut" unicode="&#x2dd;" horiz-adv-x="462" 
d="M231 1737h29l-151 -176h-27zM352 1737h29l-152 -176h-26z" />
    <glyph glyph-name="uni0401" unicode="&#x401;" horiz-adv-x="700" 
d="M274 1696h21v-160h-21v160zM410 1696h20v-160h-20v160zM102 737h437v-20h-437v-697h516v-20h-536v1434h536v-21h-516v-676z" />
    <glyph glyph-name="uni0410" unicode="&#x410;" horiz-adv-x="925" 
d="M733 348h-543l-88 -348h-20l362 1436h29l371 -1436h-21zM459 1409l-262 -1040h530z" />
    <glyph glyph-name="uni0411" unicode="&#x411;" horiz-adv-x="759" 
d="M102 801h246q171 0 250.5 -66.5t79.5 -232.5v-168q0 -163 -72.5 -248.5t-232.5 -85.5h-291v1434h549v-21h-529v-612zM102 20h271q151 0 217.5 80t66.5 234v168q0 158 -72.5 218t-236.5 60h-246v-760z" />
    <glyph glyph-name="uni0412" unicode="&#x412;" horiz-adv-x="741" 
d="M82 1434h280q148 0 208.5 -72.5t60.5 -220.5v-99q0 -129 -46 -196.5t-167 -81.5q241 -27 241 -307v-129q0 -328 -297 -328h-280v1434zM102 774h199q85 0 139.5 11t94.5 40t57.5 82t17.5 135v99q0 140 -54.5 206t-193.5 66h-260v-639zM102 20h260q146 0 211.5 79t65.5 229
v129q0 159 -77 228t-238 69h-222v-734z" />
    <glyph glyph-name="uni0413" unicode="&#x413;" horiz-adv-x="688" 
d="M606 1413h-504v-1413h-20v1434h524v-21z" />
    <glyph glyph-name="uni0414" unicode="&#x414;" horiz-adv-x="1003" 
d="M922 -203h-21v203h-799v-203h-20v223h104q32 32 49.5 77.5t21.5 80.5t7 96l62 1160h465v-1414h131v-223zM346 1413l-61 -1141q-3 -60 -6.5 -93.5t-19 -79.5t-44.5 -79h555v1393h-424z" />
    <glyph glyph-name="uni0415" unicode="&#x415;" horiz-adv-x="700" 
d="M102 737h437v-20h-437v-697h516v-20h-536v1434h536v-21h-516v-676z" />
    <glyph glyph-name="uni0416" unicode="&#x416;" horiz-adv-x="1296" 
d="M1192 0l-416 762l-119 -193v-569h-20v571l-117 191l-416 -762h-22l426 780l-402 654h23l508 -828v828h20v-828l508 828h25l-402 -654l426 -780h-22z" />
    <glyph glyph-name="uni0417" unicode="&#x417;" 
d="M377 1444q79 0 138 -29t92 -80t49 -114.5t16 -139.5v-37q0 -103 -58.5 -185t-158.5 -111q104 -21 160.5 -99.5t56.5 -185.5v-111q0 -76 -16 -139t-49 -114.5t-92 -80t-138 -28.5t-138 28.5t-92 80t-49 114.5t-16 139v99h20v-99q0 -72 14.5 -131t45 -107.5t85.5 -76
t130 -27.5t129.5 27.5t85.5 76t45 107.5t14 131v111q0 118 -72 196t-190 78h-96v21h96q111 0 186.5 87t75.5 199v37q0 72 -14 131.5t-45 108t-85.5 75.5t-129.5 27t-130 -27t-85.5 -75.5t-45 -108t-14.5 -131.5v-55h-20v55q0 76 16 139.5t49 114.5t92 80t138 29z" />
    <glyph glyph-name="uni0418" unicode="&#x418;" horiz-adv-x="759" 
d="M657 1413l-282 -731l-262 -682h-31v1434h20v-1407l283 737l258 670h35v-1434h-21v1413z" />
    <glyph glyph-name="uni0419" unicode="&#x419;" horiz-adv-x="759" 
d="M561 1677h23q-3 -66 -58.5 -104.5t-130.5 -38.5q-76 0 -131.5 38t-56.5 105h22q1 -60 49.5 -92.5t116.5 -32.5q66 0 114.5 32.5t51.5 92.5zM657 1413l-544 -1413h-31v1434h20v-1407l541 1407h35v-1434h-21v1413z" />
    <glyph glyph-name="uni041A" unicode="&#x41a;" horiz-adv-x="817" 
d="M711 0l-494 731l-115 -168v-563h-20v1434h20v-834l566 834h24l-463 -684l506 -750h-24z" />
    <glyph glyph-name="uni041B" unicode="&#x41b;" horiz-adv-x="884" 
d="M782 1413h-436l-45 -1069q-7 -140 -18 -188q-31 -128 -140 -152q-24 -5 -51 -6h-10v20q55 0 93.5 19.5t58 48t30 74t13.5 83t4 89.5v14l45 1088h477v-1434h-21v1413z" />
    <glyph glyph-name="uni041C" unicode="&#x41c;" horiz-adv-x="993" 
d="M891 1413l-381 -1409h-29l-379 1409v-1413h-20v1434h37l377 -1407l381 1407h34v-1434h-20v1413z" />
    <glyph glyph-name="uni041D" unicode="&#x41d;" horiz-adv-x="757" 
d="M655 707h-553v-707h-20v1434h20v-707h553v707h21v-1434h-21v707z" />
    <glyph glyph-name="uni041E" unicode="&#x41e;" horiz-adv-x="763" 
d="M82 352v729q0 77 16.5 140.5t51 114.5t93.5 79.5t138 28.5q80 0 139 -28.5t94 -79.5t51.5 -114.5t16.5 -140.5v-729q0 -77 -16.5 -140.5t-51.5 -114t-94 -79t-139 -28.5q-79 0 -138 28.5t-93.5 79t-51 114t-16.5 140.5zM102 1081v-729q0 -73 15 -132.5t46.5 -107.5
t87 -75t130.5 -27t131 27t88 75t47 107.5t15 132.5v729q0 72 -15 131.5t-47 108t-88 75.5t-131 27t-130.5 -27t-87 -75.5t-46.5 -108t-15 -131.5z" />
    <glyph glyph-name="uni041F" unicode="&#x41f;" horiz-adv-x="757" 
d="M655 1413h-553v-1413h-20v1434h594v-1434h-21v1413z" />
    <glyph glyph-name="uni0420" unicode="&#x420;" horiz-adv-x="731" 
d="M82 1434h276q291 0 291 -344v-140q0 -170 -79.5 -251t-250.5 -81h-217v-618h-20v1434zM102 639h217q163 0 236.5 74.5t73.5 236.5v140q0 152 -62 237.5t-209 85.5h-256v-774z" />
    <glyph glyph-name="uni0421" unicode="&#x421;" 
d="M377 1444q79 0 137.5 -29t92 -80.5t49.5 -115t16 -138.5v-108h-21v108q0 72 -14.5 131t-45.5 107.5t-85.5 76t-128.5 27.5t-129 -27.5t-86 -76t-45.5 -108t-14.5 -130.5v-729q0 -71 14.5 -130.5t45.5 -108t86 -76t129 -27.5t128.5 27.5t85.5 76t45.5 107.5t14.5 131v152
h21v-152q0 -75 -16 -138.5t-49.5 -114.5t-92 -80t-137.5 -29t-137.5 29t-92 80t-49.5 114.5t-16 138.5v729q0 75 16 138.5t49.5 115t92 80.5t137.5 29z" />
    <glyph glyph-name="uni0422" unicode="&#x422;" horiz-adv-x="831" 
d="M426 0h-20v1413h-324v21h668v-21h-324v-1413z" />
    <glyph glyph-name="uni0423" unicode="&#x423;" horiz-adv-x="892" 
d="M811 1434l-442 -1223q-20 -55 -36 -87t-43 -64t-66 -46t-93 -14v20q50 0 86 13t60.5 43t39 59.5t33.5 81.5l94 264l-362 953h22l195 -514l156 -410l333 924h23z" />
    <glyph glyph-name="uni0424" unicode="&#x424;" horiz-adv-x="1107" 
d="M563 1272h135q173 0 250.5 -94t77.5 -271v-391q0 -177 -77.5 -270.5t-250.5 -93.5h-135v-152h-20v152h-135q-173 0 -249.5 93.5t-76.5 270.5v391q0 177 76.5 271t249.5 94h135v162h20v-162zM543 1251h-135q-163 0 -234.5 -88t-71.5 -256v-391q0 -168 71.5 -256t234.5 -88
h135v1079zM563 172h135q164 0 236 88t72 256v391q0 168 -71.5 256t-236.5 88h-135v-1079z" />
    <glyph glyph-name="uni0425" unicode="&#x425;" horiz-adv-x="913" 
d="M809 0l-352 723l-351 -723h-24l364 745l-340 689h23l328 -666l327 666h23l-338 -689l362 -745h-22z" />
    <glyph glyph-name="uni0426" unicode="&#x426;" horiz-adv-x="931" 
d="M846 -193h-21v193h-702v1434h18v-1414h553v1414h21v-1414h131v-213z" />
    <glyph glyph-name="uni0427" unicode="&#x427;" horiz-adv-x="761" 
d="M659 0v752q-86 -179 -286 -179q-76 0 -134 30t-91 81.5t-49.5 115t-16.5 136.5v498h20v-498q0 -69 15 -128t45.5 -108.5t84.5 -77.5t126 -28q210 0 286 207v633h21v-1434h-21z" />
    <glyph glyph-name="uni0428" unicode="&#x428;" horiz-adv-x="1112" 
d="M82 1434h20v-1414h445v1414h20v-1414h443v1414h20v-1434h-948v1434z" />
    <glyph glyph-name="uni0429" unicode="&#x429;" horiz-adv-x="1243" 
d="M1161 -193h-20v193h-1059v1434h20v-1414h443v1414h20v-1414h445l-2 1414h20v-1414h133v-213z" />
    <glyph glyph-name="uni042A" unicode="&#x42a;" horiz-adv-x="944" 
d="M315 815h217q171 0 250.5 -81t79.5 -251v-139q0 -344 -291 -344h-276v1413h-213v21h233v-619zM315 20h256q147 0 209 86t62 238v139q0 162 -74 237t-236 75h-217v-775z" />
    <glyph glyph-name="uni042B" unicode="&#x42b;" horiz-adv-x="890" 
d="M102 815h215q172 0 252 -81t80 -251v-139q0 -344 -293 -344h-274v1434h20v-619zM788 1434h21v-1434h-21v1434zM102 20h254q273 0 273 324v139q0 162 -74.5 237t-237.5 75h-215v-775z" />
    <glyph glyph-name="uni042C" unicode="&#x42c;" horiz-adv-x="731" 
d="M102 815h215q172 0 252 -81t80 -251v-139q0 -344 -293 -344h-274v1434h20v-619zM102 20h254q273 0 273 324v139q0 162 -74.5 237t-237.5 75h-215v-775z" />
    <glyph glyph-name="uni042D" unicode="&#x42d;" horiz-adv-x="751" 
d="M375 1444q79 0 137.5 -29t92 -80.5t49.5 -115t16 -138.5v-729q0 -75 -16 -138.5t-49.5 -114.5t-92 -80t-137.5 -29q-78 0 -136 29t-91.5 80t-49.5 114.5t-16 138.5v125h20v-125q0 -72 14.5 -131t45 -107.5t85 -76t128.5 -27.5q75 0 129.5 27.5t85.5 76t45 107.5t14 131
v379h-340v21h340v329q0 72 -14 131t-45 107.5t-85.5 76t-129.5 27.5q-74 0 -128.5 -27.5t-85 -76t-45 -107.5t-14.5 -131v-75h-20v75q0 75 16 138.5t49.5 115t91.5 80.5t136 29z" />
    <glyph glyph-name="uni042E" unicode="&#x42e;" horiz-adv-x="1077" 
d="M694 1444q80 0 139 -28.5t94 -79.5t51.5 -114.5t16.5 -140.5v-729q0 -77 -16.5 -140.5t-51.5 -114t-94 -79t-139 -28.5t-139 28.5t-93 79t-50.5 114t-16.5 140.5v355h-293v-707h-20v1434h20v-707h293v354q0 77 16.5 140.5t50.5 114.5t93.5 79.5t138.5 28.5zM694 1423
q-75 0 -130.5 -27t-87 -75t-46 -107.5t-14.5 -132.5v-729q0 -72 15 -131.5t46 -108t86.5 -75.5t130.5 -27t131 27t88 75.5t47 108t15 131.5v729q0 73 -15 132.5t-47 107.5t-88 75t-131 27z" />
    <glyph glyph-name="uni042F" unicode="&#x42f;" horiz-adv-x="772" 
d="M670 672h-189q-79 0 -137.5 -12.5t-105.5 -42.5t-71 -85.5t-24 -136.5v-225q0 -114 -37 -170h-24q41 50 41 170v225q0 252 239 285q-124 19 -181.5 93t-57.5 210v129q0 322 291 322h276v-1434h-20v672zM670 1413h-256q-143 0 -207 -78t-64 -223v-129q0 -87 22 -145.5
t68 -89.5t104.5 -43.5t143.5 -12.5h189v721z" />
    <glyph glyph-name="uni0430" unicode="&#x430;" horiz-adv-x="925" 
d="M733 348h-543l-88 -348h-20l362 1436h29l371 -1436h-21zM459 1409l-262 -1040h530z" />
    <glyph glyph-name="uni0431" unicode="&#x431;" horiz-adv-x="759" 
d="M102 801h246q171 0 250.5 -66.5t79.5 -232.5v-168q0 -163 -72.5 -248.5t-232.5 -85.5h-291v1434h549v-21h-529v-612zM102 20h271q151 0 217.5 80t66.5 234v168q0 158 -72.5 218t-236.5 60h-246v-760z" />
    <glyph glyph-name="uni0432" unicode="&#x432;" horiz-adv-x="741" 
d="M82 1434h280q148 0 208.5 -72.5t60.5 -220.5v-99q0 -129 -46 -196.5t-167 -81.5q241 -27 241 -307v-129q0 -328 -297 -328h-280v1434zM102 774h199q85 0 139.5 11t94.5 40t57.5 82t17.5 135v99q0 140 -54.5 206t-193.5 66h-260v-639zM102 20h260q146 0 211.5 79t65.5 229
v129q0 159 -77 228t-238 69h-222v-734z" />
    <glyph glyph-name="uni0433" unicode="&#x433;" horiz-adv-x="688" 
d="M606 1413h-504v-1413h-20v1434h524v-21z" />
    <glyph glyph-name="uni0434" unicode="&#x434;" horiz-adv-x="1003" 
d="M922 -203h-21v203h-799v-203h-20v223h104q32 32 49.5 77.5t21.5 80.5t7 96l62 1160h465v-1414h131v-223zM346 1413l-61 -1141q-3 -60 -6.5 -93.5t-19 -79.5t-44.5 -79h555v1393h-424z" />
    <glyph glyph-name="uni0435" unicode="&#x435;" horiz-adv-x="700" 
d="M102 737h437v-20h-437v-697h516v-20h-536v1434h536v-21h-516v-676z" />
    <glyph glyph-name="uni0436" unicode="&#x436;" horiz-adv-x="1296" 
d="M1192 0l-416 762l-119 -193v-569h-20v571l-117 191l-416 -762h-22l426 780l-402 654h23l508 -828v828h20v-828l508 828h25l-402 -654l426 -780h-22z" />
    <glyph glyph-name="uni0437" unicode="&#x437;" 
d="M377 1444q79 0 138 -29t92 -80t49 -114.5t16 -139.5v-37q0 -103 -58.5 -185t-158.5 -111q104 -21 160.5 -99.5t56.5 -185.5v-111q0 -76 -16 -139t-49 -114.5t-92 -80t-138 -28.5t-138 28.5t-92 80t-49 114.5t-16 139v99h20v-99q0 -72 14.5 -131t45 -107.5t85.5 -76
t130 -27.5t129.5 27.5t85.5 76t45 107.5t14 131v111q0 118 -72 196t-190 78h-96v21h96q111 0 186.5 87t75.5 199v37q0 72 -14 131.5t-45 108t-85.5 75.5t-129.5 27t-130 -27t-85.5 -75.5t-45 -108t-14.5 -131.5v-55h-20v55q0 76 16 139.5t49 114.5t92 80t138 29z" />
    <glyph glyph-name="uni0438" unicode="&#x438;" horiz-adv-x="759" 
d="M657 1413l-544 -1413h-31v1434h20v-1407l215 561l326 846h35v-1434h-21v1413z" />
    <glyph glyph-name="uni0439" unicode="&#x439;" horiz-adv-x="759" 
d="M561 1669h23q-3 -66 -58.5 -104.5t-130.5 -38.5q-76 0 -131.5 38t-56.5 105h22q1 -60 49.5 -92.5t116.5 -32.5q66 0 114.5 32.5t51.5 92.5zM657 1413l-251 -655l-293 -758h-31v1434h20v-1407l238 620l303 787h35v-1434h-21v1413z" />
    <glyph glyph-name="uni043A" unicode="&#x43a;" horiz-adv-x="817" 
d="M711 0l-494 731l-115 -168v-563h-20v1434h20v-834l566 834h24l-463 -684l506 -750h-24z" />
    <glyph glyph-name="uni043B" unicode="&#x43b;" horiz-adv-x="884" 
d="M782 1413h-436l-45 -1069q-7 -140 -18 -188q-31 -128 -140 -152q-24 -5 -51 -6h-10v20q55 0 93.5 19.5t58 48t30 74t13.5 83t4 89.5v14l45 1088h477v-1434h-21v1413z" />
    <glyph glyph-name="uni043C" unicode="&#x43c;" horiz-adv-x="993" 
d="M891 1413l-381 -1409h-29l-379 1409v-1413h-20v1434h37l377 -1407l381 1407h34v-1434h-20v1413z" />
    <glyph glyph-name="uni043D" unicode="&#x43d;" horiz-adv-x="757" 
d="M655 707h-553v-707h-20v1434h20v-707h553v707h21v-1434h-21v707z" />
    <glyph glyph-name="uni043E" unicode="&#x43e;" horiz-adv-x="763" 
d="M82 352v729q0 77 16.5 140.5t51 114.5t93.5 79.5t138 28.5q80 0 139 -28.5t94 -79.5t51.5 -114.5t16.5 -140.5v-729q0 -77 -16.5 -140.5t-51.5 -114t-94 -79t-139 -28.5q-79 0 -138 28.5t-93.5 79t-51 114t-16.5 140.5zM102 1081v-729q0 -73 15 -132.5t46.5 -107.5
t87 -75t130.5 -27t131 27t88 75t47 107.5t15 132.5v729q0 72 -15 131.5t-47 108t-88 75.5t-131 27t-130.5 -27t-87 -75.5t-46.5 -108t-15 -131.5z" />
    <glyph glyph-name="uni043F" unicode="&#x43f;" horiz-adv-x="757" 
d="M655 1413h-553v-1413h-20v1434h594v-1434h-21v1413z" />
    <glyph glyph-name="uni0440" unicode="&#x440;" horiz-adv-x="731" 
d="M82 1434h276q291 0 291 -344v-140q0 -170 -79.5 -251t-250.5 -81h-217v-618h-20v1434zM102 639h217q163 0 236.5 74.5t73.5 236.5v140q0 152 -62 237.5t-209 85.5h-256v-774z" />
    <glyph glyph-name="uni0441" unicode="&#x441;" 
d="M377 1444q79 0 137.5 -29t92 -80.5t49.5 -115t16 -138.5v-108h-21v108q0 72 -14.5 131t-45.5 107.5t-85.5 76t-128.5 27.5t-129 -27.5t-86 -76t-45.5 -108t-14.5 -130.5v-729q0 -71 14.5 -130.5t45.5 -108t86 -76t129 -27.5t128.5 27.5t85.5 76t45.5 107.5t14.5 131v152
h21v-152q0 -75 -16 -138.5t-49.5 -114.5t-92 -80t-137.5 -29t-137.5 29t-92 80t-49.5 114.5t-16 138.5v729q0 75 16 138.5t49.5 115t92 80.5t137.5 29z" />
    <glyph glyph-name="uni0442" unicode="&#x442;" horiz-adv-x="831" 
d="M426 0h-20v1413h-324v21h668v-21h-324v-1413z" />
    <glyph glyph-name="uni0443" unicode="&#x443;" horiz-adv-x="892" 
d="M811 1434l-442 -1223q-20 -55 -36 -87t-43 -64t-66 -46t-93 -14v20q50 0 86 13t60.5 43t39 59.5t33.5 81.5l94 264l-362 953h22l195 -514l156 -410l333 924h23z" />
    <glyph glyph-name="uni0444" unicode="&#x444;" horiz-adv-x="1107" 
d="M563 1272h135q173 0 250.5 -94t77.5 -271v-391q0 -177 -77.5 -270.5t-250.5 -93.5h-135v-152h-20v152h-135q-173 0 -249.5 93.5t-76.5 270.5v391q0 177 76.5 271t249.5 94h135v162h20v-162zM543 1251h-135q-163 0 -234.5 -88t-71.5 -256v-391q0 -168 71.5 -256t234.5 -88
h135v1079zM563 172h135q164 0 236 88t72 256v391q0 168 -71.5 256t-236.5 88h-135v-1079z" />
    <glyph glyph-name="uni0445" unicode="&#x445;" horiz-adv-x="913" 
d="M809 0l-352 723l-351 -723h-24l364 745l-340 689h23l328 -666l327 666h23l-338 -689l362 -745h-22z" />
    <glyph glyph-name="uni0446" unicode="&#x446;" horiz-adv-x="931" 
d="M846 -193h-21v193h-702v1434h18v-1414h553v1414h21v-1414h131v-213z" />
    <glyph glyph-name="uni0447" unicode="&#x447;" horiz-adv-x="761" 
d="M659 0v752q-86 -179 -286 -179q-76 0 -134 30t-91 81.5t-49.5 115t-16.5 136.5v498h20v-498q0 -69 15 -128t45.5 -108.5t84.5 -77.5t126 -28q210 0 286 207v633h21v-1434h-21z" />
    <glyph glyph-name="uni0448" unicode="&#x448;" horiz-adv-x="1112" 
d="M82 1434h20v-1414h445v1414h20v-1414h443v1414h20v-1434h-948v1434z" />
    <glyph glyph-name="uni0449" unicode="&#x449;" horiz-adv-x="1243" 
d="M1161 -193h-20v193h-1059v1434h20v-1414h443v1414h20v-1414h445l-2 1414h20v-1414h133v-213z" />
    <glyph glyph-name="uni044A" unicode="&#x44a;" horiz-adv-x="944" 
d="M315 815h217q171 0 250.5 -81t79.5 -251v-139q0 -344 -291 -344h-276v1413h-213v21h233v-619zM315 20h256q147 0 209 86t62 238v139q0 162 -74 237t-236 75h-217v-775z" />
    <glyph glyph-name="uni044B" unicode="&#x44b;" horiz-adv-x="890" 
d="M102 815h215q172 0 252 -81t80 -251v-139q0 -344 -293 -344h-274v1434h20v-619zM788 1434h21v-1434h-21v1434zM102 20h254q273 0 273 324v139q0 162 -74.5 237t-237.5 75h-215v-775z" />
    <glyph glyph-name="uni044C" unicode="&#x44c;" horiz-adv-x="731" 
d="M102 815h215q172 0 252 -81t80 -251v-139q0 -344 -293 -344h-274v1434h20v-619zM102 20h254q273 0 273 324v139q0 162 -74.5 237t-237.5 75h-215v-775z" />
    <glyph glyph-name="uni044D" unicode="&#x44d;" horiz-adv-x="751" 
d="M375 1444q79 0 137.5 -29t92 -80.5t49.5 -115t16 -138.5v-729q0 -75 -16 -138.5t-49.5 -114.5t-92 -80t-137.5 -29q-78 0 -136 29t-91.5 80t-49.5 114.5t-16 138.5v125h20v-125q0 -72 14.5 -131t45 -107.5t85 -76t128.5 -27.5q75 0 129.5 27.5t85.5 76t45 107.5t14 131
v379h-340v21h340v329q0 72 -14 131t-45 107.5t-85.5 76t-129.5 27.5q-74 0 -128.5 -27.5t-85 -76t-45 -107.5t-14.5 -131v-75h-20v75q0 75 16 138.5t49.5 115t91.5 80.5t136 29z" />
    <glyph glyph-name="uni044E" unicode="&#x44e;" horiz-adv-x="1077" 
d="M694 1444q80 0 139 -28.5t94 -79.5t51.5 -114.5t16.5 -140.5v-729q0 -77 -16.5 -140.5t-51.5 -114t-94 -79t-139 -28.5t-139 28.5t-93 79t-50.5 114t-16.5 140.5v355h-293v-707h-20v1434h20v-707h293v354q0 77 16.5 140.5t50.5 114.5t93.5 79.5t138.5 28.5zM694 1423
q-75 0 -130.5 -27t-87 -75t-46 -107.5t-14.5 -132.5v-729q0 -72 15 -131.5t46 -108t86.5 -75.5t130.5 -27t131 27t88 75.5t47 108t15 131.5v729q0 73 -15 132.5t-47 107.5t-88 75t-131 27z" />
    <glyph glyph-name="uni044F" unicode="&#x44f;" horiz-adv-x="772" 
d="M670 672h-189q-79 0 -137.5 -12.5t-105.5 -42.5t-71 -85.5t-24 -136.5v-225q0 -114 -37 -170h-24q41 50 41 170v225q0 252 239 285q-124 19 -181.5 93t-57.5 210v129q0 322 291 322h276v-1434h-20v672zM670 1413h-256q-143 0 -207 -78t-64 -223v-129q0 -87 22 -145.5
t68 -89.5t104.5 -43.5t143.5 -12.5h189v721z" />
    <glyph glyph-name="uni0451" unicode="&#x451;" horiz-adv-x="700" 
d="M274 1696h21v-160h-21v160zM410 1696h20v-160h-20v160zM102 737h437v-20h-437v-697h516v-20h-536v1434h536v-21h-516v-676z" />
    <glyph glyph-name="uni1E02" unicode="&#x1e02;" horiz-adv-x="741" 
d="M319 1686h21v-160h-21v160zM82 1434h280q148 0 208.5 -72.5t60.5 -220.5v-99q0 -129 -46 -196.5t-167 -81.5q241 -27 241 -307v-129q0 -328 -297 -328h-280v1434zM102 774h199q85 0 139.5 11t94.5 40t57.5 82t17.5 135v99q0 140 -54.5 206t-193.5 66h-260v-639zM102 20
h260q146 0 211.5 79t65.5 229v129q0 159 -77 228t-238 69h-222v-734z" />
    <glyph glyph-name="uni1E03" unicode="&#x1e03;" horiz-adv-x="741" 
d="M319 1686h21v-160h-21v160zM82 1434h280q148 0 208.5 -72.5t60.5 -220.5v-99q0 -129 -46 -196.5t-167 -81.5q241 -27 241 -307v-129q0 -328 -297 -328h-280v1434zM102 774h199q85 0 139.5 11t94.5 40t57.5 82t17.5 135v99q0 140 -54.5 206t-193.5 66h-260v-639zM102 20
h260q146 0 211.5 79t65.5 229v129q0 159 -77 228t-238 69h-222v-734z" />
    <glyph glyph-name="uni1E0A" unicode="&#x1e0a;" horiz-adv-x="761" 
d="M330 1686h20v-160h-20v160zM82 1434h291q156 0 231.5 -99t75.5 -260v-719q0 -104 -30 -181.5t-100 -126t-175 -48.5h-293v1434zM102 20h273q147 0 215.5 92t68.5 244v719q0 153 -69.5 245.5t-216.5 92.5h-271v-1393z" />
    <glyph glyph-name="uni1E0B" unicode="&#x1e0b;" horiz-adv-x="761" 
d="M330 1686h20v-160h-20v160zM82 1434h291q156 0 231.5 -99t75.5 -260v-719q0 -104 -30 -181.5t-100 -126t-175 -48.5h-293v1434zM102 20h273q147 0 215.5 92t68.5 244v719q0 153 -69.5 245.5t-216.5 92.5h-271v-1393z" />
    <glyph glyph-name="uni1E1E" unicode="&#x1e1e;" horiz-adv-x="679" 
d="M330 1683h20v-159h-20v159zM102 700h416v-20h-416v-680h-20v1434h516v-21h-496v-713z" />
    <glyph glyph-name="uni1E1F" unicode="&#x1e1f;" horiz-adv-x="679" 
d="M350 1686h21v-160h-21v160zM102 700h416v-20h-416v-680h-20v1434h516v-21h-496v-713z" />
    <glyph glyph-name="uni1E40" unicode="&#x1e40;" horiz-adv-x="993" 
d="M485 1700h21v-166h-21v166zM891 1413l-381 -1409h-29l-379 1409v-1413h-20v1434h37l377 -1407l381 1407h34v-1434h-20v1413z" />
    <glyph glyph-name="uni1E41" unicode="&#x1e41;" horiz-adv-x="993" 
d="M485 1702h21v-160h-21v160zM891 1413l-381 -1409h-29l-379 1409v-1413h-20v1434h37l377 -1407l381 1407h34v-1434h-20v1413z" />
    <glyph glyph-name="uni1E56" unicode="&#x1e56;" horiz-adv-x="731" 
d="M317 1686h21v-160h-21v160zM82 1434h276q291 0 291 -344v-140q0 -170 -79.5 -251t-250.5 -81h-217v-618h-20v1434zM102 639h217q163 0 236.5 74.5t73.5 236.5v140q0 152 -62 237.5t-209 85.5h-256v-774z" />
    <glyph glyph-name="uni1E57" unicode="&#x1e57;" horiz-adv-x="731" 
d="M334 1686h20v-160h-20v160zM82 1434h276q291 0 291 -344v-140q0 -170 -79.5 -251t-250.5 -81h-217v-618h-20v1434zM102 639h217q163 0 236.5 74.5t73.5 236.5v140q0 152 -62 237.5t-209 85.5h-256v-774z" />
    <glyph glyph-name="uni1E60" unicode="&#x1e60;" 
d="M367 1688h20v-160h-20v160zM379 1444q78 0 135.5 -28t91 -78.5t49 -113t15.5 -137.5v-24h-21v24q0 71 -14 129t-44.5 106t-84 74.5t-127.5 26.5t-127.5 -26t-84 -73.5t-44.5 -105t-14 -128.5q0 -60 19.5 -111.5t52 -90t74.5 -72.5t88.5 -64t93.5 -60t89 -65t74.5 -74
t52 -92t19.5 -115q0 -159 -71 -257.5t-224 -98.5t-224 98.5t-71 257.5v68h20v-68q0 -151 65.5 -243.5t209.5 -92.5t209 92.5t65 243.5q0 75 -31 136.5t-80.5 105t-109.5 82.5t-120.5 79.5t-110 85.5t-80.5 110t-31 145q0 164 71 258.5t220 95.5z" />
    <glyph glyph-name="uni1E61" unicode="&#x1e61;" 
d="M385 1706h21v-160h-21v160zM379 1444q78 0 135.5 -28t91 -78.5t49 -113t15.5 -137.5v-24h-21v24q0 71 -14 129t-44.5 106t-84 74.5t-127.5 26.5t-127.5 -26t-84 -73.5t-44.5 -105t-14 -128.5q0 -60 19.5 -111.5t52 -90t74.5 -72.5t88.5 -64t93.5 -60t89 -65t74.5 -74
t52 -92t19.5 -115q0 -159 -71 -257.5t-224 -98.5t-224 98.5t-71 257.5v68h20v-68q0 -151 65.5 -243.5t209.5 -92.5t209 92.5t65 243.5q0 75 -31 136.5t-80.5 105t-109.5 82.5t-120.5 79.5t-110 85.5t-80.5 110t-31 145q0 164 71 258.5t220 95.5z" />
    <glyph glyph-name="uni1E6A" unicode="&#x1e6a;" horiz-adv-x="831" 
d="M406 1690h20v-160h-20v160zM426 0h-20v1413h-324v21h668v-21h-324v-1413z" />
    <glyph glyph-name="uni1E6B" unicode="&#x1e6b;" horiz-adv-x="831" 
d="M397 1686h21v-160h-21v160zM418 0h-21v1413h-323v21h667v-21h-323v-1413z" />
    <glyph glyph-name="Wgrave" unicode="&#x1e80;" horiz-adv-x="1282" 
d="M549 1716h29l149 -176h-27zM653 1405l-268 -1405h-31l-272 1434h20l269 -1405l266 1396h33l250 -1386l260 1395h20l-268 -1434h-27z" />
    <glyph glyph-name="wgrave" unicode="&#x1e81;" horiz-adv-x="1282" 
d="M549 1716h29l149 -176h-27zM653 1405l-268 -1405h-31l-272 1434h20l269 -1405l266 1396h33l250 -1386l260 1395h20l-268 -1434h-27z" />
    <glyph glyph-name="Wacute" unicode="&#x1e82;" horiz-adv-x="1282" 
d="M735 1698h29l-152 -176h-26zM653 1405l-268 -1405h-31l-272 1434h20l269 -1405l266 1396h33l250 -1386l260 1395h20l-268 -1434h-27z" />
    <glyph glyph-name="wacute" unicode="&#x1e83;" horiz-adv-x="1282" 
d="M735 1698h29l-152 -176h-26zM653 1405l-268 -1405h-31l-272 1434h20l269 -1405l266 1396h33l250 -1386l260 1395h20l-268 -1434h-27z" />
    <glyph glyph-name="Wdieresis" unicode="&#x1e84;" horiz-adv-x="1282" 
d="M575 1696h21v-160h-21v160zM711 1696h20v-160h-20v160zM653 1405l-268 -1405h-31l-272 1434h20l269 -1405l266 1396h33l250 -1386l260 1395h20l-268 -1434h-27z" />
    <glyph glyph-name="wdieresis" unicode="&#x1e85;" horiz-adv-x="1282" 
d="M575 1696h21v-160h-21v160zM711 1696h20v-160h-20v160zM653 1405l-268 -1405h-31l-272 1434h20l269 -1405l266 1396h33l250 -1386l260 1395h20l-268 -1434h-27z" />
    <glyph glyph-name="Ygrave" unicode="&#x1ef2;" horiz-adv-x="872" 
d="M311 1716h29l149 -176h-26zM424 0v594l-342 840h20l332 -811l334 811h23l-347 -840v-594h-20z" />
    <glyph glyph-name="ygrave" unicode="&#x1ef3;" horiz-adv-x="872" 
d="M311 1716h29l149 -176h-26zM424 0v594l-342 840h20l332 -811l334 811h23l-347 -840v-594h-20z" />
    <glyph glyph-name="figuredash" unicode="&#x2012;" horiz-adv-x="993" 
d="M82 709v18h829v-18h-829z" />
    <glyph glyph-name="endash" unicode="&#x2013;" horiz-adv-x="759" 
d="M82 709v18h596v-18h-596z" />
    <glyph glyph-name="emdash" unicode="&#x2014;" horiz-adv-x="993" 
d="M82 709v18h829v-18h-829z" />
    <glyph glyph-name="quoteleft" unicode="&#x2018;" horiz-adv-x="215" 
d="M82 1307l37 127h14l-33 -127h2v-160h-20v160z" />
    <glyph glyph-name="quoteright" unicode="&#x2019;" horiz-adv-x="215" 
d="M133 1274l-37 -127h-14l33 127h-2v160h20v-160z" />
    <glyph glyph-name="quotesinglbase" unicode="&#x201a;" horiz-adv-x="215" 
d="M133 0l-37 -127h-14l33 127h-2v160h20v-160z" />
    <glyph glyph-name="quotedblleft" unicode="&#x201c;" horiz-adv-x="296" 
d="M82 1307l37 127h14l-33 -127h2v-160h-20v160zM164 1307l37 127h14l-33 -127h2v-160h-20v160z" />
    <glyph glyph-name="quotedblright" unicode="&#x201d;" horiz-adv-x="296" 
d="M133 1274l-37 -127h-14l33 127h-2v160h20v-160zM215 1274l-37 -127h-14l33 127h-2v160h20v-160z" />
    <glyph glyph-name="quotedblbase" unicode="&#x201e;" horiz-adv-x="313" 
d="M133 0l-37 -127h-14l33 127h-2v160h20v-160zM231 0l-36 -127h-15l33 127h-2v160h20v-160z" />
    <glyph glyph-name="dagger" unicode="&#x2020;" horiz-adv-x="800" 
d="M412 1434v-435h307v-22h-307v-1110h-23v1110h-307v22h307v435h23z" />
    <glyph glyph-name="daggerdbl" unicode="&#x2021;" horiz-adv-x="800" 
d="M412 1434v-435h307v-22h-307v-649h307v-23h-307v-438h-23v438h-307v23h307v649h-307v22h307v435h23z" />
    <glyph glyph-name="bullet" unicode="&#x2022;" horiz-adv-x="385" 
d="M193 786q29 0 49 -20t20 -49t-20 -49.5t-49 -20.5t-49.5 20.5t-20.5 49.5t20.5 49t49.5 20z" />
    <glyph glyph-name="ellipsis" unicode="&#x2026;" horiz-adv-x="356" 
d="M82 160h20v-160h-20v160zM166 160h20v-160h-20v160zM254 160h20v-160h-20v160z" />
    <glyph glyph-name="perthousand" unicode="&#x2030;" horiz-adv-x="1710" 
d="M262 1436q95 0 137.5 -67.5t42.5 -168.5v-416q0 -101 -42.5 -167t-137.5 -66t-137.5 66t-42.5 167v416q0 101 42.5 168.5t137.5 67.5zM877 1436h22l-565 -1436h-23zM262 1415q-60 0 -97.5 -33t-50 -78t-12.5 -104v-416q0 -59 12.5 -103.5t50 -77t97.5 -32.5
q86 0 123 60.5t37 152.5v416q0 43 -7.5 79t-25 68t-50 50t-77.5 18zM952 877q96 0 138.5 -66t42.5 -168v-407q0 -102 -42.5 -169t-138.5 -67q-95 0 -137.5 67.5t-42.5 168.5v407q0 101 42.5 167.5t137.5 66.5zM1448 877q96 0 138 -66t42 -168v-407q0 -65 -15 -115t-57 -85.5
t-108 -35.5q-95 0 -137.5 67.5t-42.5 168.5v407q0 101 42.5 167.5t137.5 66.5zM952 856q-86 0 -122.5 -60.5t-36.5 -152.5v-407q0 -43 7.5 -79t24.5 -68t49.5 -50.5t77.5 -18.5q46 0 78.5 18.5t49.5 50.5t24.5 68t7.5 79v407q0 59 -12.5 103.5t-50 77t-97.5 32.5zM1448 856
q-86 0 -123 -60.5t-37 -152.5v-407q0 -43 8 -79t25 -68t49.5 -50.5t77.5 -18.5q46 0 78.5 18.5t49.5 50.5t24.5 68t7.5 79v407q0 59 -12.5 103.5t-50 77t-97.5 32.5z" />
    <glyph glyph-name="guilsinglleft" unicode="&#x2039;" horiz-adv-x="321" 
d="M219 231l-137 486l137 487h21l-138 -487l138 -486h-21z" />
    <glyph glyph-name="guilsinglright" unicode="&#x203a;" horiz-adv-x="321" 
d="M82 233l137 486l-137 487h20l138 -487l-138 -486h-20z" />
    <glyph glyph-name="fraction" unicode="&#x2044;" horiz-adv-x="749" 
d="M647 1434h21l-566 -1434h-20z" />
    <glyph glyph-name="zerosuperior" unicode="&#x2070;" horiz-adv-x="552" 
d="M82 942v463q0 104 47 168.5t147 64.5t147.5 -65t47.5 -168v-463q0 -103 -47.5 -168t-147.5 -65t-147 64.5t-47 168.5zM102 1405v-463q0 -95 41.5 -154t132.5 -59t133 59t42 154v463q0 95 -42 154t-133 59t-132.5 -59t-41.5 -154z" />
    <glyph glyph-name="foursuperior" unicode="&#x2074;" horiz-adv-x="593" 
d="M512 934h-78v-215h-20v215h-332v20l326 674h26v-674h78v-20zM414 1593l-310 -639h310v639z" />
    <glyph glyph-name="fivesuperior" unicode="&#x2075;" horiz-adv-x="544" 
d="M102 973v-35q0 -94 40.5 -153.5t129.5 -59.5q90 0 130 59t40 154v129q0 95 -40 154t-130 59q-52 0 -97.5 -30.5t-57.5 -78.5v-8h-21l23 465h323v-20h-305l-18 -389q52 81 153 81q98 0 144.5 -65t46.5 -168v-129q0 -103 -46.5 -168t-144.5 -65t-144 65t-46 168v35h20z" />
    <glyph glyph-name="sixsuperior" unicode="&#x2076;" horiz-adv-x="552" 
d="M276 1638q100 0 145.5 -62.5t45.5 -166.5v-4h-21v4q0 209 -170 209q-91 0 -132.5 -59t-41.5 -154v-262q46 114 174 114q100 0 147.5 -65.5t47.5 -169.5v-80q0 -103 -47.5 -168t-147.5 -65t-147 64.5t-47 168.5v463q0 104 47 168.5t147 64.5zM276 1237q-91 0 -132.5 -59.5
t-41.5 -155.5v-80q0 -95 41.5 -154t132.5 -59t133 59t42 154v80q0 96 -42 155.5t-133 59.5z" />
    <glyph glyph-name="sevensuperior" unicode="&#x2077;" horiz-adv-x="542" 
d="M158 719l280 889h-356v20h379v-18l-281 -891h-22z" />
    <glyph glyph-name="eightsuperior" unicode="&#x2078;" horiz-adv-x="565" 
d="M283 1638q98 0 149 -60t51 -159v-30q0 -157 -123 -197q123 -36 123 -197v-61q0 -102 -50 -163.5t-150 -61.5t-150.5 61.5t-50.5 163.5v61q0 161 123 197q-123 40 -123 197v30q0 99 51.5 159t149.5 60zM283 1618q-89 0 -135 -54t-46 -145v-30q0 -187 181 -187q90 0 135 48
t45 139v30q0 91 -45.5 145t-134.5 54zM283 1182q-181 0 -181 -187v-61q0 -94 45 -149.5t136 -55.5t135.5 55.5t44.5 149.5v61q0 187 -180 187z" />
    <glyph glyph-name="ninesuperior" unicode="&#x2079;" horiz-adv-x="552" 
d="M276 1638q100 0 147.5 -65t47.5 -168v-463q0 -103 -47.5 -168t-147.5 -65q-99 0 -146.5 63.5t-47.5 165.5v6h20v-6q0 -94 41.5 -151.5t132.5 -57.5t133 59t42 154v260q-46 -112 -175 -112q-100 0 -147 64.5t-47 168.5v82q0 104 47 168.5t147 64.5zM276 1618
q-91 0 -132.5 -59t-41.5 -154v-82q0 -95 41.5 -154t132.5 -59t133 59t42 154v82q0 95 -42 154t-133 59z" />
    <glyph glyph-name="zeroinferior" unicode="&#x2080;" horiz-adv-x="552" 
d="M82 90v463q0 104 47 168.5t147 64.5t147.5 -65t47.5 -168v-463q0 -103 -47.5 -168t-147.5 -65t-147 64.5t-47 168.5zM102 553v-463q0 -95 41.5 -154t132.5 -59t133 59t42 154v463q0 95 -42 154t-133 59t-132.5 -59t-41.5 -154z" />
    <glyph glyph-name="oneinferior" unicode="&#x2081;" horiz-adv-x="337" 
d="M236 -133v868q-50 -96 -152 -108l-2 20q108 12 147 129h27v-909h-20z" />
    <glyph glyph-name="twoinferior" unicode="&#x2082;" horiz-adv-x="544" 
d="M272 786q101 0 146 -65.5t45 -171.5q0 -51 -19.5 -97.5t-50.5 -85t-69 -77t-76 -80t-70 -86.5t-53 -105t-23 -127v-4h353v-20h-373v10q0 71 20 134t51.5 110.5t70 90.5t77 82t70 77t51.5 83.5t20 94.5q0 217 -170 217q-91 0 -130.5 -62t-39.5 -159v-43h-20v43
q0 106 45 173.5t145 67.5z" />
    <glyph glyph-name="threeinferior" unicode="&#x2083;" horiz-adv-x="544" 
d="M272 786q98 0 144.5 -65t46.5 -168v-23q0 -64 -32.5 -116.5t-90.5 -73.5q58 -17 90.5 -66t32.5 -114v-70q0 -103 -46.5 -168t-144.5 -65q-99 0 -144.5 65t-45.5 168v39h20v-39q0 -96 40 -154.5t130 -58.5t130 58.5t40 154.5v70q0 72 -42 121t-113 49h-68v20h68
q68 0 112.5 55.5t42.5 124.5v23q0 95 -40 154t-130 59t-130 -59t-40 -154v-25h-20v25q0 103 45.5 168t144.5 65z" />
    <glyph glyph-name="fourinferior" unicode="&#x2084;" horiz-adv-x="593" 
d="M512 72h-78v-215h-20v215h-332v20l326 674h26v-674h78v-20zM414 731l-310 -639h310v639z" />
    <glyph glyph-name="fiveinferior" unicode="&#x2085;" horiz-adv-x="544" 
d="M102 131v-35q0 -94 40.5 -153.5t129.5 -59.5q90 0 130 59t40 154v129q0 95 -40 154t-130 59q-52 0 -97.5 -30t-57.5 -78v-8h-21l23 464h323v-20h-305l-18 -389q52 82 153 82q98 0 144.5 -65.5t46.5 -168.5v-129q0 -103 -46.5 -168t-144.5 -65t-144 65t-46 168v35h20z" />
    <glyph glyph-name="sixinferior" unicode="&#x2086;" horiz-adv-x="552" 
d="M276 786q100 0 145.5 -62.5t45.5 -166.5v-4h-21v4q0 209 -170 209q-91 0 -132.5 -59t-41.5 -154v-262q47 115 174 115q100 0 147.5 -66t47.5 -170v-80q0 -103 -47.5 -168t-147.5 -65t-147 64.5t-47 168.5v463q0 104 47 168.5t147 64.5zM276 385q-91 0 -132.5 -59.5
t-41.5 -155.5v-80q0 -95 41.5 -154t132.5 -59t133 59t42 154v80q0 96 -42 155.5t-133 59.5z" />
    <glyph glyph-name="seveninferior" unicode="&#x2087;" horiz-adv-x="542" 
d="M158 -123l280 889h-356v20h379v-18l-281 -891h-22z" />
    <glyph glyph-name="eightinferior" unicode="&#x2088;" horiz-adv-x="565" 
d="M283 786q98 0 149 -60t51 -159v-30q0 -157 -123 -197q123 -36 123 -197v-61q0 -102 -50 -163.5t-150 -61.5t-150.5 61.5t-50.5 163.5v61q0 161 123 197q-123 40 -123 197v30q0 99 51.5 159t149.5 60zM283 766q-89 0 -135 -54t-46 -145v-30q0 -187 181 -187q90 0 135 48
t45 139v30q0 91 -45.5 145t-134.5 54zM283 330q-181 0 -181 -187v-61q0 -94 45 -149.5t136 -55.5t135.5 55.5t44.5 149.5v61q0 187 -180 187z" />
    <glyph glyph-name="nineinferior" unicode="&#x2089;" horiz-adv-x="552" 
d="M276 786q100 0 147.5 -65t47.5 -168v-463q0 -103 -47.5 -168t-147.5 -65q-99 0 -146.5 63.5t-47.5 165.5v6h20v-6q0 -94 41.5 -151.5t132.5 -57.5t133 59t42 154v260q-46 -112 -175 -112q-100 0 -147 64.5t-47 168.5v82q0 104 47 168.5t147 64.5zM276 766
q-91 0 -132.5 -59t-41.5 -154v-82q0 -95 41.5 -154t132.5 -59t133 59t42 154v82q0 95 -42 154t-133 59z" />
    <glyph glyph-name="Euro" unicode="&#x20ac;" horiz-adv-x="815" 
d="M158 842v239q0 75 15 137.5t47.5 114.5t90 81.5t135.5 29.5q77 0 134 -29.5t89.5 -81.5t48 -114.5t15.5 -137.5v-63h-20v63q0 71 -13.5 129.5t-43.5 107.5t-83.5 77t-126.5 28t-127 -28t-83.5 -77t-43.5 -108t-14 -129v-239h438v-21h-438v-200h438v-21h-438v-248
q0 -71 13.5 -129.5t43 -107.5t83.5 -77t128 -28q73 0 126.5 28t83.5 77t43.5 107.5t13.5 129.5v76h20v-76q0 -74 -15.5 -136.5t-48 -114.5t-89.5 -81.5t-134 -29.5q-78 0 -135.5 29.5t-89.5 81.5t-47.5 114.5t-15.5 136.5v248h-97v21h97v200h-97v21h97z" />
    <glyph glyph-name="uni20B9" unicode="&#x20b9;" horiz-adv-x="759" 
d="M678 1413h-350q110 -39 163.5 -139t53.5 -227h133v-21h-133q-5 -147 -89 -235.5t-257 -88.5h-88l532 -702h-27l-534 707v16h117q163 0 241.5 83t83.5 220h-434v21h434q0 163 -83.5 264.5t-241.5 101.5h-109v21h588v-21z" />
    <glyph glyph-name="uni2117" unicode="&#x2117;" horiz-adv-x="1544" 
d="M772 1427q199 0 357.5 -93.5t245.5 -255t87 -359.5t-87 -359.5t-245.5 -255.5t-357.5 -94t-357.5 94t-245.5 255.5t-87 359.5t87 359.5t245.5 255t357.5 93.5zM772 1407q-145 0 -270 -53.5t-212.5 -145.5t-137.5 -218.5t-50 -270.5t50 -271t137.5 -219.5t212.5 -146
t270 -53.5t270 53.5t212.5 146t137.5 219.5t50 271t-50 270.5t-137.5 218.5t-212.5 145.5t-270 53.5zM618 1139h195q203 0 203 -240v-49q0 -119 -55.5 -176.5t-174.5 -57.5h-147v-354h-21v877zM639 637h147q110 0 159.5 51t49.5 162v49q0 104 -41 161.5t-141 57.5h-174v-481
z" />
    <glyph glyph-name="trademark" unicode="&#x2122;" horiz-adv-x="1179" 
d="M258 705h-20v708h-203v21h424v-21h-201v-708zM1077 1397l-235 -678h-25l-233 678v-692h-21v729h29l237 -686l240 686h29v-729h-21v692z" />
    <glyph glyph-name="uni2153" unicode="&#x2153;" horiz-adv-x="1089" 
d="M236 524v869q-51 -97 -152 -109l-2 21q108 12 147 129h27v-910h-20zM741 1434h21l-565 -1434h-21zM817 920q98 0 144.5 -65.5t46.5 -168.5v-22q0 -64 -32.5 -116t-90.5 -73q61 -20 92 -68t31 -114v-70q0 -103 -46.5 -168t-144.5 -65q-99 0 -144.5 65t-45.5 168v39h20v-39
q0 -96 40 -154.5t130 -58.5t130 58.5t40 154.5v70q0 72 -42.5 121t-113.5 49h-67v20h67q68 0 113 56t43 125v22q0 95 -40 154t-130 59t-130 -59t-40 -154v-24h-20v24q0 103 45.5 168.5t144.5 65.5z" />
    <glyph glyph-name="uni2154" unicode="&#x2154;" horiz-adv-x="1228" 
d="M272 1444q101 0 146 -66t45 -172q0 -51 -19.5 -97.5t-50.5 -85t-69 -77t-76 -80t-70 -86.5t-53 -104.5t-23 -126.5v-4h353v-21h-373v11q0 71 20 134t51.5 110t70 90t77 82t70 77t51.5 83.5t20 94.5q0 217 -170 217q-91 0 -130.5 -62t-39.5 -159v-43h-20v43q0 106 45 174
t145 68zM901 1434l-565 -1434h-21l566 1434h20zM956 920q98 0 144.5 -65.5t46.5 -168.5v-22q0 -64 -32.5 -116t-90.5 -73q61 -20 92 -68t31 -114v-70q0 -103 -46.5 -168t-144.5 -65q-99 0 -144.5 65t-45.5 168v39h20v-39q0 -96 40 -154.5t130 -58.5t130 58.5t40 154.5v70
q0 72 -42 121t-113 49h-68v20h68q68 0 112.5 56t42.5 125v22q0 95 -40 154t-130 59t-130 -59t-40 -154v-24h-20v24q0 103 45.5 168.5t144.5 65.5z" />
    <glyph glyph-name="oneeighth" unicode="&#x215b;" horiz-adv-x="1120" 
d="M236 524v869q-51 -97 -152 -109l-2 21q108 12 147 129h27v-910h-20zM197 0h-21l565 1434h21zM838 920q98 0 149 -60.5t51 -159.5v-30q0 -157 -123 -197q123 -36 123 -197v-61q0 -102 -50 -163.5t-150 -61.5t-150.5 61.5t-50.5 163.5v61q0 161 123 197q-123 40 -123 197
v30q0 99 51.5 159.5t149.5 60.5zM838 899q-89 0 -135 -54t-46 -145v-30q0 -187 181 -187q90 0 135 48t45 139v30q0 91 -45.5 145t-134.5 54zM838 463q-181 0 -181 -187v-61q0 -94 45 -149.5t136 -55.5t135.5 55.5t44.5 149.5v61q0 187 -180 187z" />
    <glyph glyph-name="threeeighths" unicode="&#x215c;" horiz-adv-x="1280" 
d="M272 1444q98 0 144.5 -65.5t46.5 -168.5v-22q0 -64 -32.5 -116t-90.5 -73q61 -20 92 -68t31 -114v-69q0 -103 -46.5 -168.5t-144.5 -65.5q-99 0 -144.5 65.5t-45.5 168.5v38h20v-38q0 -96 40 -154.5t130 -58.5t130 58.5t40 154.5v69q0 72 -42 121t-113 49h-68v21h68
q68 0 112.5 55.5t42.5 124.5v22q0 95 -40 154t-130 59t-130 -59t-40 -154v-24h-20v24q0 103 45.5 168.5t144.5 65.5zM901 1434h21l-566 -1434h-20zM997 920q98 0 149.5 -60.5t51.5 -159.5v-30q0 -157 -123 -197q123 -36 123 -197v-61q0 -102 -50.5 -163.5t-150.5 -61.5
t-150 61.5t-50 163.5v61q0 161 123 197q-123 40 -123 197v30q0 99 51 159.5t149 60.5zM997 899q-89 0 -134.5 -54t-45.5 -145v-30q0 -187 180 -187q90 0 135.5 48.5t45.5 138.5v30q0 91 -46 145t-135 54zM997 463q-180 0 -180 -187v-61q0 -94 44.5 -149.5t135.5 -55.5
t136 55.5t45 149.5v61q0 187 -181 187z" />
    <glyph glyph-name="fiveeighths" unicode="&#x215d;" horiz-adv-x="1275" 
d="M137 1413l-18 -389q52 82 153 82q98 0 144.5 -65.5t46.5 -168.5v-129q0 -103 -46.5 -168t-144.5 -65t-144 65t-46 168v35h20v-35q0 -94 40.5 -153.5t129.5 -59.5q90 0 130 59t40 154v129q0 95 -40 154t-130 59q-52 0 -97.5 -30t-57.5 -78v-8h-21l23 465h323v-21h-305z
M332 0l565 1434h21l-566 -1434h-20zM993 920q98 0 149.5 -60.5t51.5 -159.5v-30q0 -157 -123 -197q123 -36 123 -197v-61q0 -102 -50.5 -163.5t-150.5 -61.5t-150 61.5t-50 163.5v61q0 161 122 197q-122 39 -122 197v30q0 99 51 159.5t149 60.5zM993 899q-89 0 -134.5 -54
t-45.5 -145v-30q0 -187 180 -187q90 0 135.5 48.5t45.5 138.5v30q0 91 -46 145t-135 54zM993 463q-180 0 -180 -187v-61q0 -94 44.5 -149.5t135.5 -55.5t136 55.5t45 149.5v61q0 187 -181 187z" />
    <glyph glyph-name="seveneighths" unicode="&#x215e;" horiz-adv-x="1073" 
d="M158 524l280 889h-356v21h379v-19l-281 -891h-22zM715 1434l-565 -1434h-21l565 1434h21zM791 920q98 0 149 -60.5t51 -159.5v-30q0 -157 -123 -197q123 -36 123 -197v-61q0 -102 -50 -163.5t-150 -61.5t-150.5 61.5t-50.5 163.5v61q0 161 123 197q-123 40 -123 197v30
q0 99 51.5 159.5t149.5 60.5zM791 899q-89 0 -135 -54t-46 -145v-30q0 -187 181 -187q90 0 135 48t45 139v30q0 91 -45.5 145t-134.5 54zM791 463q-181 0 -181 -187v-61q0 -94 45 -149.5t136 -55.5t135.5 55.5t44.5 149.5v61q0 187 -180 187z" />
    <glyph glyph-name="minus" unicode="&#x2212;" horiz-adv-x="786" 
d="M82 727h623v-20h-623v20z" />
    <glyph glyph-name="infinity" unicode="&#x221e;" horiz-adv-x="1120" 
d="M772 983h31q106 0 170.5 -55.5t64.5 -159.5q0 -105 -64 -160t-171 -55h-31q-175 0 -211 135q-39 -135 -213 -135h-31q-107 0 -171 55t-64 160q0 104 64.5 159.5t170.5 55.5h31q173 0 213 -135q37 135 211 135zM348 963h-31q-99 0 -157 -49t-58 -146t58 -146t157 -49h31
q203 0 203 195t-203 195zM803 963h-31q-203 0 -203 -195t203 -195h31q99 0 157 49t58 146t-58 146t-157 49z" />
    <glyph glyph-name="approxequal" unicode="&#x2248;" horiz-adv-x="813" 
d="M250 950q43 1 91.5 -19t84.5 -45t80.5 -45t81.5 -18q71 5 127 107l16 -8q-58 -114 -141 -119q-40 -2 -86.5 18t-82.5 45t-82.5 45t-86.5 19q-89 -3 -152 -107l-18 11q70 113 168 116zM250 627q43 1 91.5 -19.5t84.5 -45.5t80.5 -44.5t81.5 -17.5q70 2 127 106l16 -8
q-58 -114 -141 -119q-40 -2 -86.5 17.5t-82.5 44.5t-82.5 45.5t-86.5 19.5q-90 -3 -152 -106l-18 10q73 115 168 117z" />
    <glyph glyph-name="commaaccentcomb" unicode="&#xf6c3;" horiz-adv-x="0" 
d="M133 -229l-37 -127h-14l33 127h-2v159h20v-159z" />
    <glyph glyph-name="NULL" horiz-adv-x="0" 
 />
    <glyph glyph-name="CR" horiz-adv-x="317" 
 />
    <glyph glyph-name="zero.alt" horiz-adv-x="763" 
d="M82 354v727q0 77 16.5 141t51.5 114.5t94 79t139 28.5q79 0 138 -28.5t93.5 -79t51 -114.5t16.5 -141v-727q0 -77 -16.5 -141t-51 -115t-93.5 -79.5t-138 -28.5q-80 0 -139 28.5t-94 79.5t-51.5 115t-16.5 141zM102 1081v-727q0 -58 9 -107.5t30.5 -93.5t53 -75.5
t80 -49.5t108.5 -18q75 0 130.5 27t87 75.5t46.5 108.5t15 133v727q0 73 -15 133t-46.5 108.5t-87 75.5t-130.5 27q-60 0 -108.5 -18t-80 -49.5t-53 -75.5t-30.5 -93.5t-9 -107.5z" />
    <glyph glyph-name="one.alt" horiz-adv-x="432" 
d="M82 1204v21q88 10 148.5 66t91.5 145h28v-1436h-20v1399q-35 -82 -98.5 -133.5t-149.5 -61.5z" />
    <glyph glyph-name="two.alt" horiz-adv-x="751" 
d="M375 1444q66 0 117.5 -19.5t84.5 -53t54.5 -81t30 -100.5t8.5 -115q0 -79 -31 -152.5t-80 -134.5t-109 -122.5t-120.5 -128.5t-110.5 -139t-82.5 -168t-34.5 -203v-7h562v-20h-582v10q0 112 31.5 212t81.5 175t110 143.5t120.5 130.5t110.5 122.5t81.5 132.5t31.5 149
q0 350 -274 350q-75 0 -130 -29t-85 -80.5t-44 -112t-14 -132.5v-67h-20v67q0 77 15 141t48 118t91.5 84t138.5 30z" />
    <glyph glyph-name="three.alt" 
d="M377 1444q79 0 138 -28.5t92.5 -79.5t49 -114.5t15.5 -140.5v-34q0 -103 -57 -185.5t-154 -111.5q102 -26 156.5 -103t54.5 -184v-109q0 -61 -9.5 -113.5t-31.5 -99.5t-55.5 -80t-84 -52t-114.5 -19t-114.5 19t-84 52t-55.5 80t-31.5 99.5t-9.5 113.5v60h20v-60
q0 -72 14.5 -131.5t45 -108.5t85.5 -76.5t130 -27.5t129.5 27.5t85.5 76.5t45 108t14 132v109q0 120 -65.5 194.5t-184.5 81.5h-108v19h108q113 9 181.5 91.5t68.5 197.5v34q0 73 -14 132t-45 108t-85.5 76.5t-129.5 27.5t-130 -27.5t-85.5 -76.5t-45 -108.5t-14.5 -131.5
v-37h-20v37q0 77 15.5 140.5t49 114.5t92.5 79.5t138 28.5z" />
    <glyph glyph-name="four.alt" horiz-adv-x="833" 
d="M752 348h-129v-348h-21v348h-520v23l512 1065h29v-1067h129v-21zM602 1405l-500 -1036h500v1036z" />
    <glyph glyph-name="five.alt" 
d="M158 1415l-31 -643q75 148 250 148q79 0 137.5 -29t92 -80.5t49.5 -115t16 -138.5v-203q0 -76 -16 -139.5t-49.5 -115t-92 -80.5t-137.5 -29t-137.5 29t-92 80.5t-49.5 115t-16 139.5v54h20v-54q0 -71 14.5 -131t45.5 -109t86 -76.5t129 -27.5q60 0 107 18.5t78 50
t51.5 76t29 93.5t8.5 106v203q0 72 -14.5 131t-45.5 107.5t-85.5 76t-128.5 27.5q-91 0 -156 -46.5t-98 -131.5v-12h-21l37 727h506v-21h-487z" />
    <glyph glyph-name="six.alt" horiz-adv-x="765" 
d="M383 1444q79 0 137.5 -27t92 -76.5t49.5 -111.5t16 -139v-7h-21v7q0 72 -14 130.5t-45 105.5t-85.5 73t-129.5 26q-60 0 -108.5 -18t-80 -49.5t-53 -75.5t-30.5 -93.5t-9 -107.5v-444q31 100 102.5 153.5t178.5 53.5q80 0 139 -28.5t94 -79.5t51.5 -114.5t16.5 -140.5
v-127q0 -77 -16.5 -141t-51.5 -115t-94 -79.5t-139 -28.5t-139 28.5t-94 79.5t-51.5 115t-16.5 141v727q0 77 16.5 141t51.5 114.5t94 79t139 28.5zM383 823q-75 0 -131 -27t-88 -75.5t-47 -108t-15 -131.5v-127q0 -58 9 -107.5t30.5 -93.5t53 -75.5t80 -49.5t108.5 -18
t108.5 18t80 49.5t53 75.5t30.5 93.5t9 107.5v127q0 72 -15 131.5t-47 108t-88 75.5t-131 27z" />
    <glyph glyph-name="seven.alt" 
d="M207 0l442 1415h-567v21h590v-23l-443 -1413h-22z" />
    <glyph glyph-name="eight.alt" horiz-adv-x="784" 
d="M391 1444q153 0 232 -92t79 -248v-47q0 -122 -52.5 -204t-164.5 -103q217 -44 217 -314v-94q0 -160 -77.5 -256t-233.5 -96q-155 0 -232 96t-77 256v94q0 129 51 209t170 105q-221 42 -221 307v47q0 156 78.5 248t230.5 92zM391 1425q-143 0 -216 -87t-73 -234v-47
q0 -145 72.5 -222t216.5 -77q146 0 218.5 77t72.5 222v47q0 147 -73.5 234t-217.5 87zM391 737q-289 0 -289 -301v-94q0 -151 71.5 -241.5t217.5 -90.5q147 0 219 90.5t72 241.5v94q0 150 -71 225.5t-220 75.5z" />
    <glyph glyph-name="nine.alt" horiz-adv-x="765" 
d="M383 1446q80 0 139 -28.5t94 -79.5t51.5 -115.5t16.5 -141.5v-727q0 -77 -16.5 -141t-51.5 -115t-94 -79.5t-139 -28.5q-154 0 -227.5 98.5t-73.5 259.5v8h20v-8q0 -151 68 -244.5t213 -93.5q60 0 108.5 18t80 49.5t53 75.5t30.5 93.5t9 107.5v445
q-31 -100 -102.5 -153.5t-178.5 -53.5q-80 0 -139 28.5t-94 79t-51.5 114t-16.5 140.5v127q0 77 16.5 141.5t51.5 115.5t94 79.5t139 28.5zM383 1425q-60 0 -108.5 -18t-80 -49.5t-53 -75.5t-30.5 -93.5t-9 -107.5v-127q0 -72 15 -131.5t47 -108t88 -75.5t131 -27t131 27
t88 75.5t47 108t15 131.5v127q0 58 -9 107.5t-30.5 93.5t-53 75.5t-80 49.5t-108.5 18z" />
    <glyph glyph-name="Edotaaccent" horiz-adv-x="0" 
 />
    <glyph glyph-name="edotaaccent" horiz-adv-x="0" 
 />
    <glyph glyph-name="lcute" horiz-adv-x="0" 
 />
    </font>
</defs>
</svg>
