<?xml version="1.0" standalone="no"?>
<!DOCTYPE svg PUBLIC "-//W3C//DTD SVG 1.1//EN" "http://www.w3.org/Graphics/SVG/1.1/DTD/svg11.dtd" >
<svg xmlns="http://www.w3.org/2000/svg" xmlns:xlink="http://www.w3.org/1999/xlink" version="1.1">
<metadata>
Created by FontForge 20170731 at Sat Apr 29 09:59:16 2023
 By Aleksey,,,
Copyright (c) 2010 by Ryoichi Tsunekawa. All rights reserved.
</metadata>
<defs>
<font id="BebasNeueBold" horiz-adv-x="811" >
  <font-face 
    font-family="Bebas Neue Bold"
    font-weight="700"
    font-stretch="normal"
    units-per-em="2048"
    panose-1="2 11 6 6 2 2 2 5 2 1"
    ascent="1536"
    descent="-512"
    x-height="1434"
    cap-height="1434"
    bbox="-281 -367 2048 1831"
    underline-thickness="102"
    underline-position="-327"
    unicode-range="U+0020-2248"
  />
<missing-glyph horiz-adv-x="1122" 
d="M102 0v1434h918v-1434h-918zM852 1260h-158l-131 -400l-129 400h-176l178 -529l-190 -557h157l142 430l139 -430h180l-190 557z" />
    <glyph glyph-name=".notdef" horiz-adv-x="1122" 
d="M102 0v1434h918v-1434h-918zM852 1260h-158l-131 -400l-129 400h-176l178 -529l-190 -557h157l142 430l139 -430h180l-190 557z" />
    <glyph glyph-name=".null" horiz-adv-x="0" 
 />
    <glyph glyph-name="nonmarkingreturn" horiz-adv-x="682" 
 />
    <glyph glyph-name="space" unicode=" " horiz-adv-x="317" 
 />
    <glyph glyph-name="exclam" unicode="!" horiz-adv-x="389" 
d="M279 317h-168l-29 519v598h225v-598zM86 217h217v-217h-217v217z" />
    <glyph glyph-name="quotedbl" unicode="&#x22;" horiz-adv-x="665" 
d="M113 1012l-31 422h217l-33 -422h-153zM397 1012l-30 422h217l-33 -422h-154z" />
    <glyph glyph-name="numbersign" unicode="#" horiz-adv-x="839" 
d="M406 0l43 410h-134l-43 -410h-184l43 410h-100l16 159h100l39 375h-102l16 160h103l35 330h184l-35 -330h133l35 330h184l-34 -330h104l-16 -160h-105l-39 -375h105l-17 -159h-104l-43 -410h-184zM371 944l-39 -375h133l39 375h-133z" />
    <glyph glyph-name="dollar" unicode="$" 
d="M76 1069q0 297 237 350v107h185v-107q119 -25 180 -114t61 -236v-45h-213v59q0 142 -112 142q-113 0 -113 -142q0 -60 24.5 -111t63 -89.5t85.5 -76.5t94 -80t85.5 -90.5t63 -118t24.5 -152.5q0 -147 -62 -237.5t-181 -115.5v-104h-185v104q-120 25 -181.5 115t-61.5 238
v98h213v-113q0 -139 116 -139q117 0 117 139q0 60 -24.5 111t-63 89.5t-85.5 76.5t-94 80.5t-85.5 91t-63 118t-24.5 152.5z" />
    <glyph glyph-name="percent" unicode="%" horiz-adv-x="1284" 
d="M213 1225v-492q0 -90 74 -90q73 0 73 90v492q0 90 -73 90q-74 0 -74 -90zM70 743v471q0 111 56 170.5t161 59.5t161 -59.5t56 -170.5v-471q0 -111 -56 -170t-161 -59t-161 59t-56 170zM287 0l565 1434h133l-565 -1434h-133zM924 700v-491q0 -90 73 -90q74 0 74 90v491
q0 91 -74 91q-73 0 -73 -91zM780 219v471q0 111 56 170.5t161 59.5t161 -59.5t56 -170.5v-471q0 -111 -56 -170t-161 -59t-161 59t-56 170z" />
    <glyph glyph-name="ampersand" unicode="&#x26;" horiz-adv-x="847" 
d="M84 457q0 232 156 301q-156 66 -156 295v26q0 173 84.5 264t251.5 91h258v-205h-254q-56 0 -85.5 -32.5t-29.5 -106.5v-89q0 -82 34 -116.5t101 -34.5h99v160h225v-160h59v-205h-59v-471q0 -116 25 -174h-230q-16 46 -20 113q-60 -129 -209 -129q-124 0 -187 84t-63 243
v146zM309 330q0 -142 117 -142q111 0 117 125v332h-86q-78 0 -113 -42t-35 -140v-133z" />
    <glyph glyph-name="quotesingle" unicode="'" horiz-adv-x="368" 
d="M106 1012l-30 422h217l-33 -422h-154z" />
    <glyph glyph-name="parenleft" unicode="(" horiz-adv-x="514" 
d="M412 1434h69v-185h-55q-56 0 -80 -27.5t-24 -101.5v-807q0 -74 24 -101.5t80 -27.5h55v-184h-69q-170 0 -243 71t-73 242v807q0 171 73 242.5t243 71.5z" />
    <glyph glyph-name="parenright" unicode=")" horiz-adv-x="514" 
d="M33 1434h69q170 0 243 -71.5t73 -242.5v-807q0 -171 -73 -242t-243 -71h-69v184h55q56 0 80.5 27.5t24.5 101.5v807q0 74 -24.5 101.5t-80.5 27.5h-55v185z" />
    <glyph glyph-name="asterisk" unicode="*" 
d="M61 1249l306 -153l-54 338h185l-54 -338l306 153l57 -174l-336 -57l240 -240l-148 -108l-157 303l-158 -303l-148 108l240 240l-336 57z" />
    <glyph glyph-name="plus" unicode="+" 
d="M485 1073v-276h275v-160h-275v-281h-159v281h-275v160h275v276h159z" />
    <glyph glyph-name="comma" unicode="," horiz-adv-x="380" 
d="M168 0h-86v217h217v-194l-98 -228h-92z" />
    <glyph glyph-name="hyphen" unicode="-" horiz-adv-x="552" 
d="M72 614v205h409v-205h-409z" />
    <glyph glyph-name="period" unicode="." horiz-adv-x="380" 
d="M82 217h217v-217h-217v217z" />
    <glyph glyph-name="slash" unicode="/" horiz-adv-x="780" 
d="M10 0l565 1434h195l-565 -1434h-195z" />
    <glyph glyph-name="zero" unicode="0" 
d="M289 1104v-774q0 -142 117 -142q116 0 116 142v774q0 141 -116 141q-117 0 -117 -141zM63 344v746q0 172 89 266t254 94t253.5 -94t88.5 -266v-746q0 -172 -88.5 -266t-253.5 -94t-254 94t-89 266z" />
    <glyph glyph-name="one" unicode="1" 
d="M221 1094v159q50 0 89 10.5t63 25t43.5 41t29.5 48t23 56.5h152v-1434h-226v1094h-174z" />
    <glyph glyph-name="two" unicode="2" 
d="M528 1081q0 92 -29 128t-87 36q-117 0 -117 -141v-154h-213v140q0 173 86 266.5t250 93.5t250 -93.5t86 -266.5q0 -92 -25 -176.5t-64.5 -149.5t-87 -124.5t-95.5 -111t-87.5 -98.5t-64.5 -97t-25 -97q0 -21 2 -31h426v-205h-651v176q0 85 24.5 160.5t64 132t87 110
t95 106.5t87 109t64 129.5t24.5 157.5z" />
    <glyph glyph-name="three" unicode="3" 
d="M516 1001v80q0 92 -29.5 128t-87.5 36q-116 0 -116 -141v-92h-213v78q0 173 86 266.5t250 93.5t249.5 -93.5t85.5 -266.5v-37q0 -230 -157 -295q157 -68 157 -301v-113q0 -173 -85.5 -266.5t-249.5 -93.5t-250 93.5t-86 266.5v119h213v-133q0 -142 116 -142q58 0 87.5 36
t29.5 126v113q0 98 -34.5 140t-112.5 42h-76v205h88q67 0 101 34.5t34 116.5z" />
    <glyph glyph-name="four" unicode="4" 
d="M29 260v205l409 969h246v-969h107v-205h-107v-260h-221v260h-434zM236 465h227v539z" />
    <glyph glyph-name="five" unicode="5" 
d="M72 463h213v-133q0 -140 116 -140q117 0 117 140v315q0 141 -117 141q-116 0 -116 -141v-43h-213l41 832h594v-205h-392l-18 -342q63 104 197 104q124 0 186.5 -83.5t62.5 -243.5v-320q0 -173 -85.5 -266.5t-249.5 -93.5t-250 93.5t-86 266.5v119z" />
    <glyph glyph-name="six" unicode="6" 
d="M68 344v733q0 373 344 373q164 0 250 -93.5t86 -266.5v-37h-213v51q0 141 -117 141q-64 0 -94.5 -39t-30.5 -137v-262q60 127 209 127q124 0 187 -84t63 -244v-262q0 -172 -88.5 -266t-253.5 -94t-253.5 94t-88.5 266zM410 729q-117 0 -117 -141v-258q0 -140 117 -140
q116 0 116 140v258q0 141 -116 141z" />
    <glyph glyph-name="seven" unicode="7" 
d="M68 1434h675v-197l-331 -1237h-226l330 1229h-448v205z" />
    <glyph glyph-name="eight" unicode="8" 
d="M758 344q0 -172 -91 -266t-261 -94t-261.5 94t-91.5 266v113q0 220 140 299q-140 76 -140 288v46q0 172 91.5 266t261.5 94t261 -94t91 -266v-46q0 -210 -140 -288q140 -79 140 -299v-113zM279 350q0 -89 33.5 -125.5t93.5 -36.5q59 0 92 36t34 126v133q0 162 -126 162
q-127 0 -127 -162v-133zM279 1081v-80q0 -151 127 -151q126 0 126 151v80q0 91 -33 127.5t-93 36.5t-93.5 -37t-33.5 -127z" />
    <glyph glyph-name="nine" unicode="9" 
d="M743 1090v-734q0 -372 -344 -372q-164 0 -250 93.5t-86 266.5v37h213v-51q0 -142 117 -142q63 0 94 39.5t31 137.5v262q-60 -127 -209 -127q-124 0 -187 84t-63 243v263q0 172 88.5 266t253.5 94t253.5 -94t88.5 -266zM401 705q117 0 117 141v258q0 139 -117 139
q-116 0 -116 -139v-258q0 -141 116 -141z" />
    <glyph glyph-name="colon" unicode=":" horiz-adv-x="380" 
d="M82 217h217v-217h-217v217zM82 997h217v-217h-217v217z" />
    <glyph glyph-name="semicolon" unicode=";" horiz-adv-x="380" 
d="M168 0h-86v217h217v-194l-98 -228h-92zM82 997h217v-217h-217v217z" />
    <glyph glyph-name="less" unicode="&#x3c;" 
d="M729 391l-668 246v160l668 245v-161l-459 -164l459 -164v-162z" />
    <glyph glyph-name="equal" unicode="=" 
d="M72 631h667v-160h-667v160zM72 963h667v-160h-667v160z" />
    <glyph glyph-name="greater" unicode="&#x3e;" 
d="M750 637l-668 -246v162l459 164l-459 164v161l668 -245v-160z" />
    <glyph glyph-name="question" unicode="?" horiz-adv-x="737" 
d="M446 317h-200q-13 41 -13 89q0 86 25.5 157t61.5 123.5t72 106.5t61.5 133.5t25.5 177.5q0 74 -28 107.5t-84 33.5q-113 0 -113 -141v-156h-213v142q0 173 84.5 266.5t247.5 93.5t247.5 -93.5t84.5 -266.5q0 -76 -14.5 -141.5t-38.5 -113.5t-52 -91t-56.5 -82
t-52.5 -77.5t-38.5 -86.5t-14.5 -101q0 -44 8 -80zM236 217h217v-217h-217v217z" />
    <glyph glyph-name="at" unicode="@" horiz-adv-x="1411" 
d="M975 260q-169 0 -180 135q-63 -129 -199 -123q-106 3 -152.5 84t-31.5 232l22 207q15 151 79 229t171 74q126 -3 168 -127l12 119h197l-62 -592q-6 -52 41 -52q41 0 73.5 42.5t51.5 111.5t29 148t10 161q0 201 -100.5 316.5t-306.5 115.5q-270 0 -412.5 -200.5
t-142.5 -556.5q0 -254 119 -394.5t358 -140.5q123 0 223 30t201 109l-17 -196q-96 -64 -196.5 -89.5t-222.5 -25.5q-169 0 -296.5 52t-206 148t-117 225.5t-38.5 291.5q0 153 29.5 290t91 253t150 200t213 131.5t272.5 47.5q126 0 224.5 -31t162.5 -85t105.5 -131.5
t59 -164.5t17.5 -191q0 -145 -26.5 -261t-68 -187.5t-96 -119t-106 -66.5t-102.5 -19zM629 772l-19 -174q-14 -132 88 -135q48 -2 78 29.5t37 99.5l21 194q6 57 -19.5 86t-69.5 29q-49 2 -79 -29t-37 -100z" />
    <glyph glyph-name="A" unicode="A" horiz-adv-x="833" 
d="M582 1434l229 -1434h-227l-39 260h-277l-39 -260h-206l229 1434h330zM406 1180l-109 -725h217z" />
    <glyph glyph-name="B" unicode="B" horiz-adv-x="831" 
d="M422 1434q173 0 253.5 -81t80.5 -249v-51q0 -220 -146 -289q168 -65 168 -307v-117q0 -166 -87 -253t-255 -87h-354v1434h340zM408 645h-101v-440h129q59 0 88 32t29 109v125q0 98 -33.5 136t-111.5 38zM416 1229h-109v-379h88q67 0 101 34.5t34 116.5v80q0 77 -27 112.5
t-87 35.5z" />
    <glyph glyph-name="C" unicode="C" horiz-adv-x="790" 
d="M522 535h213v-191q0 -173 -86 -266.5t-250 -93.5t-250 93.5t-86 266.5v746q0 173 86 266.5t250 93.5t250 -93.5t86 -266.5v-140h-213v154q0 141 -116 141q-117 0 -117 -141v-774q0 -140 117 -140q116 0 116 140v205z" />
    <glyph glyph-name="D" unicode="D" horiz-adv-x="835" 
d="M82 0v1434h356q167 0 251.5 -91t84.5 -264v-725q0 -173 -84.5 -263.5t-251.5 -90.5h-356zM434 1229h-127v-1024h127q56 0 85.5 32.5t29.5 106.5v746q0 74 -29.5 106.5t-85.5 32.5z" />
    <glyph glyph-name="E" unicode="E" horiz-adv-x="753" 
d="M307 1229v-400h309v-204h-309v-420h389v-205h-614v1434h614v-205h-389z" />
    <glyph glyph-name="F" unicode="F" horiz-adv-x="704" 
d="M307 1229v-432h291v-205h-291v-592h-225v1434h596v-205h-371z" />
    <glyph glyph-name="G" unicode="G" horiz-adv-x="798" 
d="M420 594v205h315v-455q0 -173 -86 -266.5t-250 -93.5t-250 93.5t-86 266.5v746q0 173 86 266.5t250 93.5t250 -93.5t86 -266.5v-140h-213v154q0 141 -116 141q-117 0 -117 -141v-774q0 -140 117 -140q116 0 116 140v264h-102z" />
    <glyph glyph-name="H" unicode="H" horiz-adv-x="874" 
d="M307 614v-614h-225v1434h225v-615h256v615h230v-1434h-230v614h-256z" />
    <glyph glyph-name="I" unicode="I" horiz-adv-x="389" 
d="M82 0v1434h225v-1434h-225z" />
    <glyph glyph-name="J" unicode="J" horiz-adv-x="524" 
d="M20 0v205q25 -2 78 -2q61 0 95 30t34 107v1094h226v-1078q0 -360 -324 -360q-72 0 -109 4z" />
    <glyph glyph-name="K" unicode="K" horiz-adv-x="847" 
d="M596 0l-219 571l-70 -131v-440h-225v1434h225v-625l295 625h225l-313 -639l313 -795h-231z" />
    <glyph glyph-name="L" unicode="L" horiz-adv-x="694" 
d="M82 0v1434h225v-1229h371v-205h-596z" />
    <glyph glyph-name="M" unicode="M" horiz-adv-x="1107" 
d="M393 1434l166 -1018l154 1018h313v-1434h-213v1028l-156 -1028h-213l-168 1014v-1014h-196v1434h313z" />
    <glyph glyph-name="N" unicode="N" horiz-adv-x="874" 
d="M563 0l-280 1038v-1038h-203v1434h282l232 -859v859h201v-1434h-232z" />
    <glyph glyph-name="O" unicode="O" 
d="M289 1104v-774q0 -142 117 -142q116 0 116 142v774q0 141 -116 141q-117 0 -117 -141zM63 344v746q0 172 89 266t254 94t253.5 -94t88.5 -266v-746q0 -172 -88.5 -266t-253.5 -94t-254 94t-89 266z" />
    <glyph glyph-name="P" unicode="P" horiz-adv-x="782" 
d="M414 1434q167 0 251.5 -91t84.5 -264v-186q0 -173 -84.5 -263.5t-251.5 -90.5h-107v-539h-225v1434h332zM414 1229h-107v-486h107q56 0 83 31t27 105v215q0 74 -27 104.5t-83 30.5z" />
    <glyph glyph-name="Q" unicode="Q" 
d="M63 344v746q0 172 89 266t254 94t253.5 -94t88.5 -266v-746q0 -122 -43 -201q7 -19 20 -24.5t43 -5.5h20v-201h-30q-145 0 -195 98q-73 -26 -157 -26q-165 0 -254 94t-89 266zM289 1104v-774q0 -142 117 -142q116 0 116 142v774q0 141 -116 141q-117 0 -117 -141z" />
    <glyph glyph-name="R" unicode="R" horiz-adv-x="823" 
d="M782 0h-229q-8 25 -11 37.5t-6.5 48t-3.5 90.5v225q0 99 -35 141t-112 42h-78v-584h-225v1434h340q173 0 253.5 -81t80.5 -249v-113q0 -221 -148 -291q81 -34 115.5 -110t34.5 -195v-221q0 -119 24 -174zM416 1229h-109v-441h88q67 0 101 34.5t34 117.5v141
q0 77 -27 112.5t-87 35.5z" />
    <glyph glyph-name="S" unicode="S" horiz-adv-x="765" 
d="M53 1090q0 173 84.5 266.5t247.5 93.5t247.5 -93.5t84.5 -266.5v-46h-213v60q0 141 -113 141q-56 0 -84 -33.5t-28 -107.5q0 -60 24.5 -113t63 -95.5t85.5 -85t94 -89t85.5 -98.5t63 -124t24.5 -155q0 -173 -86 -266.5t-250 -93.5t-250 93.5t-86 266.5v88h213v-102
q0 -140 117 -140t117 140q0 60 -24.5 113t-63 95.5t-85.5 85t-94.5 89t-86 98.5t-63 124t-24.5 155z" />
    <glyph glyph-name="T" unicode="T" horiz-adv-x="729" 
d="M16 1229v205h697v-205h-236v-1229h-225v1229h-236z" />
    <glyph glyph-name="U" unicode="U" horiz-adv-x="815" 
d="M72 1434h225v-1106q0 -140 117 -140q116 0 116 140v1106h213v-1092q0 -173 -85.5 -266.5t-249.5 -93.5t-250 93.5t-86 266.5v1092z" />
    <glyph glyph-name="V" unicode="V" horiz-adv-x="823" 
d="M250 1434l172 -1170l172 1170h207l-221 -1434h-336l-221 1434h227z" />
    <glyph glyph-name="W" unicode="W" horiz-adv-x="1153" 
d="M664 0l-82 764l-82 -764h-310l-159 1434h219l121 -1131l108 1131h217l113 -1139l117 1139h196l-159 -1434h-299z" />
    <glyph glyph-name="X" unicode="X" horiz-adv-x="880" 
d="M625 1434h209l-236 -697l252 -737h-238l-184 567l-186 -567h-211l252 737l-236 697h234l170 -529z" />
    <glyph glyph-name="Y" unicode="Y" 
d="M293 0v475l-285 959h236l172 -654l172 654h215l-285 -959v-475h-225z" />
    <glyph glyph-name="Z" unicode="Z" horiz-adv-x="757" 
d="M68 1434h639v-201l-428 -1028h428v-205h-660v201l428 1028h-407v205z" />
    <glyph glyph-name="bracketleft" unicode="[" horiz-adv-x="514" 
d="M96 0v1434h373v-185h-147v-1065h147v-184h-373z" />
    <glyph glyph-name="backslash" unicode="\" horiz-adv-x="780" 
d="M205 1434l565 -1434h-195l-565 1434h195z" />
    <glyph glyph-name="bracketright" unicode="]" horiz-adv-x="514" 
d="M418 1434v-1434h-373v184h148v1065h-148v185h373z" />
    <glyph glyph-name="asciicircum" unicode="^" 
d="M41 799l285 635h159l285 -635h-180l-184 430l-185 -430h-180z" />
    <glyph glyph-name="underscore" unicode="_" horiz-adv-x="1024" 
d="M0 -184v164h1024v-164h-1024z" />
    <glyph glyph-name="grave" unicode="`" horiz-adv-x="512" 
d="M90 1737h232l139 -228h-162z" />
    <glyph glyph-name="a" unicode="a" horiz-adv-x="833" 
d="M582 1434l229 -1434h-227l-39 260h-277l-39 -260h-206l229 1434h330zM406 1180l-109 -725h217z" />
    <glyph glyph-name="b" unicode="b" horiz-adv-x="831" 
d="M422 1434q173 0 253.5 -81t80.5 -249v-51q0 -220 -146 -289q168 -65 168 -307v-117q0 -166 -87 -253t-255 -87h-354v1434h340zM408 645h-101v-440h129q59 0 88 32t29 109v125q0 98 -33.5 136t-111.5 38zM416 1229h-109v-379h88q67 0 101 34.5t34 116.5v80q0 77 -27 112.5
t-87 35.5z" />
    <glyph glyph-name="c" unicode="c" horiz-adv-x="790" 
d="M522 535h213v-191q0 -173 -86 -266.5t-250 -93.5t-250 93.5t-86 266.5v746q0 173 86 266.5t250 93.5t250 -93.5t86 -266.5v-140h-213v154q0 141 -116 141q-117 0 -117 -141v-774q0 -140 117 -140q116 0 116 140v205z" />
    <glyph glyph-name="d" unicode="d" horiz-adv-x="835" 
d="M82 0v1434h356q167 0 251.5 -91t84.5 -264v-725q0 -173 -84.5 -263.5t-251.5 -90.5h-356zM434 1229h-127v-1024h127q56 0 85.5 32.5t29.5 106.5v746q0 74 -29.5 106.5t-85.5 32.5z" />
    <glyph glyph-name="e" unicode="e" horiz-adv-x="753" 
d="M307 1229v-400h309v-204h-309v-420h389v-205h-614v1434h614v-205h-389z" />
    <glyph glyph-name="f" unicode="f" horiz-adv-x="704" 
d="M307 1229v-432h291v-205h-291v-592h-225v1434h596v-205h-371z" />
    <glyph glyph-name="g" unicode="g" horiz-adv-x="798" 
d="M420 594v205h315v-455q0 -173 -86 -266.5t-250 -93.5t-250 93.5t-86 266.5v746q0 173 86 266.5t250 93.5t250 -93.5t86 -266.5v-140h-213v154q0 141 -116 141q-117 0 -117 -141v-774q0 -140 117 -140q116 0 116 140v264h-102z" />
    <glyph glyph-name="h" unicode="h" horiz-adv-x="874" 
d="M307 614v-614h-225v1434h225v-615h256v615h230v-1434h-230v614h-256z" />
    <glyph glyph-name="i" unicode="i" horiz-adv-x="389" 
d="M82 0v1434h225v-1434h-225z" />
    <glyph glyph-name="j" unicode="j" horiz-adv-x="524" 
d="M20 0v205q25 -2 78 -2q61 0 95 30t34 107v1094h226v-1078q0 -360 -324 -360q-72 0 -109 4z" />
    <glyph glyph-name="k" unicode="k" horiz-adv-x="847" 
d="M596 0l-219 571l-70 -131v-440h-225v1434h225v-625l295 625h225l-313 -639l313 -795h-231z" />
    <glyph glyph-name="l" unicode="l" horiz-adv-x="694" 
d="M82 0v1434h225v-1229h371v-205h-596z" />
    <glyph glyph-name="m" unicode="m" horiz-adv-x="1107" 
d="M393 1434l166 -1018l154 1018h313v-1434h-213v1028l-156 -1028h-213l-168 1014v-1014h-196v1434h313z" />
    <glyph glyph-name="n" unicode="n" horiz-adv-x="874" 
d="M563 0l-280 1038v-1038h-203v1434h282l232 -859v859h201v-1434h-232z" />
    <glyph glyph-name="o" unicode="o" 
d="M289 1104v-774q0 -142 117 -142q116 0 116 142v774q0 141 -116 141q-117 0 -117 -141zM63 344v746q0 172 89 266t254 94t253.5 -94t88.5 -266v-746q0 -172 -88.5 -266t-253.5 -94t-254 94t-89 266z" />
    <glyph glyph-name="p" unicode="p" horiz-adv-x="772" 
d="M414 1434q167 0 251.5 -91t84.5 -264v-186q0 -173 -84.5 -263.5t-251.5 -90.5h-107v-539h-225v1434h332zM414 1229h-107v-486h107q56 0 83 31t27 105v215q0 74 -27 104.5t-83 30.5z" />
    <glyph glyph-name="q" unicode="q" 
d="M63 344v746q0 172 89 266t254 94t253.5 -94t88.5 -266v-746q0 -122 -43 -201q7 -19 20 -24.5t43 -5.5h20v-201h-30q-145 0 -195 98q-73 -26 -157 -26q-165 0 -254 94t-89 266zM289 1104v-774q0 -142 117 -142q116 0 116 142v774q0 141 -116 141q-117 0 -117 -141z" />
    <glyph glyph-name="r" unicode="r" horiz-adv-x="823" 
d="M782 0h-229q-8 25 -11 37.5t-6.5 48t-3.5 90.5v225q0 99 -35 141t-112 42h-78v-584h-225v1434h340q173 0 253.5 -81t80.5 -249v-113q0 -221 -148 -291q81 -34 115.5 -110t34.5 -195v-221q0 -119 24 -174zM416 1229h-109v-441h88q67 0 101 34.5t34 117.5v141
q0 77 -27 112.5t-87 35.5z" />
    <glyph glyph-name="s" unicode="s" horiz-adv-x="765" 
d="M53 1090q0 173 84.5 266.5t247.5 93.5t247.5 -93.5t84.5 -266.5v-46h-213v60q0 141 -113 141q-56 0 -84 -33.5t-28 -107.5q0 -60 24.5 -113t63 -95.5t85.5 -85t94 -89t85.5 -98.5t63 -124t24.5 -155q0 -173 -86 -266.5t-250 -93.5t-250 93.5t-86 266.5v88h213v-102
q0 -140 117 -140t117 140q0 60 -24.5 113t-63 95.5t-85.5 85t-94.5 89t-86 98.5t-63 124t-24.5 155z" />
    <glyph glyph-name="t" unicode="t" horiz-adv-x="729" 
d="M16 1229v205h697v-205h-236v-1229h-225v1229h-236z" />
    <glyph glyph-name="u" unicode="u" horiz-adv-x="815" 
d="M72 1434h225v-1106q0 -140 117 -140q116 0 116 140v1106h213v-1092q0 -173 -85.5 -266.5t-249.5 -93.5t-250 93.5t-86 266.5v1092z" />
    <glyph glyph-name="v" unicode="v" horiz-adv-x="823" 
d="M250 1434l172 -1170l172 1170h207l-221 -1434h-336l-221 1434h227z" />
    <glyph glyph-name="w" unicode="w" horiz-adv-x="1153" 
d="M664 0l-82 764l-82 -764h-310l-159 1434h219l121 -1131l108 1131h217l113 -1139l117 1139h196l-159 -1434h-299z" />
    <glyph glyph-name="x" unicode="x" horiz-adv-x="880" 
d="M625 1434h209l-236 -697l252 -737h-238l-184 567l-186 -567h-211l252 737l-236 697h234l170 -529z" />
    <glyph glyph-name="y" unicode="y" 
d="M293 0v475l-285 959h236l172 -654l172 654h215l-285 -959v-475h-225z" />
    <glyph glyph-name="z" unicode="z" horiz-adv-x="757" 
d="M68 1434h639v-201l-428 -1028h428v-205h-660v201l428 1028h-407v205z" />
    <glyph glyph-name="braceleft" unicode="{" horiz-adv-x="526" 
d="M209 717q125 -32 133 -182l10 -205q4 -83 29 -114.5t80 -31.5h33v-184h-115q-99 0 -159.5 57t-67.5 170l-17 275q-5 72 -27 97.5t-85 25.5v184q63 0 85 25.5t27 97.5l17 274q7 113 67.5 170.5t159.5 57.5h115v-185h-33q-55 0 -80 -31t-29 -114l-10 -205
q-8 -150 -133 -182z" />
    <glyph glyph-name="bar" unicode="|" horiz-adv-x="1024" 
d="M430 -133v1700h184v-1700h-184z" />
    <glyph glyph-name="braceright" unicode="}" horiz-adv-x="526" 
d="M317 717q-125 32 -133 182l-10 205q-4 83 -28.5 114t-79.5 31h-33v185h114q99 0 160 -57.5t68 -170.5l16 -274q5 -72 27.5 -97.5t85.5 -25.5v-184q-63 0 -85.5 -25.5t-27.5 -97.5l-16 -275q-7 -113 -68 -170t-160 -57h-114v184h33q55 0 79.5 31.5t28.5 114.5l10 205
q8 150 133 182z" />
    <glyph glyph-name="asciitilde" unicode="~" 
d="M123 578l-107 102q70 104 126 144t118 40q37 0 80.5 -19.5t75.5 -43t70.5 -43t66.5 -19.5q34 0 59.5 23.5t75.5 93.5l107 -111q-69 -102 -124.5 -139t-119.5 -37q-37 0 -80.5 19.5t-75.5 43t-70.5 43t-66.5 19.5q-34 0 -60.5 -23.5t-74.5 -92.5z" />
    <glyph glyph-name="uni00A0" unicode="&#xa0;" horiz-adv-x="317" 
 />
    <glyph glyph-name="exclamdown" unicode="&#xa1;" horiz-adv-x="389" 
d="M111 1116h168l28 -518v-598h-225v598zM303 1217h-217v217h217v-217z" />
    <glyph glyph-name="cent" unicode="&#xa2;" 
d="M313 -31v107q-118 25 -178.5 114t-60.5 236v582q0 145 60.5 234.5t178.5 115.5v106h185v-104q247 -50 247 -352v-99h-213v113q0 141 -116 141q-117 0 -117 -141v-610q0 -140 117 -140q116 0 116 140v163h213v-149q0 -149 -62.5 -239t-184.5 -113v-105h-185z" />
    <glyph glyph-name="sterling" unicode="&#xa3;" 
d="M90 430v174h137q-14 39 -42.5 99t-49 104.5t-37 120t-16.5 162.5q0 173 84.5 266.5t247.5 93.5t247 -93.5t84 -266.5v-142h-213v156q0 74 -28 107.5t-84 33.5q-113 0 -113 -141q0 -88 16.5 -164.5t37 -122.5t46 -106t37.5 -107h248v-174h-233q-14 -144 -115 -225h387
v-205h-670v197q82 0 137 63t58 170h-166z" />
    <glyph glyph-name="currency" unicode="&#xa4;" 
d="M274 717q0 -54 39 -92.5t93 -38.5t92.5 38.5t38.5 92.5t-38.5 92.5t-92.5 38.5t-93 -38.5t-39 -92.5zM66 465l112 113q-37 61 -37 139q0 79 37 137l-112 115l88 88l114 -115q61 39 138 39q73 0 137 -39l114 115l88 -88l-114 -115q39 -64 39 -137q0 -76 -39 -137l114 -115
l-88 -88l-114 112q-56 -36 -137 -36t-140 36l-112 -112z" />
    <glyph glyph-name="yen" unicode="&#xa5;" 
d="M582 1434h215l-262 -879h170v-113h-187v-92h187v-112h-187v-238h-225v238h-187v112h187v92h-187v113h168l-260 879h236l166 -633z" />
    <glyph glyph-name="brokenbar" unicode="&#xa6;" horiz-adv-x="1024" 
d="M430 840v727h184v-727h-184zM430 -133v727h184v-727h-184z" />
    <glyph glyph-name="section" unicode="&#xa7;" 
d="M72 643q0 80 36 145.5t105 104.5q-66 43 -103.5 105.5t-37.5 160.5q0 128 86 209.5t245 81.5q160 0 246 -76t86 -203v-73h-213v43q0 56 -29.5 89.5t-82.5 33.5q-54 0 -83.5 -30t-29.5 -85q0 -34 24.5 -60.5t63 -46t85.5 -40t94 -48.5t85.5 -64.5t63 -96.5t24.5 -136
q0 -79 -37 -145.5t-106 -105.5q143 -88 143 -265q0 -128 -86 -209.5t-245 -81.5q-160 0 -246 76t-86 203v102h213v-71q0 -56 29.5 -89.5t82.5 -33.5q54 0 83.5 30t29.5 85q0 34 -24.5 60.5t-63 46t-85.5 39.5t-94 48t-85.5 64.5t-63 96.5t-24.5 136zM287 651q0 -56 32 -91.5
t93 -65.5q50 7 80 51.5t30 103.5q0 55 -32.5 90.5t-94.5 65.5q-50 -7 -79 -51t-29 -103z" />
    <glyph glyph-name="dieresis" unicode="&#xa8;" horiz-adv-x="512" 
d="M2 1706h197v-197h-197v197zM313 1706h197v-197h-197v197z" />
    <glyph glyph-name="copyright" unicode="&#xa9;" horiz-adv-x="1507" 
d="M829 631h148v-115q0 -121 -59 -185.5t-173 -64.5t-172.5 64.5t-58.5 185.5v397q0 124 58 189t173 65t173.5 -65t58.5 -189v-73h-148v86q0 98 -79 98q-80 0 -80 -98v-418q0 -96 80 -96q79 0 79 96v123zM41 717q0 157 54.5 294t149.5 233t227 151t282 55t282 -55
t226.5 -151.5t149 -233t54.5 -293.5t-54.5 -293.5t-149 -233t-226.5 -151.5t-282 -55t-282 55t-227 151t-149.5 233t-54.5 294zM188 717q0 -168 73.5 -303.5t203 -211t289.5 -75.5t289 75.5t202.5 211t73.5 303.5t-73.5 303.5t-202.5 211t-289 75.5t-289.5 -75.5t-203 -211
t-73.5 -303.5z" />
    <glyph glyph-name="ordfeminine" unicode="&#xaa;" horiz-adv-x="569" 
d="M61 879v8q0 137 75.5 194t215.5 62v94q0 76 -57 76q-35 0 -52.5 -20t-17.5 -68v-47h-135v39q0 109 53.5 168t157.5 59q195 0 195 -227v-535h-121l-8 98q-35 -108 -146 -108q-160 0 -160 207zM61 588h435v-142h-435v142zM205 909v-18q0 -88 74 -88q68 0 73 74v159
q-147 -7 -147 -127z" />
    <glyph glyph-name="guillemotleft" unicode="&#xab;" horiz-adv-x="727" 
d="M160 1245h202l-124 -526l124 -559h-202l-127 559zM492 1245h202l-125 -526l125 -559h-202l-127 559z" />
    <glyph glyph-name="logicalnot" unicode="&#xac;" 
d="M51 797h709v-441h-160v281h-549v160z" />
    <glyph glyph-name="uni00AD" unicode="&#xad;" horiz-adv-x="552" 
d="M72 614v205h409v-205h-409z" />
    <glyph glyph-name="registered" unicode="&#xae;" horiz-adv-x="1507" 
d="M41 717q0 157 54.5 294t149.5 233t227 151t282 55t282 -55t226.5 -151.5t149 -233t54.5 -293.5t-54.5 -293.5t-149 -233t-226.5 -151.5t-282 -55t-282 55t-227 151t-149.5 233t-54.5 294zM188 717q0 -168 73.5 -303.5t203 -211t289.5 -75.5t289 75.5t202.5 211
t73.5 303.5t-73.5 303.5t-202.5 211t-289 75.5t-289.5 -75.5t-203 -211t-73.5 -303.5zM1016 279h-160q-14 38 -14 122v95q0 69 -25 98t-80 29h-53v-344h-156v876h238q119 0 175 -56.5t56 -172.5v-19q0 -155 -106 -202q57 -24 81.5 -76.5t24.5 -134.5v-95q0 -76 19 -120z
M758 1012h-74v-246h64q46 0 70 23.5t24 80.5v37q0 54 -20 79.5t-64 25.5z" />
    <glyph glyph-name="macron" unicode="&#xaf;" horiz-adv-x="512" 
d="M20 1677h472v-159h-472v159z" />
    <glyph glyph-name="degree" unicode="&#xb0;" horiz-adv-x="466" 
d="M31 1247q0 85 58.5 144t143.5 59t144 -59t59 -144t-59 -144t-144 -59t-143.5 59t-58.5 144zM133 1247q0 -41 29.5 -70.5t70.5 -29.5t71 29.5t30 70.5t-30 71t-71 30t-70.5 -30t-29.5 -71z" />
    <glyph glyph-name="plusminus" unicode="&#xb1;" 
d="M485 516h254v-160h-667v160h254v164h-254v160h254v233h159v-233h254v-160h-254v-164z" />
    <glyph glyph-name="twosuperior" unicode="&#xb2;" horiz-adv-x="573" 
d="M369 1409q0 57 -19 79.5t-55 22.5q-74 0 -74 -90v-96h-135v88q0 110 54 168.5t159 58.5t159 -58.5t54 -168.5q0 -83 -32 -157t-76 -126t-87.5 -98.5t-69.5 -93t-18 -90.5h271v-129h-414v110q0 54 15.5 101.5t40.5 84t55 71t60.5 68.5t55.5 70.5t40.5 84t15.5 100.5z" />
    <glyph glyph-name="threesuperior" unicode="&#xb3;" horiz-adv-x="573" 
d="M356 942v70q0 63 -21.5 88.5t-70.5 25.5h-49v129h55q86 0 86 99v51q0 58 -18.5 81t-54.5 23q-74 0 -74 -90v-57h-135v47q0 111 54 170t159 59t159 -59t54 -170v-23q0 -144 -101 -186q101 -43 101 -190v-72q0 -111 -54 -170t-159 -59t-159 59t-54 170v74h135v-84
q0 -90 74 -90q36 0 54.5 23t18.5 81z" />
    <glyph glyph-name="acute" unicode="&#xb4;" horiz-adv-x="512" 
d="M195 1737h221l-209 -228h-152z" />
    <glyph glyph-name="uni00B5" unicode="&#xb5;" 
d="M289 1024v-694q0 -142 117 -142q116 0 116 142v694h226v-1024h-205v106q-63 -122 -205 -122q-21 0 -49 4v-178h-226v1214h226z" />
    <glyph glyph-name="paragraph" unicode="&#xb6;" 
d="M729 1434v-1567h-164v1403h-110v-1403h-164l4 676q-126 0 -196 96t-70 254v186q0 173 84.5 264t251.5 91h364z" />
    <glyph glyph-name="periodcentered" unicode="&#xb7;" horiz-adv-x="380" 
d="M82 825h217v-217h-217v217z" />
    <glyph glyph-name="cedilla" unicode="&#xb8;" horiz-adv-x="512" 
d="M53 -182v20h152v-16q0 -41 45 -41q51 0 51 49q0 29 -18 41t-56 12h-20v146h98v-109q78 0 115 -22t37 -74q0 -40 -14.5 -66t-44.5 -38.5t-63.5 -16.5t-84.5 -4q-94 0 -145.5 26.5t-51.5 92.5z" />
    <glyph glyph-name="onesuperior" unicode="&#xb9;" horiz-adv-x="409" 
d="M51 1413v100q40 0 67.5 8.5t45.5 27.5t26.5 34.5t20.5 44.5h94v-909h-143v694h-111z" />
    <glyph glyph-name="ordmasculine" unicode="&#xba;" horiz-adv-x="573" 
d="M213 1225v-334q0 -48 18.5 -68t55.5 -20q73 0 73 88v334q0 88 -73 88q-37 0 -55.5 -20t-18.5 -68zM70 899v318q0 108 56 167.5t161 59.5t161 -59.5t56 -167.5v-318q0 -108 -56 -167.5t-161 -59.5t-161 59.5t-56 167.5zM70 588h434v-142h-434v142z" />
    <glyph glyph-name="guillemotright" unicode="&#xbb;" horiz-adv-x="727" 
d="M365 1245h202l127 -526l-127 -559h-202l124 559zM33 1245h203l126 -526l-126 -559h-203l125 559z" />
    <glyph glyph-name="onequarter" unicode="&#xbc;" horiz-adv-x="1284" 
d="M133 1219v100q40 0 67.5 8.5t45.5 27.5t26.5 34.5t20.5 44.5h94v-910h-143v695h-111zM328 0l565 1434h133l-565 -1434h-133zM760 164v131l260 614h156v-614h67v-131h-67v-164h-142v164h-274zM889 295h145v336z" />
    <glyph glyph-name="onehalf" unicode="&#xbd;" horiz-adv-x="1284" 
d="M133 1219v100q40 0 67.5 8.5t45.5 27.5t26.5 34.5t20.5 44.5h94v-910h-143v695h-111zM266 0l565 1434h134l-566 -1434h-133zM1079 690q0 57 -18.5 80t-54.5 23q-74 0 -74 -91v-96h-135v88q0 110 54 169t159 59t159 -59t54 -169q0 -83 -32 -157t-76 -126t-87.5 -98.5
t-69.5 -93t-18 -90.5h270v-129h-413v111q0 62 21 117t52 93t68 80.5t68 80t52 92t21 116.5z" />
    <glyph glyph-name="threequarters" unicode="&#xbe;" horiz-adv-x="1284" 
d="M356 748v69q0 63 -22 89t-70 26h-49v129h55q86 0 86 98v51q0 58 -18.5 81.5t-54.5 23.5q-74 0 -74 -90v-58h-135v47q0 111 54 170.5t159 59.5t159 -59.5t54 -170.5v-22q0 -144 -101 -186q101 -43 101 -191v-72q0 -111 -54 -170t-159 -59t-159 59t-54 170v74h135v-84
q0 -90 74 -90q36 0 54.5 23.5t18.5 81.5zM348 0l565 1434h134l-566 -1434h-133zM760 164v131l260 614h156v-614h67v-131h-67v-164h-142v164h-274zM889 295h145v336z" />
    <glyph glyph-name="questiondown" unicode="&#xbf;" horiz-adv-x="737" 
d="M291 1116h201q12 -38 12 -88q0 -86 -25.5 -157t-61.5 -123.5t-72 -106.5t-61.5 -133.5t-25.5 -177.5q0 -142 113 -142q112 0 112 142v155h213v-141q0 -173 -84 -266.5t-247 -93.5t-247.5 93.5t-84.5 266.5q0 103 27.5 188.5t66.5 142.5t78 109.5t66.5 116.5t27.5 135
q0 44 -8 80zM502 1217h-217v217h217v-217z" />
    <glyph glyph-name="Agrave" unicode="&#xc0;" horiz-adv-x="833" 
d="M582 1434l229 -1434h-227l-39 260h-277l-39 -260h-206l229 1434h330zM406 1180l-109 -725h217zM170 1737h231l140 -228h-162z" />
    <glyph glyph-name="Aacute" unicode="&#xc1;" horiz-adv-x="833" 
d="M582 1434l229 -1434h-227l-39 260h-277l-39 -260h-206l229 1434h330zM406 1180l-109 -725h217zM436 1737h221l-208 -228h-152z" />
    <glyph glyph-name="Acircumflex" unicode="&#xc2;" horiz-adv-x="833" 
d="M582 1434l229 -1434h-227l-39 260h-277l-39 -260h-206l229 1434h330zM406 1180l-109 -725h217zM326 1509h-193l182 228h203l182 -228h-192l-92 113z" />
    <glyph glyph-name="Atilde" unicode="&#xc3;" horiz-adv-x="833" 
d="M582 1434l229 -1434h-227l-39 260h-277l-39 -260h-206l229 1434h330zM406 1180l-109 -725h217zM498 1665q31 0 51 11.5t37 47.5l108 -75q-52 -140 -174 -140q-46 0 -101.5 26t-82.5 26q-31 0 -50.5 -12t-37.5 -48l-109 76q52 139 174 139q46 0 102 -25.5t83 -25.5z" />
    <glyph glyph-name="Adieresis" unicode="&#xc4;" horiz-adv-x="833" 
d="M582 1434l229 -1434h-227l-39 260h-277l-39 -260h-206l229 1434h330zM406 1180l-109 -725h217zM162 1706h196v-197h-196v197zM473 1706h197v-197h-197v197z" />
    <glyph glyph-name="Aring" unicode="&#xc5;" horiz-adv-x="833" 
d="M582 1434l229 -1434h-227l-39 260h-277l-39 -260h-206l229 1434h330zM406 1180l-109 -725h217zM252 1667q0 69 47.5 116.5t116.5 47.5t116.5 -47.5t47.5 -116.5t-47.5 -116.5t-116.5 -47.5t-116.5 47.5t-47.5 116.5zM354 1667q0 -26 18 -43.5t44 -17.5t43.5 17.5
t17.5 43.5t-17.5 44t-43.5 18t-44 -18t-18 -44z" />
    <glyph glyph-name="AE" unicode="&#xc6;" horiz-adv-x="1187" 
d="M516 0v260h-227l-66 -260h-215l383 1434h739v-205h-389v-400h310v-204h-310v-420h389v-205h-614zM340 455h176v690z" />
    <glyph glyph-name="Ccedilla" unicode="&#xc7;" horiz-adv-x="790" 
d="M522 535h213v-191q0 -161 -74.5 -253.5t-216.5 -104.5v-66q78 0 115 -22t37 -74q0 -40 -14.5 -66t-44.5 -38.5t-63.5 -16.5t-84.5 -4q-93 0 -144.5 26.5t-51.5 92.5v20h151v-16q0 -41 45 -41q51 0 51 49q0 29 -17.5 41t-55.5 12h-21v105q-139 13 -211 105t-72 251v746
q0 173 86 266.5t250 93.5t250 -93.5t86 -266.5v-140h-213v154q0 141 -116 141q-117 0 -117 -141v-774q0 -140 117 -140q116 0 116 140v205z" />
    <glyph glyph-name="Egrave" unicode="&#xc8;" horiz-adv-x="753" 
d="M307 1229v-400h309v-204h-309v-420h389v-205h-614v1434h614v-205h-389zM139 1737h232l139 -228h-162z" />
    <glyph glyph-name="Eacute" unicode="&#xc9;" horiz-adv-x="753" 
d="M307 1229v-400h309v-204h-309v-420h389v-205h-614v1434h614v-205h-389zM408 1737h221l-209 -228h-152z" />
    <glyph glyph-name="Ecircumflex" unicode="&#xca;" horiz-adv-x="753" 
d="M307 1229v-400h309v-204h-309v-420h389v-205h-614v1434h614v-205h-389zM295 1509h-193l183 228h202l183 -228h-193l-92 113z" />
    <glyph glyph-name="Edieresis" unicode="&#xcb;" horiz-adv-x="753" 
d="M307 1229v-400h309v-204h-309v-420h389v-205h-614v1434h614v-205h-389zM133 1706h197v-197h-197v197zM444 1706h197v-197h-197v197z" />
    <glyph glyph-name="Igrave" unicode="&#xcc;" horiz-adv-x="389" 
d="M82 0v1434h225v-1434h-225zM-51 1737h231l139 -228h-161z" />
    <glyph glyph-name="Iacute" unicode="&#xcd;" horiz-adv-x="389" 
d="M82 0v1434h225v-1434h-225zM215 1737h221l-209 -228h-151z" />
    <glyph glyph-name="Icircumflex" unicode="&#xce;" horiz-adv-x="389" 
d="M82 0v1434h225v-1434h-225zM104 1509h-192l182 228h203l182 -228h-192l-92 113z" />
    <glyph glyph-name="Idieresis" unicode="&#xcf;" horiz-adv-x="389" 
d="M82 0v1434h225v-1434h-225zM-59 1706h196v-197h-196v197zM252 1706h197v-197h-197v197z" />
    <glyph glyph-name="Eth" unicode="&#xd0;" horiz-adv-x="835" 
d="M82 0v625h-74v184h74v625h356q167 0 251.5 -91t84.5 -264v-725q0 -173 -84.5 -263.5t-251.5 -90.5h-356zM434 1229h-127v-420h139v-184h-139v-420h127q56 0 85.5 32.5t29.5 106.5v746q0 74 -29.5 106.5t-85.5 32.5z" />
    <glyph glyph-name="Ntilde" unicode="&#xd1;" horiz-adv-x="874" 
d="M563 0l-280 1038v-1038h-203v1434h282l232 -859v859h201v-1434h-232zM518 1665q31 0 51 11.5t37 47.5l109 -75q-53 -140 -174 -140q-46 0 -102 26t-83 26q-31 0 -50.5 -12t-37.5 -48l-108 76q52 139 174 139q46 0 101.5 -25.5t82.5 -25.5z" />
    <glyph glyph-name="Ograve" unicode="&#xd2;" 
d="M289 1104v-774q0 -142 117 -142q116 0 116 142v774q0 141 -116 141q-117 0 -117 -141zM63 344v746q0 172 89 266t254 94t253.5 -94t88.5 -266v-746q0 -172 -88.5 -266t-253.5 -94t-254 94t-89 266zM158 1737h231l139 -228h-161z" />
    <glyph glyph-name="Oacute" unicode="&#xd3;" 
d="M289 1104v-774q0 -142 117 -142q116 0 116 142v774q0 141 -116 141q-117 0 -117 -141zM63 344v746q0 172 89 266t254 94t253.5 -94t88.5 -266v-746q0 -172 -88.5 -266t-253.5 -94t-254 94t-89 266zM426 1737h221l-209 -228h-151z" />
    <glyph glyph-name="Ocircumflex" unicode="&#xd4;" 
d="M289 1104v-774q0 -142 117 -142q116 0 116 142v774q0 141 -116 141q-117 0 -117 -141zM63 344v746q0 172 89 266t254 94t253.5 -94t88.5 -266v-746q0 -172 -88.5 -266t-253.5 -94t-254 94t-89 266zM313 1509h-192l182 228h203l182 -228h-192l-93 113z" />
    <glyph glyph-name="Otilde" unicode="&#xd5;" 
d="M289 1104v-774q0 -142 117 -142q116 0 116 142v774q0 141 -116 141q-117 0 -117 -141zM63 344v746q0 172 89 266t254 94t253.5 -94t88.5 -266v-746q0 -172 -88.5 -266t-253.5 -94t-254 94t-89 266zM487 1665q31 0 51 11.5t37 47.5l109 -75q-52 -140 -174 -140
q-46 0 -101.5 26t-82.5 26q-31 0 -50.5 -12t-37.5 -48l-109 76q52 139 174 139q46 0 101.5 -25.5t82.5 -25.5z" />
    <glyph glyph-name="Odieresis" unicode="&#xd6;" 
d="M289 1104v-774q0 -142 117 -142q116 0 116 142v774q0 141 -116 141q-117 0 -117 -141zM63 344v746q0 172 89 266t254 94t253.5 -94t88.5 -266v-746q0 -172 -88.5 -266t-253.5 -94t-254 94t-89 266zM152 1706h196v-197h-196v197zM463 1706h196v-197h-196v197z" />
    <glyph glyph-name="multiply" unicode="&#xd7;" 
d="M188 1040l218 -215l217 217l108 -108l-217 -217l217 -217l-108 -109l-217 217l-220 -217l-108 109l217 217l-215 215z" />
    <glyph glyph-name="Oslash" unicode="&#xd8;" 
d="M84 -49l51 143q-72 93 -72 250v746q0 172 89 266t254 94q124 0 204 -53l41 112l76 -26l-53 -146q74 -89 74 -247v-746q0 -172 -88.5 -266t-253.5 -94q-128 0 -205 51l-41 -111zM289 1104v-590l229 633q-14 98 -112 98q-117 0 -117 -141zM406 188q116 0 116 142v590
l-231 -633q17 -99 115 -99z" />
    <glyph glyph-name="Ugrave" unicode="&#xd9;" horiz-adv-x="815" 
d="M72 1434h225v-1106q0 -140 117 -140q116 0 116 140v1106h213v-1092q0 -173 -85.5 -266.5t-249.5 -93.5t-250 93.5t-86 266.5v1092zM162 1737h231l139 -228h-161z" />
    <glyph glyph-name="Uacute" unicode="&#xda;" horiz-adv-x="815" 
d="M72 1434h225v-1106q0 -140 117 -140q116 0 116 140v1106h213v-1092q0 -173 -85.5 -266.5t-249.5 -93.5t-250 93.5t-86 266.5v1092zM430 1737h221l-209 -228h-151z" />
    <glyph glyph-name="Ucircumflex" unicode="&#xdb;" horiz-adv-x="815" 
d="M72 1434h225v-1106q0 -140 117 -140q116 0 116 140v1106h213v-1092q0 -173 -85.5 -266.5t-249.5 -93.5t-250 93.5t-86 266.5v1092zM319 1509h-192l182 228h203l182 -228h-192l-92 113z" />
    <glyph glyph-name="Udieresis" unicode="&#xdc;" horiz-adv-x="815" 
d="M72 1434h225v-1106q0 -140 117 -140q116 0 116 140v1106h213v-1092q0 -173 -85.5 -266.5t-249.5 -93.5t-250 93.5t-86 266.5v1092zM158 1706h196v-197h-196v197zM469 1706h197v-197h-197v197z" />
    <glyph glyph-name="Yacute" unicode="&#xdd;" 
d="M293 0v475l-285 959h236l172 -654l172 654h215l-285 -959v-475h-225zM434 1737h221l-209 -228h-151z" />
    <glyph glyph-name="Thorn" unicode="&#xde;" horiz-adv-x="772" 
d="M82 0v1434h225v-164h107q167 0 251.5 -91t84.5 -264v-186q0 -173 -84.5 -263.5t-251.5 -90.5h-107v-375h-225zM414 1065h-107v-485h107q56 0 83 30.5t27 104.5v215q0 74 -27 104.5t-83 30.5z" />
    <glyph glyph-name="germandbls" unicode="&#xdf;" horiz-adv-x="1531" 
d="M53 1090q0 173 84.5 266.5t247.5 93.5t247.5 -93.5t84.5 -266.5v-46h-213v60q0 141 -113 141q-56 0 -84 -33.5t-28 -107.5q0 -60 24.5 -113t63 -95.5t85.5 -85t94 -89t85.5 -98.5t63 -124t24.5 -155q0 -173 -86 -266.5t-250 -93.5t-250 93.5t-86 266.5v88h213v-102
q0 -140 117 -140t117 140q0 60 -24.5 113t-63 95.5t-85.5 85t-94.5 89t-86 98.5t-63 124t-24.5 155zM819 1090q0 173 84.5 266.5t247.5 93.5t247.5 -93.5t84.5 -266.5v-46h-213v60q0 141 -113 141t-113 -141q0 -60 24.5 -113t63 -95.5t85.5 -85t94.5 -89t86 -98.5t63 -124
t24.5 -155q0 -173 -86 -266.5t-250 -93.5t-250 93.5t-86 266.5v88h213v-102q0 -140 117 -140t117 140q0 60 -24.5 113t-63 95.5t-85.5 85t-94.5 89t-86 98.5t-63 124t-24.5 155z" />
    <glyph glyph-name="agrave" unicode="&#xe0;" horiz-adv-x="833" 
d="M582 1434l229 -1434h-227l-39 260h-277l-39 -260h-206l229 1434h330zM406 1180l-109 -725h217zM170 1737h231l140 -228h-162z" />
    <glyph glyph-name="aacute" unicode="&#xe1;" horiz-adv-x="833" 
d="M582 1434l229 -1434h-227l-39 260h-277l-39 -260h-206l229 1434h330zM406 1180l-109 -725h217zM436 1737h221l-208 -228h-152z" />
    <glyph glyph-name="acircumflex" unicode="&#xe2;" horiz-adv-x="833" 
d="M582 1434l229 -1434h-227l-39 260h-277l-39 -260h-206l229 1434h330zM406 1180l-109 -725h217zM326 1509h-193l182 228h203l182 -228h-192l-92 113z" />
    <glyph glyph-name="atilde" unicode="&#xe3;" horiz-adv-x="833" 
d="M582 1434l229 -1434h-227l-39 260h-277l-39 -260h-206l229 1434h330zM406 1180l-109 -725h217zM498 1665q31 0 51 11.5t37 47.5l108 -75q-52 -140 -174 -140q-46 0 -101.5 26t-82.5 26q-31 0 -50.5 -12t-37.5 -48l-109 76q52 139 174 139q46 0 102 -25.5t83 -25.5z" />
    <glyph glyph-name="adieresis" unicode="&#xe4;" horiz-adv-x="833" 
d="M582 1434l229 -1434h-227l-39 260h-277l-39 -260h-206l229 1434h330zM406 1180l-109 -725h217zM162 1706h196v-197h-196v197zM473 1706h197v-197h-197v197z" />
    <glyph glyph-name="aring" unicode="&#xe5;" horiz-adv-x="833" 
d="M582 1434l229 -1434h-227l-39 260h-277l-39 -260h-206l229 1434h330zM406 1180l-109 -725h217zM252 1667q0 69 47.5 116.5t116.5 47.5t116.5 -47.5t47.5 -116.5t-47.5 -116.5t-116.5 -47.5t-116.5 47.5t-47.5 116.5zM354 1667q0 -26 18 -43.5t44 -17.5t43.5 17.5
t17.5 43.5t-17.5 44t-43.5 18t-44 -18t-18 -44z" />
    <glyph glyph-name="ae" unicode="&#xe6;" horiz-adv-x="1187" 
d="M741 1229v-400h310v-204h-310v-420h389v-205h-614v260h-227l-66 -260h-215l383 1434h739v-205h-389zM340 455h176v690z" />
    <glyph glyph-name="ccedilla" unicode="&#xe7;" horiz-adv-x="790" 
d="M522 535h213v-191q0 -161 -74.5 -253.5t-216.5 -104.5v-66q78 0 115 -22t37 -74q0 -40 -14.5 -66t-44.5 -38.5t-63.5 -16.5t-84.5 -4q-93 0 -144.5 26.5t-51.5 92.5v20h151v-16q0 -41 45 -41q51 0 51 49q0 29 -17.5 41t-55.5 12h-21v105q-139 13 -211 105t-72 251v746
q0 173 86 266.5t250 93.5t250 -93.5t86 -266.5v-140h-213v154q0 141 -116 141q-117 0 -117 -141v-774q0 -140 117 -140q116 0 116 140v205z" />
    <glyph glyph-name="egrave" unicode="&#xe8;" horiz-adv-x="753" 
d="M307 1229v-400h309v-204h-309v-420h389v-205h-614v1434h614v-205h-389zM139 1737h232l139 -228h-162z" />
    <glyph glyph-name="eacute" unicode="&#xe9;" horiz-adv-x="753" 
d="M307 1229v-400h309v-204h-309v-420h389v-205h-614v1434h614v-205h-389zM408 1737h221l-209 -228h-152z" />
    <glyph glyph-name="ecircumflex" unicode="&#xea;" horiz-adv-x="753" 
d="M307 1229v-400h309v-204h-309v-420h389v-205h-614v1434h614v-205h-389zM295 1509h-193l183 228h202l183 -228h-193l-92 113z" />
    <glyph glyph-name="edieresis" unicode="&#xeb;" horiz-adv-x="753" 
d="M307 1229v-400h309v-204h-309v-420h389v-205h-614v1434h614v-205h-389zM133 1706h197v-197h-197v197zM444 1706h197v-197h-197v197z" />
    <glyph glyph-name="igrave" unicode="&#xec;" horiz-adv-x="389" 
d="M82 0v1434h225v-1434h-225zM-51 1737h231l139 -228h-161z" />
    <glyph glyph-name="iacute" unicode="&#xed;" horiz-adv-x="389" 
d="M82 0v1434h225v-1434h-225zM215 1737h221l-209 -228h-151z" />
    <glyph glyph-name="icircumflex" unicode="&#xee;" horiz-adv-x="389" 
d="M82 0v1434h225v-1434h-225zM104 1509h-192l182 228h203l182 -228h-192l-92 113z" />
    <glyph glyph-name="idieresis" unicode="&#xef;" horiz-adv-x="389" 
d="M82 0v1434h225v-1434h-225zM-59 1706h196v-197h-196v197zM252 1706h197v-197h-197v197z" />
    <glyph glyph-name="eth" unicode="&#xf0;" horiz-adv-x="835" 
d="M82 0v625h-74v184h74v625h356q167 0 251.5 -91t84.5 -264v-725q0 -173 -84.5 -263.5t-251.5 -90.5h-356zM434 1229h-127v-420h139v-184h-139v-420h127q56 0 85.5 32.5t29.5 106.5v746q0 74 -29.5 106.5t-85.5 32.5z" />
    <glyph glyph-name="ntilde" unicode="&#xf1;" horiz-adv-x="874" 
d="M563 0l-280 1038v-1038h-203v1434h282l232 -859v859h201v-1434h-232zM518 1665q31 0 51 11.5t37 47.5l109 -75q-53 -140 -174 -140q-46 0 -102 26t-83 26q-31 0 -50.5 -12t-37.5 -48l-108 76q52 139 174 139q46 0 101.5 -25.5t82.5 -25.5z" />
    <glyph glyph-name="ograve" unicode="&#xf2;" 
d="M289 1104v-774q0 -142 117 -142q116 0 116 142v774q0 141 -116 141q-117 0 -117 -141zM63 344v746q0 172 89 266t254 94t253.5 -94t88.5 -266v-746q0 -172 -88.5 -266t-253.5 -94t-254 94t-89 266zM158 1737h231l139 -228h-161z" />
    <glyph glyph-name="oacute" unicode="&#xf3;" 
d="M289 1104v-774q0 -142 117 -142q116 0 116 142v774q0 141 -116 141q-117 0 -117 -141zM63 344v746q0 172 89 266t254 94t253.5 -94t88.5 -266v-746q0 -172 -88.5 -266t-253.5 -94t-254 94t-89 266zM426 1737h221l-209 -228h-151z" />
    <glyph glyph-name="ocircumflex" unicode="&#xf4;" 
d="M289 1104v-774q0 -142 117 -142q116 0 116 142v774q0 141 -116 141q-117 0 -117 -141zM63 344v746q0 172 89 266t254 94t253.5 -94t88.5 -266v-746q0 -172 -88.5 -266t-253.5 -94t-254 94t-89 266zM313 1509h-192l182 228h203l182 -228h-192l-93 113z" />
    <glyph glyph-name="otilde" unicode="&#xf5;" 
d="M289 1104v-774q0 -142 117 -142q116 0 116 142v774q0 141 -116 141q-117 0 -117 -141zM63 344v746q0 172 89 266t254 94t253.5 -94t88.5 -266v-746q0 -172 -88.5 -266t-253.5 -94t-254 94t-89 266zM487 1665q31 0 51 11.5t37 47.5l109 -75q-52 -140 -174 -140
q-46 0 -101.5 26t-82.5 26q-31 0 -50.5 -12t-37.5 -48l-109 76q52 139 174 139q46 0 101.5 -25.5t82.5 -25.5z" />
    <glyph glyph-name="odieresis" unicode="&#xf6;" 
d="M289 1104v-774q0 -142 117 -142q116 0 116 142v774q0 141 -116 141q-117 0 -117 -141zM63 344v746q0 172 89 266t254 94t253.5 -94t88.5 -266v-746q0 -172 -88.5 -266t-253.5 -94t-254 94t-89 266zM152 1706h196v-197h-196v197zM463 1706h196v-197h-196v197z" />
    <glyph glyph-name="divide" unicode="&#xf7;" 
d="M297 512h217v-217h-217v217zM297 1137h217v-217h-217v217zM51 797h709v-160h-709v160z" />
    <glyph glyph-name="oslash" unicode="&#xf8;" 
d="M63 344v746q0 172 89 266t254 94q124 0 204 -53l41 112l76 -26l-53 -146q74 -89 74 -247v-746q0 -172 -88.5 -266t-253.5 -94q-128 0 -205 51l-41 -111l-76 27l51 143q-72 93 -72 250zM289 1104v-590l229 633q-14 98 -112 98q-117 0 -117 -141zM406 188q116 0 116 142
v590l-231 -633q17 -99 115 -99z" />
    <glyph glyph-name="ugrave" unicode="&#xf9;" horiz-adv-x="815" 
d="M72 1434h225v-1106q0 -140 117 -140q116 0 116 140v1106h213v-1092q0 -173 -85.5 -266.5t-249.5 -93.5t-250 93.5t-86 266.5v1092zM162 1737h231l139 -228h-161z" />
    <glyph glyph-name="uacute" unicode="&#xfa;" horiz-adv-x="815" 
d="M72 1434h225v-1106q0 -140 117 -140q116 0 116 140v1106h213v-1092q0 -173 -85.5 -266.5t-249.5 -93.5t-250 93.5t-86 266.5v1092zM430 1737h221l-209 -228h-151z" />
    <glyph glyph-name="ucircumflex" unicode="&#xfb;" horiz-adv-x="815" 
d="M72 1434h225v-1106q0 -140 117 -140q116 0 116 140v1106h213v-1092q0 -173 -85.5 -266.5t-249.5 -93.5t-250 93.5t-86 266.5v1092zM319 1509h-192l182 228h203l182 -228h-192l-92 113z" />
    <glyph glyph-name="udieresis" unicode="&#xfc;" horiz-adv-x="815" 
d="M72 1434h225v-1106q0 -140 117 -140q116 0 116 140v1106h213v-1092q0 -173 -85.5 -266.5t-249.5 -93.5t-250 93.5t-86 266.5v1092zM158 1706h196v-197h-196v197zM469 1706h197v-197h-197v197z" />
    <glyph glyph-name="yacute" unicode="&#xfd;" 
d="M293 0v475l-285 959h236l172 -654l172 654h215l-285 -959v-475h-225zM434 1737h221l-209 -228h-151z" />
    <glyph glyph-name="thorn" unicode="&#xfe;" horiz-adv-x="772" 
d="M82 0v1434h225v-164h107q167 0 251.5 -91t84.5 -264v-186q0 -173 -84.5 -263.5t-251.5 -90.5h-107v-375h-225zM414 1065h-107v-485h107q56 0 83 30.5t27 104.5v215q0 74 -27 104.5t-83 30.5z" />
    <glyph glyph-name="ydieresis" unicode="&#xff;" 
d="M293 0v475l-285 959h236l172 -654l172 654h215l-285 -959v-475h-225zM160 1706h196v-197h-196v197zM471 1706h197v-197h-197v197z" />
    <glyph glyph-name="Amacron" unicode="&#x100;" horiz-adv-x="833" 
d="M582 1434l229 -1434h-227l-39 260h-277l-39 -260h-206l229 1434h330zM406 1180l-109 -725h217zM180 1677h471v-159h-471v159z" />
    <glyph glyph-name="amacron" unicode="&#x101;" horiz-adv-x="833" 
d="M582 1434l229 -1434h-227l-39 260h-277l-39 -260h-206l229 1434h330zM406 1180l-109 -725h217zM180 1677h471v-159h-471v159z" />
    <glyph glyph-name="Abreve" unicode="&#x102;" horiz-adv-x="833" 
d="M582 1434l229 -1434h-227l-39 260h-277l-39 -260h-206l229 1434h330zM406 1180l-109 -725h217zM512 1737h133q0 -110 -59 -173t-172 -63q-112 0 -169 62.5t-59 173.5h133q4 -56 26.5 -76.5t68.5 -20.5q47 0 70.5 20.5t27.5 76.5z" />
    <glyph glyph-name="abreve" unicode="&#x103;" horiz-adv-x="833" 
d="M582 1434l229 -1434h-227l-39 260h-277l-39 -260h-206l229 1434h330zM406 1180l-109 -725h217zM512 1737h133q0 -110 -59 -173t-172 -63q-112 0 -169 62.5t-59 173.5h133q4 -56 26.5 -76.5t68.5 -20.5q47 0 70.5 20.5t27.5 76.5z" />
    <glyph glyph-name="Aogonek" unicode="&#x104;" horiz-adv-x="833" 
d="M582 1434l229 -1434h-84q-61 -51 -61 -119q0 -28 20.5 -42.5t50.5 -14.5q28 0 74 12v-115q-57 -22 -139 -22q-83 0 -130.5 32.5t-47.5 94.5q0 86 96 149l-45 285h-277l-39 -260h-206l229 1434h330zM406 1180l-109 -725h217z" />
    <glyph glyph-name="aogonek" unicode="&#x105;" horiz-adv-x="833" 
d="M582 1434l229 -1434h-84q-61 -51 -61 -119q0 -28 20.5 -42.5t50.5 -14.5q28 0 74 12v-115q-57 -22 -139 -22q-83 0 -130.5 32.5t-47.5 94.5q0 86 96 149l-45 285h-277l-39 -260h-206l229 1434h330zM406 1180l-109 -725h217z" />
    <glyph glyph-name="Cacute" unicode="&#x106;" horiz-adv-x="790" 
d="M522 535h213v-191q0 -173 -86 -266.5t-250 -93.5t-250 93.5t-86 266.5v746q0 173 86 266.5t250 93.5t250 -93.5t86 -266.5v-140h-213v154q0 141 -116 141q-117 0 -117 -141v-774q0 -140 117 -140q116 0 116 140v205zM420 1737h221l-209 -228h-151z" />
    <glyph glyph-name="cacute" unicode="&#x107;" horiz-adv-x="790" 
d="M522 535h213v-191q0 -173 -86 -266.5t-250 -93.5t-250 93.5t-86 266.5v746q0 173 86 266.5t250 93.5t250 -93.5t86 -266.5v-140h-213v154q0 141 -116 141q-117 0 -117 -141v-774q0 -140 117 -140q116 0 116 140v205zM420 1737h221l-209 -228h-151z" />
    <glyph glyph-name="Ccircumflex" unicode="&#x108;" horiz-adv-x="790" 
d="M522 535h213v-191q0 -173 -86 -266.5t-250 -93.5t-250 93.5t-86 266.5v746q0 173 86 266.5t250 93.5t250 -93.5t86 -266.5v-140h-213v154q0 141 -116 141q-117 0 -117 -141v-774q0 -140 117 -140q116 0 116 140v205zM307 1509h-192l182 228h203l182 -228h-193l-92 113z
" />
    <glyph glyph-name="ccircumflex" unicode="&#x109;" horiz-adv-x="790" 
d="M522 535h213v-191q0 -173 -86 -266.5t-250 -93.5t-250 93.5t-86 266.5v746q0 173 86 266.5t250 93.5t250 -93.5t86 -266.5v-140h-213v154q0 141 -116 141q-117 0 -117 -141v-774q0 -140 117 -140q116 0 116 140v205zM307 1509h-192l182 228h203l182 -228h-193l-92 113z
" />
    <glyph glyph-name="Cdotaccent" unicode="&#x10a;" horiz-adv-x="790" 
d="M522 535h213v-191q0 -173 -86 -266.5t-250 -93.5t-250 93.5t-86 266.5v746q0 173 86 266.5t250 93.5t250 -93.5t86 -266.5v-140h-213v154q0 141 -116 141q-117 0 -117 -141v-774q0 -140 117 -140q116 0 116 140v205zM301 1706h197v-197h-197v197z" />
    <glyph glyph-name="cdotaccent" unicode="&#x10b;" horiz-adv-x="790" 
d="M522 535h213v-191q0 -173 -86 -266.5t-250 -93.5t-250 93.5t-86 266.5v746q0 173 86 266.5t250 93.5t250 -93.5t86 -266.5v-140h-213v154q0 141 -116 141q-117 0 -117 -141v-774q0 -140 117 -140q116 0 116 140v205zM301 1706h197v-197h-197v197z" />
    <glyph glyph-name="Ccaron" unicode="&#x10c;" horiz-adv-x="790" 
d="M522 535h213v-191q0 -173 -86 -266.5t-250 -93.5t-250 93.5t-86 266.5v746q0 173 86 266.5t250 93.5t250 -93.5t86 -266.5v-140h-213v154q0 141 -116 141q-117 0 -117 -141v-774q0 -140 117 -140q116 0 116 140v205zM115 1737h192l90 -115l92 115h193l-182 -228h-203z
" />
    <glyph glyph-name="ccaron" unicode="&#x10d;" horiz-adv-x="790" 
d="M522 535h213v-191q0 -173 -86 -266.5t-250 -93.5t-250 93.5t-86 266.5v746q0 173 86 266.5t250 93.5t250 -93.5t86 -266.5v-140h-213v154q0 141 -116 141q-117 0 -117 -141v-774q0 -140 117 -140q116 0 116 140v205zM115 1737h192l90 -115l92 115h193l-182 -228h-203z
" />
    <glyph glyph-name="Dcaron" unicode="&#x10e;" horiz-adv-x="835" 
d="M82 0v1434h356q167 0 251.5 -91t84.5 -264v-725q0 -173 -84.5 -263.5t-251.5 -90.5h-356zM434 1229h-127v-1024h127q56 0 85.5 32.5t29.5 106.5v746q0 74 -29.5 106.5t-85.5 32.5zM115 1737h192l90 -115l92 115h193l-182 -228h-203z" />
    <glyph glyph-name="dcaron" unicode="&#x10f;" horiz-adv-x="835" 
d="M82 0v1434h356q167 0 251.5 -91t84.5 -264v-725q0 -173 -84.5 -263.5t-251.5 -90.5h-356zM434 1229h-127v-1024h127q56 0 85.5 32.5t29.5 106.5v746q0 74 -29.5 106.5t-85.5 32.5zM115 1737h192l90 -115l92 115h193l-182 -228h-203z" />
    <glyph glyph-name="Dcroat" unicode="&#x110;" horiz-adv-x="835" 
d="M82 0v625h-74v184h74v625h356q167 0 251.5 -91t84.5 -264v-725q0 -173 -84.5 -263.5t-251.5 -90.5h-356zM434 1229h-127v-420h139v-184h-139v-420h127q56 0 85.5 32.5t29.5 106.5v746q0 74 -29.5 106.5t-85.5 32.5z" />
    <glyph glyph-name="dcroat" unicode="&#x111;" horiz-adv-x="835" 
d="M82 0v625h-74v184h74v625h356q167 0 251.5 -91t84.5 -264v-725q0 -173 -84.5 -263.5t-251.5 -90.5h-356zM434 1229h-127v-420h139v-184h-139v-420h127q56 0 85.5 32.5t29.5 106.5v746q0 74 -29.5 106.5t-85.5 32.5z" />
    <glyph glyph-name="Emacron" unicode="&#x112;" horiz-adv-x="753" 
d="M307 1229v-400h309v-204h-309v-420h389v-205h-614v1434h614v-205h-389zM150 1677h471v-159h-471v159z" />
    <glyph glyph-name="emacron" unicode="&#x113;" horiz-adv-x="753" 
d="M307 1229v-400h309v-204h-309v-420h389v-205h-614v1434h614v-205h-389zM150 1677h471v-159h-471v159z" />
    <glyph glyph-name="Ebreve" unicode="&#x114;" horiz-adv-x="753" 
d="M307 1229v-400h309v-204h-309v-420h389v-205h-614v1434h614v-205h-389zM481 1737h133q0 -110 -59 -173t-172 -63q-112 0 -168.5 62.5t-58.5 173.5h133q4 -56 26.5 -76.5t67.5 -20.5q47 0 70.5 20.5t27.5 76.5z" />
    <glyph glyph-name="ebreve" unicode="&#x115;" horiz-adv-x="753" 
d="M307 1229v-400h309v-204h-309v-420h389v-205h-614v1434h614v-205h-389zM481 1737h133q0 -110 -59 -173t-172 -63q-112 0 -168.5 62.5t-58.5 173.5h133q4 -56 26.5 -76.5t67.5 -20.5q47 0 70.5 20.5t27.5 76.5z" />
    <glyph glyph-name="Edotaccent" unicode="&#x116;" horiz-adv-x="753" 
d="M307 1229v-400h309v-204h-309v-420h389v-205h-614v1434h614v-205h-389zM287 1706h196v-197h-196v197z" />
    <glyph glyph-name="edotaccent" unicode="&#x117;" horiz-adv-x="753" 
d="M307 1229v-400h309v-204h-309v-420h389v-205h-614v1434h614v-205h-389zM287 1706h196v-197h-196v197z" />
    <glyph glyph-name="Eogonek" unicode="&#x118;" horiz-adv-x="753" 
d="M307 1229v-400h309v-204h-309v-420h389v-205h-84q-61 -51 -61 -119q0 -28 21 -42.5t51 -14.5q27 0 73 12v-115q-57 -22 -139 -22q-83 0 -130.5 32.5t-47.5 94.5q0 104 137 174h-434v1434h614v-205h-389z" />
    <glyph glyph-name="eogonek" unicode="&#x119;" horiz-adv-x="753" 
d="M307 1229v-400h309v-204h-309v-420h389v-205h-84q-61 -51 -61 -119q0 -28 21 -42.5t51 -14.5q27 0 73 12v-115q-57 -22 -139 -22q-83 0 -130.5 32.5t-47.5 94.5q0 104 137 174h-434v1434h614v-205h-389z" />
    <glyph glyph-name="Ecaron" unicode="&#x11a;" horiz-adv-x="753" 
d="M307 1229v-400h309v-204h-309v-420h389v-205h-614v1434h614v-205h-389zM100 1737h193l90 -115l92 115h193l-183 -228h-202z" />
    <glyph glyph-name="ecaron" unicode="&#x11b;" horiz-adv-x="753" 
d="M307 1229v-400h309v-204h-309v-420h389v-205h-614v1434h614v-205h-389zM100 1737h193l90 -115l92 115h193l-183 -228h-202z" />
    <glyph glyph-name="Gcircumflex" unicode="&#x11c;" horiz-adv-x="798" 
d="M420 594v205h315v-455q0 -173 -86 -266.5t-250 -93.5t-250 93.5t-86 266.5v746q0 173 86 266.5t250 93.5t250 -93.5t86 -266.5v-140h-213v154q0 141 -116 141q-117 0 -117 -141v-774q0 -140 117 -140q116 0 116 140v264h-102zM307 1509h-192l182 228h203l182 -228h-193
l-92 113z" />
    <glyph glyph-name="gcircumflex" unicode="&#x11d;" horiz-adv-x="798" 
d="M420 594v205h315v-455q0 -173 -86 -266.5t-250 -93.5t-250 93.5t-86 266.5v746q0 173 86 266.5t250 93.5t250 -93.5t86 -266.5v-140h-213v154q0 141 -116 141q-117 0 -117 -141v-774q0 -140 117 -140q116 0 116 140v264h-102zM307 1509h-192l182 228h203l182 -228h-193
l-92 113z" />
    <glyph glyph-name="Gbreve" unicode="&#x11e;" horiz-adv-x="798" 
d="M420 594v205h315v-455q0 -173 -86 -266.5t-250 -93.5t-250 93.5t-86 266.5v746q0 173 86 266.5t250 93.5t250 -93.5t86 -266.5v-140h-213v154q0 141 -116 141q-117 0 -117 -141v-774q0 -140 117 -140q116 0 116 140v264h-102zM494 1737h133q0 -110 -59.5 -173t-172.5 -63
q-112 0 -168.5 62.5t-58.5 173.5h133q4 -56 26.5 -76.5t67.5 -20.5q47 0 71 20.5t28 76.5z" />
    <glyph glyph-name="gbreve" unicode="&#x11f;" horiz-adv-x="798" 
d="M420 594v205h315v-455q0 -173 -86 -266.5t-250 -93.5t-250 93.5t-86 266.5v746q0 173 86 266.5t250 93.5t250 -93.5t86 -266.5v-140h-213v154q0 141 -116 141q-117 0 -117 -141v-774q0 -140 117 -140q116 0 116 140v264h-102zM494 1737h133q0 -110 -59.5 -173t-172.5 -63
q-112 0 -168.5 62.5t-58.5 173.5h133q4 -56 26.5 -76.5t67.5 -20.5q47 0 71 20.5t28 76.5z" />
    <glyph glyph-name="Gdotaccent" unicode="&#x120;" horiz-adv-x="798" 
d="M420 594v205h315v-455q0 -173 -86 -266.5t-250 -93.5t-250 93.5t-86 266.5v746q0 173 86 266.5t250 93.5t250 -93.5t86 -266.5v-140h-213v154q0 141 -116 141q-117 0 -117 -141v-774q0 -140 117 -140q116 0 116 140v264h-102zM299 1706h197v-197h-197v197z" />
    <glyph glyph-name="gdotaccent" unicode="&#x121;" horiz-adv-x="798" 
d="M420 594v205h315v-455q0 -173 -86 -266.5t-250 -93.5t-250 93.5t-86 266.5v746q0 173 86 266.5t250 93.5t250 -93.5t86 -266.5v-140h-213v154q0 141 -116 141q-117 0 -117 -141v-774q0 -140 117 -140q116 0 116 140v264h-102zM299 1706h197v-197h-197v197z" />
    <glyph glyph-name="uni0122" unicode="&#x122;" horiz-adv-x="798" 
d="M420 594v205h315v-455q0 -173 -86 -266.5t-250 -93.5t-250 93.5t-86 266.5v746q0 173 86 266.5t250 93.5t250 -93.5t86 -266.5v-140h-213v154q0 141 -116 141q-117 0 -117 -141v-774q0 -140 117 -140q116 0 116 140v264h-102zM379 -256h-74v188h189v-168l-88 -131h-80z
" />
    <glyph glyph-name="uni0123" unicode="&#x123;" horiz-adv-x="798" 
d="M420 594v205h315v-455q0 -173 -86 -266.5t-250 -93.5t-250 93.5t-86 266.5v746q0 173 86 266.5t250 93.5t250 -93.5t86 -266.5v-140h-213v154q0 141 -116 141q-117 0 -117 -141v-774q0 -140 117 -140q116 0 116 140v264h-102zM379 -256h-74v188h189v-168l-88 -131h-80z
" />
    <glyph glyph-name="Hcircumflex" unicode="&#x124;" horiz-adv-x="874" 
d="M307 614v-614h-225v1434h225v-615h256v615h230v-1434h-230v614h-256zM346 1509h-192l182 228h203l182 -228h-193l-92 113z" />
    <glyph glyph-name="hcircumflex" unicode="&#x125;" horiz-adv-x="874" 
d="M307 614v-614h-225v1434h225v-615h256v615h230v-1434h-230v614h-256zM346 1509h-192l182 228h203l182 -228h-193l-92 113z" />
    <glyph glyph-name="Hbar" unicode="&#x126;" horiz-adv-x="894" 
d="M317 614v-614h-225v1028h-72v168h72v238h225v-238h256v238h230v-238h71v-168h-71v-1028h-230v614h-256zM317 819h256v209h-256v-209z" />
    <glyph glyph-name="hbar" unicode="&#x127;" horiz-adv-x="894" 
d="M317 614v-614h-225v1028h-72v168h72v238h225v-238h256v238h230v-238h71v-168h-71v-1028h-230v614h-256zM317 819h256v209h-256v-209z" />
    <glyph glyph-name="Itilde" unicode="&#x128;" horiz-adv-x="389" 
d="M82 0v1434h225v-1434h-225zM276 1665q31 0 51.5 11.5t37.5 47.5l108 -75q-53 -140 -174 -140q-46 0 -101.5 26t-82.5 26q-31 0 -50.5 -12t-37.5 -48l-109 76q52 139 174 139q46 0 101.5 -25.5t82.5 -25.5z" />
    <glyph glyph-name="itilde" unicode="&#x129;" horiz-adv-x="389" 
d="M82 0v1434h225v-1434h-225zM276 1665q31 0 51.5 11.5t37.5 47.5l108 -75q-53 -140 -174 -140q-46 0 -101.5 26t-82.5 26q-31 0 -50.5 -12t-37.5 -48l-109 76q52 139 174 139q46 0 101.5 -25.5t82.5 -25.5z" />
    <glyph glyph-name="Imacron" unicode="&#x12a;" horiz-adv-x="389" 
d="M82 0v1434h225v-1434h-225zM-41 1677h471v-159h-471v159z" />
    <glyph glyph-name="imacron" unicode="&#x12b;" horiz-adv-x="389" 
d="M82 0v1434h225v-1434h-225zM-41 1677h471v-159h-471v159z" />
    <glyph glyph-name="Ibreve" unicode="&#x12c;" horiz-adv-x="389" 
d="M82 0v1434h225v-1434h-225zM291 1737h133q0 -110 -59 -173t-172 -63q-112 0 -169 62.5t-59 173.5h133q4 -56 26.5 -76.5t68.5 -20.5q47 0 70.5 20.5t27.5 76.5z" />
    <glyph glyph-name="ibreve" unicode="&#x12d;" horiz-adv-x="389" 
d="M82 0v1434h225v-1434h-225zM291 1737h133q0 -110 -59 -173t-172 -63q-112 0 -169 62.5t-59 173.5h133q4 -56 26.5 -76.5t68.5 -20.5q47 0 70.5 20.5t27.5 76.5z" />
    <glyph glyph-name="Iogonek" unicode="&#x12e;" horiz-adv-x="389" 
d="M82 0v1434h225v-1434h-41q-61 -51 -61 -119q0 -28 20.5 -42.5t50.5 -14.5q28 0 74 12v-115q-57 -22 -139 -22q-83 0 -130.5 32.5t-47.5 94.5q0 104 137 174h-88z" />
    <glyph glyph-name="iogonek" unicode="&#x12f;" horiz-adv-x="389" 
d="M82 0v1434h225v-1434h-41q-61 -51 -61 -119q0 -28 20.5 -42.5t50.5 -14.5q28 0 74 12v-115q-57 -22 -139 -22q-83 0 -130.5 32.5t-47.5 94.5q0 104 137 174h-88z" />
    <glyph glyph-name="Idotaccent" unicode="&#x130;" horiz-adv-x="389" 
d="M82 0v1434h225v-1434h-225zM96 1706h197v-197h-197v197z" />
    <glyph glyph-name="dotlessi" unicode="&#x131;" horiz-adv-x="389" 
d="M82 0v1434h225v-1434h-225z" />
    <glyph glyph-name="IJ" unicode="&#x132;" horiz-adv-x="913" 
d="M82 0v1434h225v-1434h-225zM410 0v205q25 -2 77 -2q61 0 95 30t34 107v1094h226v-1078q0 -360 -324 -360q-71 0 -108 4z" />
    <glyph glyph-name="ij" unicode="&#x133;" horiz-adv-x="913" 
d="M82 0v1434h225v-1434h-225zM410 0v205q25 -2 77 -2q61 0 95 30t34 107v1094h226v-1078q0 -360 -324 -360q-71 0 -108 4z" />
    <glyph glyph-name="Jcircumflex" unicode="&#x134;" horiz-adv-x="524" 
d="M20 0v205q25 -2 78 -2q61 0 95 30t34 107v1094h226v-1078q0 -360 -324 -360q-72 0 -109 4zM211 1509h-193l183 228h202l183 -228h-193l-92 113z" />
    <glyph glyph-name="jcircumflex" unicode="&#x135;" horiz-adv-x="524" 
d="M20 0v205q25 -2 78 -2q61 0 95 30t34 107v1094h226v-1078q0 -360 -324 -360q-72 0 -109 4zM211 1509h-193l183 228h202l183 -228h-193l-92 113z" />
    <glyph glyph-name="uni0136" unicode="&#x136;" horiz-adv-x="847" 
d="M596 0l-219 571l-70 -131v-440h-225v1434h225v-625l295 625h225l-313 -639l313 -795h-231zM420 -256h-74v188h189v-168l-89 -131h-79z" />
    <glyph glyph-name="uni0137" unicode="&#x137;" horiz-adv-x="847" 
d="M596 0l-219 571l-70 -131v-440h-225v1434h225v-625l295 625h225l-313 -639l313 -795h-231zM420 -256h-74v188h189v-168l-89 -131h-79z" />
    <glyph glyph-name="kgreenlandic" unicode="&#x138;" horiz-adv-x="847" 
d="M596 0l-219 571l-70 -131v-440h-225v1434h225v-625l295 625h225l-313 -639l313 -795h-231z" />
    <glyph glyph-name="Lacute" unicode="&#x139;" horiz-adv-x="694" 
d="M82 0v1434h225v-1229h371v-205h-596zM287 1737h221l-209 -228h-152z" />
    <glyph glyph-name="lacute" unicode="&#x13a;" horiz-adv-x="694" 
d="M82 0v1434h225v-1229h371v-205h-596zM287 1737h221l-209 -228h-152z" />
    <glyph glyph-name="uni013B" unicode="&#x13b;" horiz-adv-x="694" 
d="M82 0v1434h225v-1229h371v-205h-596zM360 -256h-73v188h188v-168l-88 -131h-80z" />
    <glyph glyph-name="uni013C" unicode="&#x13c;" horiz-adv-x="694" 
d="M82 0v1434h225v-1229h371v-205h-596zM360 -256h-73v188h188v-168l-88 -131h-80z" />
    <glyph glyph-name="Lcaron" unicode="&#x13d;" horiz-adv-x="694" 
d="M82 0v1434h225v-1229h371v-205h-596zM518 1217h-86v217h217v-195l-98 -227h-92z" />
    <glyph glyph-name="lcaron" unicode="&#x13e;" horiz-adv-x="694" 
d="M82 0v1434h225v-1229h371v-205h-596zM518 1217h-86v217h217v-195l-98 -227h-92z" />
    <glyph glyph-name="Ldot" unicode="&#x13f;" horiz-adv-x="694" 
d="M82 0v1434h225v-1229h371v-205h-596zM430 825h217v-217h-217v217z" />
    <glyph glyph-name="ldot" unicode="&#x140;" horiz-adv-x="694" 
d="M82 0v1434h225v-1229h371v-205h-596zM430 825h217v-217h-217v217z" />
    <glyph glyph-name="Lslash" unicode="&#x141;" horiz-adv-x="712" 
d="M0 195v204l100 107v928h226v-686l247 266v-205l-247 -266v-338h370v-205h-596v301z" />
    <glyph glyph-name="lslash" unicode="&#x142;" horiz-adv-x="712" 
d="M0 195v204l100 107v928h226v-686l247 266v-205l-247 -266v-338h370v-205h-596v301z" />
    <glyph glyph-name="Nacute" unicode="&#x143;" horiz-adv-x="874" 
d="M563 0l-280 1038v-1038h-203v1434h282l232 -859v859h201v-1434h-232zM457 1737h221l-209 -228h-152z" />
    <glyph glyph-name="nacute" unicode="&#x144;" horiz-adv-x="874" 
d="M563 0l-280 1038v-1038h-203v1434h282l232 -859v859h201v-1434h-232zM457 1737h221l-209 -228h-152z" />
    <glyph glyph-name="uni0145" unicode="&#x145;" horiz-adv-x="874" 
d="M563 0l-280 1038v-1038h-203v1434h282l232 -859v859h201v-1434h-232zM416 -256h-74v188h188v-168l-88 -131h-80z" />
    <glyph glyph-name="uni0146" unicode="&#x146;" horiz-adv-x="874" 
d="M563 0l-280 1038v-1038h-203v1434h282l232 -859v859h201v-1434h-232zM416 -256h-74v188h188v-168l-88 -131h-80z" />
    <glyph glyph-name="Ncaron" unicode="&#x147;" horiz-adv-x="874" 
d="M563 0l-280 1038v-1038h-203v1434h282l232 -859v859h201v-1434h-232zM154 1737h192l90 -115l92 115h193l-182 -228h-203z" />
    <glyph glyph-name="ncaron" unicode="&#x148;" horiz-adv-x="874" 
d="M563 0l-280 1038v-1038h-203v1434h282l232 -859v859h201v-1434h-232zM154 1737h192l90 -115l92 115h193l-182 -228h-203z" />
    <glyph glyph-name="napostrophe" unicode="&#x149;" horiz-adv-x="1112" 
d="M801 0l-281 1038v-1038h-203v1434h283l231 -859v859h201v-1434h-231zM96 1217h-86v217h217v-195l-98 -227h-92z" />
    <glyph glyph-name="Omacron" unicode="&#x14c;" 
d="M289 1104v-774q0 -142 117 -142q116 0 116 142v774q0 141 -116 141q-117 0 -117 -141zM63 344v746q0 172 89 266t254 94t253.5 -94t88.5 -266v-746q0 -172 -88.5 -266t-253.5 -94t-254 94t-89 266zM170 1677h471v-159h-471v159z" />
    <glyph glyph-name="omacron" unicode="&#x14d;" 
d="M289 1104v-774q0 -142 117 -142q116 0 116 142v774q0 141 -116 141q-117 0 -117 -141zM63 344v746q0 172 89 266t254 94t253.5 -94t88.5 -266v-746q0 -172 -88.5 -266t-253.5 -94t-254 94t-89 266zM170 1677h471v-159h-471v159z" />
    <glyph glyph-name="Obreve" unicode="&#x14e;" 
d="M289 1104v-774q0 -142 117 -142q116 0 116 142v774q0 141 -116 141q-117 0 -117 -141zM63 344v746q0 172 89 266t254 94t253.5 -94t88.5 -266v-746q0 -172 -88.5 -266t-253.5 -94t-254 94t-89 266zM502 1737h133q0 -110 -59.5 -173t-172.5 -63q-112 0 -168.5 62.5
t-58.5 173.5h133q4 -56 26.5 -76.5t67.5 -20.5q47 0 71 20.5t28 76.5z" />
    <glyph glyph-name="obreve" unicode="&#x14f;" 
d="M289 1104v-774q0 -142 117 -142q116 0 116 142v774q0 141 -116 141q-117 0 -117 -141zM63 344v746q0 172 89 266t254 94t253.5 -94t88.5 -266v-746q0 -172 -88.5 -266t-253.5 -94t-254 94t-89 266zM502 1737h133q0 -110 -59.5 -173t-172.5 -63q-112 0 -168.5 62.5
t-58.5 173.5h133q4 -56 26.5 -76.5t67.5 -20.5q47 0 71 20.5t28 76.5z" />
    <glyph glyph-name="Ohungarumlaut" unicode="&#x150;" 
d="M289 1104v-774q0 -142 117 -142q116 0 116 142v774q0 141 -116 141q-117 0 -117 -141zM63 344v746q0 172 89 266t254 94t253.5 -94t88.5 -266v-746q0 -172 -88.5 -266t-253.5 -94t-254 94t-89 266zM270 1737h205l-170 -228h-137zM537 1737h206l-172 -228h-135z" />
    <glyph glyph-name="ohungarumlaut" unicode="&#x151;" 
d="M289 1104v-774q0 -142 117 -142q116 0 116 142v774q0 141 -116 141q-117 0 -117 -141zM63 344v746q0 172 89 266t254 94t253.5 -94t88.5 -266v-746q0 -172 -88.5 -266t-253.5 -94t-254 94t-89 266zM270 1737h205l-170 -228h-137zM537 1737h206l-172 -228h-135z" />
    <glyph glyph-name="OE" unicode="&#x152;" horiz-adv-x="1200" 
d="M754 1229v-400h309v-204h-309v-420h389v-205h-746q-167 0 -251.5 90.5t-84.5 263.5v725q0 173 84.5 264t251.5 91h746v-205h-389zM528 205v1024h-127q-56 0 -85 -32.5t-29 -106.5v-746q0 -74 29 -106.5t85 -32.5h127z" />
    <glyph glyph-name="oe" unicode="&#x153;" horiz-adv-x="1200" 
d="M754 1229v-400h309v-204h-309v-420h389v-205h-746q-167 0 -251.5 90.5t-84.5 263.5v725q0 173 84.5 264t251.5 91h746v-205h-389zM528 205v1024h-127q-56 0 -85 -32.5t-29 -106.5v-746q0 -74 29 -106.5t85 -32.5h127z" />
    <glyph glyph-name="Racute" unicode="&#x154;" horiz-adv-x="823" 
d="M782 0h-229q-8 25 -11 37.5t-6.5 48t-3.5 90.5v225q0 99 -35 141t-112 42h-78v-584h-225v1434h340q173 0 253.5 -81t80.5 -249v-113q0 -221 -148 -291q81 -34 115.5 -110t34.5 -195v-221q0 -119 24 -174zM416 1229h-109v-441h88q67 0 101 34.5t34 117.5v141
q0 77 -27 112.5t-87 35.5zM420 1737h221l-209 -228h-151z" />
    <glyph glyph-name="racute" unicode="&#x155;" horiz-adv-x="823" 
d="M782 0h-229q-8 25 -11 37.5t-6.5 48t-3.5 90.5v225q0 99 -35 141t-112 42h-78v-584h-225v1434h340q173 0 253.5 -81t80.5 -249v-113q0 -221 -148 -291q81 -34 115.5 -110t34.5 -195v-221q0 -119 24 -174zM416 1229h-109v-441h88q67 0 101 34.5t34 117.5v141
q0 77 -27 112.5t-87 35.5zM420 1737h221l-209 -228h-151z" />
    <glyph glyph-name="uni0156" unicode="&#x156;" horiz-adv-x="823" 
d="M782 0h-229q-8 25 -11 37.5t-6.5 48t-3.5 90.5v225q0 99 -35 141t-112 42h-78v-584h-225v1434h340q173 0 253.5 -81t80.5 -249v-113q0 -221 -148 -291q81 -34 115.5 -110t34.5 -195v-221q0 -119 24 -174zM416 1229h-109v-441h88q67 0 101 34.5t34 117.5v141
q0 77 -27 112.5t-87 35.5zM395 -256h-73v188h188v-168l-88 -131h-80z" />
    <glyph glyph-name="uni0157" unicode="&#x157;" horiz-adv-x="823" 
d="M782 0h-229q-8 25 -11 37.5t-6.5 48t-3.5 90.5v225q0 99 -35 141t-112 42h-78v-584h-225v1434h340q173 0 253.5 -81t80.5 -249v-113q0 -221 -148 -291q81 -34 115.5 -110t34.5 -195v-221q0 -119 24 -174zM416 1229h-109v-441h88q67 0 101 34.5t34 117.5v141
q0 77 -27 112.5t-87 35.5zM395 -256h-73v188h188v-168l-88 -131h-80z" />
    <glyph glyph-name="Rcaron" unicode="&#x158;" horiz-adv-x="823" 
d="M782 0h-229q-8 25 -11 37.5t-6.5 48t-3.5 90.5v225q0 99 -35 141t-112 42h-78v-584h-225v1434h340q173 0 253.5 -81t80.5 -249v-113q0 -221 -148 -291q81 -34 115.5 -110t34.5 -195v-221q0 -119 24 -174zM416 1229h-109v-441h88q67 0 101 34.5t34 117.5v141
q0 77 -27 112.5t-87 35.5zM115 1737h192l90 -115l92 115h193l-182 -228h-203z" />
    <glyph glyph-name="rcaron" unicode="&#x159;" horiz-adv-x="823" 
d="M782 0h-229q-8 25 -11 37.5t-6.5 48t-3.5 90.5v225q0 99 -35 141t-112 42h-78v-584h-225v1434h340q173 0 253.5 -81t80.5 -249v-113q0 -221 -148 -291q81 -34 115.5 -110t34.5 -195v-221q0 -119 24 -174zM416 1229h-109v-441h88q67 0 101 34.5t34 117.5v141
q0 77 -27 112.5t-87 35.5zM115 1737h192l90 -115l92 115h193l-182 -228h-203z" />
    <glyph glyph-name="Sacute" unicode="&#x15a;" horiz-adv-x="765" 
d="M53 1090q0 173 84.5 266.5t247.5 93.5t247.5 -93.5t84.5 -266.5v-46h-213v60q0 141 -113 141q-56 0 -84 -33.5t-28 -107.5q0 -60 24.5 -113t63 -95.5t85.5 -85t94 -89t85.5 -98.5t63 -124t24.5 -155q0 -173 -86 -266.5t-250 -93.5t-250 93.5t-86 266.5v88h213v-102
q0 -140 117 -140t117 140q0 60 -24.5 113t-63 95.5t-85.5 85t-94.5 89t-86 98.5t-63 124t-24.5 155zM403 1737h222l-209 -228h-152z" />
    <glyph glyph-name="sacute" unicode="&#x15b;" horiz-adv-x="765" 
d="M53 1090q0 173 84.5 266.5t247.5 93.5t247.5 -93.5t84.5 -266.5v-46h-213v60q0 141 -113 141q-56 0 -84 -33.5t-28 -107.5q0 -60 24.5 -113t63 -95.5t85.5 -85t94 -89t85.5 -98.5t63 -124t24.5 -155q0 -173 -86 -266.5t-250 -93.5t-250 93.5t-86 266.5v88h213v-102
q0 -140 117 -140t117 140q0 60 -24.5 113t-63 95.5t-85.5 85t-94.5 89t-86 98.5t-63 124t-24.5 155zM403 1737h222l-209 -228h-152z" />
    <glyph glyph-name="Scircumflex" unicode="&#x15c;" horiz-adv-x="765" 
d="M53 1090q0 173 84.5 266.5t247.5 93.5t247.5 -93.5t84.5 -266.5v-46h-213v60q0 141 -113 141q-56 0 -84 -33.5t-28 -107.5q0 -60 24.5 -113t63 -95.5t85.5 -85t94 -89t85.5 -98.5t63 -124t24.5 -155q0 -173 -86 -266.5t-250 -93.5t-250 93.5t-86 266.5v88h213v-102
q0 -140 117 -140t117 140q0 60 -24.5 113t-63 95.5t-85.5 85t-94.5 89t-86 98.5t-63 124t-24.5 155zM291 1509h-193l183 228h202l183 -228h-193l-92 113z" />
    <glyph glyph-name="scircumflex" unicode="&#x15d;" horiz-adv-x="765" 
d="M53 1090q0 173 84.5 266.5t247.5 93.5t247.5 -93.5t84.5 -266.5v-46h-213v60q0 141 -113 141q-56 0 -84 -33.5t-28 -107.5q0 -60 24.5 -113t63 -95.5t85.5 -85t94 -89t85.5 -98.5t63 -124t24.5 -155q0 -173 -86 -266.5t-250 -93.5t-250 93.5t-86 266.5v88h213v-102
q0 -140 117 -140t117 140q0 60 -24.5 113t-63 95.5t-85.5 85t-94.5 89t-86 98.5t-63 124t-24.5 155zM291 1509h-193l183 228h202l183 -228h-193l-92 113z" />
    <glyph glyph-name="Scedilla" unicode="&#x15e;" horiz-adv-x="765" 
d="M53 1090q0 173 84.5 266.5t247.5 93.5t247.5 -93.5t84.5 -266.5v-46h-213v60q0 141 -113 141q-56 0 -84 -33.5t-28 -107.5q0 -60 24.5 -113t63 -95.5t85.5 -85t94 -89t85.5 -98.5t63 -124t24.5 -155q0 -164 -76 -256t-223 -102v-66q78 0 114.5 -22t36.5 -74
q0 -33 -10.5 -56t-27 -36t-44.5 -20.5t-56 -10t-68 -2.5q-94 0 -145.5 26.5t-51.5 92.5v20h151v-16q0 -41 46 -41q51 0 51 49q0 29 -18 41t-56 12h-20v105q-136 17 -205.5 108.5t-69.5 247.5v88h213v-102q0 -140 117 -140t117 140q0 60 -24.5 113t-63 95.5t-85.5 85
t-94.5 89t-86 98.5t-63 124t-24.5 155z" />
    <glyph glyph-name="scedilla" unicode="&#x15f;" horiz-adv-x="765" 
d="M53 1090q0 173 84.5 266.5t247.5 93.5t247.5 -93.5t84.5 -266.5v-46h-213v60q0 141 -113 141q-56 0 -84 -33.5t-28 -107.5q0 -60 24.5 -113t63 -95.5t85.5 -85t94 -89t85.5 -98.5t63 -124t24.5 -155q0 -164 -76 -256t-223 -102v-66q78 0 114.5 -22t36.5 -74
q0 -33 -10.5 -56t-27 -36t-44.5 -20.5t-56 -10t-68 -2.5q-94 0 -145.5 26.5t-51.5 92.5v20h151v-16q0 -41 46 -41q51 0 51 49q0 29 -18 41t-56 12h-20v105q-136 17 -205.5 108.5t-69.5 247.5v88h213v-102q0 -140 117 -140t117 140q0 60 -24.5 113t-63 95.5t-85.5 85
t-94.5 89t-86 98.5t-63 124t-24.5 155z" />
    <glyph glyph-name="Scaron" unicode="&#x160;" horiz-adv-x="765" 
d="M53 1090q0 173 84.5 266.5t247.5 93.5t247.5 -93.5t84.5 -266.5v-46h-213v60q0 141 -113 141q-56 0 -84 -33.5t-28 -107.5q0 -60 24.5 -113t63 -95.5t85.5 -85t94 -89t85.5 -98.5t63 -124t24.5 -155q0 -173 -86 -266.5t-250 -93.5t-250 93.5t-86 266.5v88h213v-102
q0 -140 117 -140t117 140q0 60 -24.5 113t-63 95.5t-85.5 85t-94.5 89t-86 98.5t-63 124t-24.5 155zM100 1737h193l90 -115l92 115h193l-183 -228h-202z" />
    <glyph glyph-name="scaron" unicode="&#x161;" horiz-adv-x="765" 
d="M53 1090q0 173 84.5 266.5t247.5 93.5t247.5 -93.5t84.5 -266.5v-46h-213v60q0 141 -113 141q-56 0 -84 -33.5t-28 -107.5q0 -60 24.5 -113t63 -95.5t85.5 -85t94 -89t85.5 -98.5t63 -124t24.5 -155q0 -173 -86 -266.5t-250 -93.5t-250 93.5t-86 266.5v88h213v-102
q0 -140 117 -140t117 140q0 60 -24.5 113t-63 95.5t-85.5 85t-94.5 89t-86 98.5t-63 124t-24.5 155zM98 1737h193l90 -115l92 115h193l-183 -228h-202z" />
    <glyph glyph-name="uni0162" unicode="&#x162;" horiz-adv-x="729" 
d="M180 -223v20h131v-20q0 -37 43 -37q54 0 54 53q0 57 -74 57h-23v150h-59v1229h-236v205h697v-205h-236v-1229h-63v-80q60 0 94.5 -31.5t34.5 -85.5q0 -87 -52.5 -127.5t-134.5 -40.5q-74 0 -125 37.5t-51 104.5z" />
    <glyph glyph-name="uni0163" unicode="&#x163;" horiz-adv-x="729" 
d="M180 -223v20h131v-20q0 -37 43 -37q54 0 54 53q0 57 -74 57h-23v150h-59v1229h-236v205h697v-205h-236v-1229h-63v-80q60 0 94.5 -31.5t34.5 -85.5q0 -87 -52.5 -127.5t-134.5 -40.5q-74 0 -125 37.5t-51 104.5z" />
    <glyph glyph-name="Tcaron" unicode="&#x164;" horiz-adv-x="729" 
d="M16 1229v205h697v-205h-236v-1229h-225v1229h-236zM80 1737h192l90 -115l93 115h192l-182 -228h-203z" />
    <glyph glyph-name="tcaron" unicode="&#x165;" horiz-adv-x="729" 
d="M16 1229v205h697v-205h-236v-1229h-225v1229h-236zM80 1737h192l90 -115l93 115h192l-182 -228h-203z" />
    <glyph glyph-name="Tbar" unicode="&#x166;" horiz-adv-x="729" 
d="M117 997h135v232h-236v205h697v-205h-236v-232h135v-168h-135v-829h-225v829h-135v168z" />
    <glyph glyph-name="tbar" unicode="&#x167;" horiz-adv-x="729" 
d="M117 997h135v232h-236v205h697v-205h-236v-232h135v-168h-135v-829h-225v829h-135v168z" />
    <glyph glyph-name="Utilde" unicode="&#x168;" horiz-adv-x="815" 
d="M72 1434h225v-1106q0 -140 117 -140q116 0 116 140v1106h213v-1092q0 -173 -85.5 -266.5t-249.5 -93.5t-250 93.5t-86 266.5v1092zM492 1665q31 0 51 11.5t37 47.5l108 -75q-52 -140 -174 -140q-46 0 -101.5 26t-82.5 26q-31 0 -50.5 -12t-37.5 -48l-109 76
q52 139 174 139q46 0 102 -25.5t83 -25.5z" />
    <glyph glyph-name="utilde" unicode="&#x169;" horiz-adv-x="815" 
d="M72 1434h225v-1106q0 -140 117 -140q116 0 116 140v1106h213v-1092q0 -173 -85.5 -266.5t-249.5 -93.5t-250 93.5t-86 266.5v1092zM492 1665q31 0 51 11.5t37 47.5l108 -75q-52 -140 -174 -140q-46 0 -101.5 26t-82.5 26q-31 0 -50.5 -12t-37.5 -48l-109 76
q52 139 174 139q46 0 102 -25.5t83 -25.5z" />
    <glyph glyph-name="Umacron" unicode="&#x16a;" horiz-adv-x="815" 
d="M72 1434h225v-1106q0 -140 117 -140q116 0 116 140v1106h213v-1092q0 -173 -85.5 -266.5t-249.5 -93.5t-250 93.5t-86 266.5v1092zM174 1677h471v-159h-471v159z" />
    <glyph glyph-name="umacron" unicode="&#x16b;" horiz-adv-x="815" 
d="M72 1434h225v-1106q0 -140 117 -140q116 0 116 140v1106h213v-1092q0 -173 -85.5 -266.5t-249.5 -93.5t-250 93.5t-86 266.5v1092zM174 1677h471v-159h-471v159z" />
    <glyph glyph-name="Ubreve" unicode="&#x16c;" horiz-adv-x="815" 
d="M72 1434h225v-1106q0 -140 117 -140q116 0 116 140v1106h213v-1092q0 -173 -85.5 -266.5t-249.5 -93.5t-250 93.5t-86 266.5v1092zM506 1737h133q0 -110 -59 -173t-172 -63q-112 0 -169 62.5t-59 173.5h133q4 -56 26.5 -76.5t68.5 -20.5q47 0 70.5 20.5t27.5 76.5z" />
    <glyph glyph-name="ubreve" unicode="&#x16d;" horiz-adv-x="815" 
d="M72 1434h225v-1106q0 -140 117 -140q116 0 116 140v1106h213v-1092q0 -173 -85.5 -266.5t-249.5 -93.5t-250 93.5t-86 266.5v1092zM506 1737h133q0 -110 -59 -173t-172 -63q-112 0 -169 62.5t-59 173.5h133q4 -56 26.5 -76.5t68.5 -20.5q47 0 70.5 20.5t27.5 76.5z" />
    <glyph glyph-name="Uring" unicode="&#x16e;" horiz-adv-x="815" 
d="M72 1434h225v-1106q0 -140 117 -140q116 0 116 140v1106h213v-1092q0 -173 -85.5 -266.5t-249.5 -93.5t-250 93.5t-86 266.5v1092zM246 1667q0 69 47.5 116.5t116.5 47.5t116 -47.5t47 -116.5t-47 -116.5t-116 -47.5t-116.5 47.5t-47.5 116.5zM348 1667q0 -26 18 -43.5
t44 -17.5t43.5 17.5t17.5 43.5t-17.5 44t-43.5 18t-44 -18t-18 -44z" />
    <glyph glyph-name="uring" unicode="&#x16f;" horiz-adv-x="815" 
d="M72 1434h225v-1106q0 -140 117 -140q116 0 116 140v1106h213v-1092q0 -173 -85.5 -266.5t-249.5 -93.5t-250 93.5t-86 266.5v1092zM246 1667q0 69 47.5 116.5t116.5 47.5t116 -47.5t47 -116.5t-47 -116.5t-116 -47.5t-116.5 47.5t-47.5 116.5zM348 1667q0 -26 18 -43.5
t44 -17.5t43.5 17.5t17.5 43.5t-17.5 44t-43.5 18t-44 -18t-18 -44z" />
    <glyph glyph-name="Uhungarumlaut" unicode="&#x170;" horiz-adv-x="815" 
d="M72 1434h225v-1106q0 -140 117 -140q116 0 116 140v1106h213v-1092q0 -173 -85.5 -266.5t-249.5 -93.5t-250 93.5t-86 266.5v1092zM274 1737h205l-170 -228h-137zM541 1737h207l-173 -228h-135z" />
    <glyph glyph-name="uhungarumlaut" unicode="&#x171;" horiz-adv-x="815" 
d="M72 1434h225v-1106q0 -140 117 -140q116 0 116 140v1106h213v-1092q0 -173 -85.5 -266.5t-249.5 -93.5t-250 93.5t-86 266.5v1092zM274 1737h205l-170 -228h-137zM541 1737h207l-173 -228h-135z" />
    <glyph glyph-name="Uogonek" unicode="&#x172;" horiz-adv-x="815" 
d="M72 1434h225v-1106q0 -140 117 -140q116 0 116 140v1106h213v-1092q0 -107 -26.5 -187t-102.5 -139q-69 -54 -69 -135q0 -28 20.5 -42.5t50.5 -14.5q28 0 74 12v-115q-57 -22 -139 -22q-83 0 -130.5 32.5t-47.5 94.5q0 94 119 164q-36 -8 -84 -8q-164 0 -250 93.5
t-86 266.5v1092z" />
    <glyph glyph-name="uogonek" unicode="&#x173;" horiz-adv-x="815" 
d="M72 1434h225v-1106q0 -140 117 -140q116 0 116 140v1106h213v-1092q0 -107 -26.5 -187t-102.5 -139q-69 -54 -69 -135q0 -28 20.5 -42.5t50.5 -14.5q28 0 74 12v-115q-57 -22 -139 -22q-83 0 -130.5 32.5t-47.5 94.5q0 94 119 164q-36 -8 -84 -8q-164 0 -250 93.5
t-86 266.5v1092z" />
    <glyph glyph-name="Wcircumflex" unicode="&#x174;" horiz-adv-x="1153" 
d="M664 0l-82 764l-82 -764h-310l-159 1434h219l121 -1131l108 1131h217l113 -1139l117 1139h196l-159 -1434h-299zM485 1509h-192l182 228h203l182 -228h-192l-93 113z" />
    <glyph glyph-name="wcircumflex" unicode="&#x175;" horiz-adv-x="1153" 
d="M664 0l-82 764l-82 -764h-310l-159 1434h219l121 -1131l108 1131h217l113 -1139l117 1139h196l-159 -1434h-299zM485 1509h-192l182 228h203l182 -228h-192l-93 113z" />
    <glyph glyph-name="Ycircumflex" unicode="&#x176;" 
d="M293 0v475l-285 959h236l172 -654l172 654h215l-285 -959v-475h-225zM324 1509h-193l182 228h203l182 -228h-192l-92 113z" />
    <glyph glyph-name="ycircumflex" unicode="&#x177;" 
d="M293 0v475l-285 959h236l172 -654l172 654h215l-285 -959v-475h-225zM324 1509h-193l182 228h203l182 -228h-192l-92 113z" />
    <glyph glyph-name="Ydieresis" unicode="&#x178;" 
d="M293 0v475l-285 959h236l172 -654l172 654h215l-285 -959v-475h-225zM160 1706h196v-197h-196v197zM471 1706h197v-197h-197v197z" />
    <glyph glyph-name="Zacute" unicode="&#x179;" horiz-adv-x="757" 
d="M68 1434h639v-201l-428 -1028h428v-205h-660v201l428 1028h-407v205zM401 1737h222l-209 -228h-152z" />
    <glyph glyph-name="zacute" unicode="&#x17a;" horiz-adv-x="757" 
d="M68 1434h639v-201l-428 -1028h428v-205h-660v201l428 1028h-407v205zM401 1737h222l-209 -228h-152z" />
    <glyph glyph-name="Zdotaccent" unicode="&#x17b;" horiz-adv-x="757" 
d="M68 1434h639v-201l-428 -1028h428v-205h-660v201l428 1028h-407v205zM283 1706h196v-197h-196v197z" />
    <glyph glyph-name="zdotaccent" unicode="&#x17c;" horiz-adv-x="757" 
d="M68 1434h639v-201l-428 -1028h428v-205h-660v201l428 1028h-407v205zM283 1706h196v-197h-196v197z" />
    <glyph glyph-name="Zcaron" unicode="&#x17d;" horiz-adv-x="757" 
d="M68 1434h639v-201l-428 -1028h428v-205h-660v201l428 1028h-407v205zM98 1737h193l90 -115l92 115h193l-183 -228h-202z" />
    <glyph glyph-name="zcaron" unicode="&#x17e;" horiz-adv-x="757" 
d="M68 1434h639v-201l-428 -1028h428v-205h-660v201l428 1028h-407v205zM98 1737h193l90 -115l92 115h193l-183 -228h-202z" />
    <glyph glyph-name="AEacute" unicode="&#x1fc;" horiz-adv-x="1187" 
d="M516 0v260h-227l-66 -260h-215l383 1434h739v-205h-389v-400h310v-204h-310v-420h389v-205h-614zM340 455h176v690zM614 1737h222l-209 -228h-152z" />
    <glyph glyph-name="aeacute" unicode="&#x1fd;" horiz-adv-x="1187" 
d="M516 0v260h-227l-66 -260h-215l383 1434h739v-205h-389v-400h310v-204h-310v-420h389v-205h-614zM340 455h176v690zM614 1737h222l-209 -228h-152z" />
    <glyph glyph-name="Oslashacute" unicode="&#x1fe;" 
d="M63 344v746q0 172 89 266t254 94q124 0 204 -53l41 112l76 -26l-53 -146q74 -89 74 -247v-746q0 -172 -88.5 -266t-253.5 -94q-128 0 -205 51l-41 -111l-76 27l51 143q-72 93 -72 250zM289 1104v-590l229 633q-14 98 -112 98q-117 0 -117 -141zM406 188q116 0 116 142
v590l-231 -633q17 -99 115 -99zM426 1737h221l-209 -228h-151z" />
    <glyph glyph-name="oslashacute" unicode="&#x1ff;" 
d="M63 344v746q0 172 89 266t254 94q124 0 204 -53l41 112l76 -26l-53 -146q74 -89 74 -247v-746q0 -172 -88.5 -266t-253.5 -94q-128 0 -205 51l-41 -111l-76 27l51 143q-72 93 -72 250zM289 1104v-590l229 633q-14 98 -112 98q-117 0 -117 -141zM406 188q116 0 116 142
v590l-231 -633q17 -99 115 -99zM426 1737h221l-209 -228h-151z" />
    <glyph glyph-name="uni0218" unicode="&#x218;" horiz-adv-x="765" 
d="M356 -256h-73v188h188v-168l-88 -131h-80zM53 1090q0 173 84.5 266.5t247.5 93.5t247.5 -93.5t84.5 -266.5v-46h-213v60q0 141 -113 141q-56 0 -84 -33.5t-28 -107.5q0 -60 24.5 -113t63 -95.5t85.5 -85t94 -89t85.5 -98.5t63 -124t24.5 -155q0 -173 -86 -266.5
t-250 -93.5t-250 93.5t-86 266.5v88h213v-102q0 -140 117 -140t117 140q0 60 -24.5 113t-63 95.5t-85.5 85t-94.5 89t-86 98.5t-63 124t-24.5 155z" />
    <glyph glyph-name="uni0219" unicode="&#x219;" horiz-adv-x="765" 
d="M356 -256h-73v188h188v-168l-88 -131h-80zM53 1090q0 173 84.5 266.5t247.5 93.5t247.5 -93.5t84.5 -266.5v-46h-213v60q0 141 -113 141q-56 0 -84 -33.5t-28 -107.5q0 -60 24.5 -113t63 -95.5t85.5 -85t94 -89t85.5 -98.5t63 -124t24.5 -155q0 -173 -86 -266.5
t-250 -93.5t-250 93.5t-86 266.5v88h213v-102q0 -140 117 -140t117 140q0 60 -24.5 113t-63 95.5t-85.5 85t-94.5 89t-86 98.5t-63 124t-24.5 155z" />
    <glyph glyph-name="uni021A" unicode="&#x21a;" horiz-adv-x="729" 
d="M16 1229v205h697v-205h-236v-1229h-225v1229h-236zM344 -256h-74v188h189v-168l-88 -131h-80z" />
    <glyph glyph-name="uni021B" unicode="&#x21b;" horiz-adv-x="729" 
d="M16 1229v205h697v-205h-236v-1229h-225v1229h-236zM344 -256h-74v188h189v-168l-88 -131h-80z" />
    <glyph glyph-name="uni0237" unicode="&#x237;" horiz-adv-x="524" 
d="M20 0v205q25 -2 78 -2q61 0 95 30t34 107v1094h226v-1078q0 -360 -324 -360q-72 0 -109 4z" />
    <glyph glyph-name="uni02BC" unicode="&#x2bc;" horiz-adv-x="380" 
d="M168 1217h-86v217h217v-195l-98 -227h-92z" />
    <glyph glyph-name="circumflex" unicode="&#x2c6;" horiz-adv-x="512" 
d="M166 1509h-193l183 228h202l183 -228h-193l-92 113z" />
    <glyph glyph-name="caron" unicode="&#x2c7;" horiz-adv-x="512" 
d="M-27 1737h193l90 -115l92 115h193l-183 -228h-202z" />
    <glyph glyph-name="breve" unicode="&#x2d8;" horiz-adv-x="512" 
d="M352 1737h133q0 -110 -59 -173t-172 -63q-112 0 -168.5 62.5t-58.5 173.5h133q4 -56 26.5 -76.5t67.5 -20.5q47 0 70.5 20.5t27.5 76.5z" />
    <glyph glyph-name="dotaccent" unicode="&#x2d9;" horiz-adv-x="512" 
d="M158 1706h196v-197h-196v197z" />
    <glyph glyph-name="ring" unicode="&#x2da;" horiz-adv-x="512" 
d="M92 1667q0 69 47.5 116.5t116.5 47.5t116.5 -47.5t47.5 -116.5t-47.5 -116.5t-116.5 -47.5t-116.5 47.5t-47.5 116.5zM195 1667q0 -26 17.5 -43.5t43.5 -17.5t43.5 17.5t17.5 43.5t-17.5 44t-43.5 18t-43.5 -18t-17.5 -44z" />
    <glyph glyph-name="ogonek" unicode="&#x2db;" horiz-adv-x="512" 
d="M252 8h88q-72 -55 -72 -127q0 -28 21 -42.5t51 -14.5q28 0 74 12v-115q-57 -22 -140 -22t-130.5 32.5t-47.5 94.5q0 108 156 182z" />
    <glyph glyph-name="tilde" unicode="&#x2dc;" horiz-adv-x="512" 
d="M338 1665q31 0 51 11.5t37 47.5l109 -75q-53 -140 -175 -140q-46 0 -101.5 26t-82.5 26q-31 0 -50.5 -12t-37.5 -48l-108 76q52 139 174 139q46 0 101.5 -25.5t82.5 -25.5z" />
    <glyph glyph-name="hungarumlaut" unicode="&#x2dd;" horiz-adv-x="512" 
d="M51 1737h205l-170 -228h-137zM317 1737h207l-172 -228h-135z" />
    <glyph glyph-name="uni0401" unicode="&#x401;" horiz-adv-x="753" 
d="M307 1229v-400h309v-204h-309v-420h389v-205h-614v1434h614v-205h-389zM133 1706h197v-197h-197v197zM444 1706h197v-197h-197v197z" />
    <glyph glyph-name="uni0410" unicode="&#x410;" horiz-adv-x="833" 
d="M582 1434l229 -1434h-227l-39 260h-277l-39 -260h-206l229 1434h330zM406 1180l-109 -725h217z" />
    <glyph glyph-name="uni0411" unicode="&#x411;" horiz-adv-x="849" 
d="M440 0h-356v1434h631v-205h-406v-367h131q168 0 254 -90.5t86 -263.5v-154q0 -173 -86 -263.5t-254 -90.5zM309 205h131q57 0 86 31t29 104v182q0 73 -29 104t-86 31h-131v-452z" />
    <glyph glyph-name="uni0412" unicode="&#x412;" horiz-adv-x="831" 
d="M422 1434q173 0 253.5 -81t80.5 -249v-51q0 -220 -146 -289q168 -65 168 -307v-117q0 -166 -87 -253t-255 -87h-354v1434h340zM408 645h-101v-440h129q59 0 88 32t29 109v125q0 98 -33.5 136t-111.5 38zM416 1229h-109v-379h88q67 0 101 34.5t34 116.5v80q0 77 -27 112.5
t-87 35.5z" />
    <glyph glyph-name="uni0413" unicode="&#x413;" horiz-adv-x="747" 
d="M309 0h-225v1434h594v-205h-369v-1229z" />
    <glyph glyph-name="uni0414" unicode="&#x414;" horiz-adv-x="999" 
d="M956 -193h-223v193h-481v-193h-219v394h88q28 35 40 77.5t15 108.5l51 1047h631v-1233h98v-394zM438 1229l-41 -838q-4 -79 -19 -120.5t-44 -69.5h295v1028h-191z" />
    <glyph glyph-name="uni0415" unicode="&#x415;" horiz-adv-x="753" 
d="M307 1229v-400h309v-204h-309v-420h389v-205h-614v1434h614v-205h-389z" />
    <glyph glyph-name="uni0416" unicode="&#x416;" horiz-adv-x="1236" 
d="M731 1434v-580l266 580h226l-277 -582l277 -852h-232l-205 635l-55 -109v-526h-223v526l-55 111l-205 -637h-232l279 846l-279 588h226l266 -580v580h223z" />
    <glyph glyph-name="uni0417" unicode="&#x417;" 
d="M516 1001v80q0 92 -29.5 128t-87.5 36q-118 0 -118 -141v-117h-207v107q0 173 84 264.5t248 91.5t249.5 -93.5t85.5 -266.5v-37q0 -230 -157 -295q157 -68 157 -301v-113q0 -173 -85.5 -266.5t-249.5 -93.5t-250 93.5t-86 266.5v158h213v-172q0 -142 116 -142
q58 0 87.5 36t29.5 126v113q0 98 -34.5 140t-112.5 42h-56v205h68q67 0 101 34.5t34 116.5z" />
    <glyph glyph-name="uni0418" unicode="&#x418;" horiz-adv-x="874" 
d="M502 657l-189 -657h-231v1434h201v-908l82 316l184 592h248v-1434h-203v1010z" />
    <glyph glyph-name="uni0419" unicode="&#x419;" horiz-adv-x="878" 
d="M313 0l189 657l92 353v-1010h203v1434h-248l-184 -592l-82 -316v908h-201v-1434h231zM545 1753h137q0 -107 -61 -167t-179 -60q-115 0 -173.5 59.5t-61.5 167.5h139q4 -54 26.5 -74t69.5 -20q49 0 74 20t29 74z" />
    <glyph glyph-name="uni041A" unicode="&#x41a;" horiz-adv-x="847" 
d="M596 0l-219 571l-70 -131v-440h-225v1434h225v-625l295 625h225l-313 -639l313 -795h-231z" />
    <glyph glyph-name="uni041B" unicode="&#x41b;" horiz-adv-x="921" 
d="M18 -2v205q42 0 65 4t41 19.5t25 44.5t9 79l37 1084h636v-1434h-229v1229h-196l-25 -867q-6 -196 -82.5 -280t-245.5 -84h-35z" />
    <glyph glyph-name="uni041C" unicode="&#x41c;" horiz-adv-x="1107" 
d="M393 1434l166 -1018l154 1018h313v-1434h-213v1028l-156 -1028h-213l-168 1014v-1014h-196v1434h313z" />
    <glyph glyph-name="uni041D" unicode="&#x41d;" horiz-adv-x="874" 
d="M307 614v-614h-225v1434h225v-615h256v615h230v-1434h-230v614h-256z" />
    <glyph glyph-name="uni041E" unicode="&#x41e;" 
d="M289 1104v-774q0 -142 117 -142q116 0 116 142v774q0 141 -116 141q-117 0 -117 -141zM63 344v746q0 172 89 266t254 94t253.5 -94t88.5 -266v-746q0 -172 -88.5 -266t-253.5 -94t-254 94t-89 266z" />
    <glyph glyph-name="uni041F" unicode="&#x41f;" horiz-adv-x="874" 
d="M307 1229v-1229h-225v1434h711v-1434h-230v1229h-256z" />
    <glyph glyph-name="uni0420" unicode="&#x420;" horiz-adv-x="772" 
d="M414 1434q167 0 251.5 -91t84.5 -264v-186q0 -173 -84.5 -263.5t-251.5 -90.5h-107v-539h-225v1434h332zM414 1229h-107v-486h107q56 0 83 31t27 105v215q0 74 -27 104.5t-83 30.5z" />
    <glyph glyph-name="uni0421" unicode="&#x421;" horiz-adv-x="790" 
d="M522 535h213v-191q0 -173 -86 -266.5t-250 -93.5t-250 93.5t-86 266.5v746q0 173 86 266.5t250 93.5t250 -93.5t86 -266.5v-140h-213v154q0 141 -116 141q-117 0 -117 -141v-774q0 -140 117 -140q116 0 116 140v205z" />
    <glyph glyph-name="uni0422" unicode="&#x422;" horiz-adv-x="729" 
d="M16 1229v205h697v-205h-236v-1229h-225v1229h-236z" />
    <glyph glyph-name="uni0423" unicode="&#x423;" horiz-adv-x="835" 
d="M823 1434l-241 -1069q-17 -82 -38 -139.5t-55 -106t-82 -75.5t-117.5 -39.5t-162.5 -6.5v201q92 -6 139 18t60 98l2 13l-312 1106h224l122 -490l70 -336l53 334l103 492h235z" />
    <glyph glyph-name="uni0424" unicode="&#x424;" horiz-adv-x="1193" 
d="M483 0v162h-84q-167 0 -251.5 90.5t-84.5 263.5v391q0 173 84.5 264t251.5 91h84v172h222v-172h83q167 0 251.5 -91t84.5 -264v-391q0 -173 -84.5 -263.5t-251.5 -90.5h-83v-162h-222zM788 1063h-83v-705h83q113 0 113 144v420q0 141 -113 141zM483 358v705h-84
q-56 0 -84 -33.5t-28 -107.5v-420q0 -144 112 -144h84z" />
    <glyph glyph-name="uni0425" unicode="&#x425;" horiz-adv-x="880" 
d="M625 1434h209l-236 -697l252 -737h-238l-184 567l-186 -567h-211l252 737l-236 697h234l170 -529z" />
    <glyph glyph-name="uni0426" unicode="&#x426;" horiz-adv-x="931" 
d="M82 0v1434h225v-1229h256v1229h230v-1233h98v-394h-219v193h-590z" />
    <glyph glyph-name="uni0427" unicode="&#x427;" horiz-adv-x="849" 
d="M541 1434h225v-1434h-225v578q-35 -38 -89.5 -59t-103.5 -21q-135 0 -207.5 89t-72.5 240v607h225v-588q0 -69 37 -105t94 -36q55 0 86 38t31 109v582z" />
    <glyph glyph-name="uni0428" unicode="&#x428;" horiz-adv-x="1228" 
d="M1147 0h-1065v1434h225v-1229h195v1229h225v-1229h195v1229h225v-1434z" />
    <glyph glyph-name="uni0429" unicode="&#x429;" horiz-adv-x="1288" 
d="M1147 1434v-1233h100v-394h-219v193h-946v1434h225v-1229h195v1229h225v-1229h195v1229h225z" />
    <glyph glyph-name="uni042A" unicode="&#x42a;" horiz-adv-x="899" 
d="M16 1229v205h387v-539h107q167 0 251.5 -90.5t84.5 -263.5v-187q0 -173 -84.5 -263.5t-251.5 -90.5h-332v1229h-162zM403 205h107q56 0 83.5 30.5t27.5 104.5v215q0 74 -27.5 104.5t-83.5 30.5h-107v-485z" />
    <glyph glyph-name="uni042B" unicode="&#x42b;" horiz-adv-x="1185" 
d="M414 0h-332v1434h225v-539h107q167 0 251.5 -90.5t84.5 -263.5v-187q0 -173 -84.5 -263.5t-251.5 -90.5zM307 205h107q56 0 83 30.5t27 104.5v215q0 74 -27 104.5t-83 30.5h-107v-485zM1104 0h-225v1434h225v-1434z" />
    <glyph glyph-name="uni042C" unicode="&#x42c;" horiz-adv-x="802" 
d="M414 0h-332v1434h225v-539h107q167 0 251.5 -90.5t84.5 -263.5v-187q0 -173 -84.5 -263.5t-251.5 -90.5zM307 205h107q56 0 83 30.5t27 104.5v215q0 74 -27 104.5t-83 30.5h-107v-485z" />
    <glyph glyph-name="uni042D" unicode="&#x42d;" horiz-adv-x="790" 
d="M53 514h213v-184q0 -140 117 -140t117 140v309h-207v205h207v260q0 141 -117 141t-117 -141v-135h-209v121q0 174 84 267t248 93t250 -93.5t86 -266.5v-746q0 -173 -86 -266.5t-250 -93.5t-250 93.5t-86 266.5v170z" />
    <glyph glyph-name="uni042E" unicode="&#x42e;" horiz-adv-x="1226" 
d="M475 344v270h-168v-614h-225v1434h225v-615h168v271q0 172 88.5 266t253.5 94t253.5 -94t88.5 -266v-746q0 -172 -88.5 -266t-253.5 -94t-253.5 94t-88.5 266zM700 1104v-774q0 -142 117 -142t117 142v774q0 141 -117 141t-117 -141z" />
    <glyph glyph-name="uni042F" unicode="&#x42f;" horiz-adv-x="823" 
d="M270 0h-229q25 58 25 174v221q0 119 34 195t115 110q-147 69 -147 291v113q0 168 80 249t253 81h340v-1434h-225v584h-78q-77 0 -112 -42t-35 -141v-225q0 -55 -3.5 -90.5t-6.5 -48t-11 -37.5zM516 1229h-108q-60 0 -87.5 -35.5t-27.5 -112.5v-141q0 -83 34 -117.5
t101 -34.5h88v441z" />
    <glyph glyph-name="uni0430" unicode="&#x430;" horiz-adv-x="833" 
d="M582 1434l229 -1434h-227l-39 260h-277l-39 -260h-206l229 1434h330zM406 1180l-109 -725h217z" />
    <glyph glyph-name="uni0431" unicode="&#x431;" horiz-adv-x="849" 
d="M440 0h-356v1434h631v-205h-406v-367h131q168 0 254 -90.5t86 -263.5v-154q0 -173 -86 -263.5t-254 -90.5zM309 205h131q57 0 86 31t29 104v182q0 73 -29 104t-86 31h-131v-452z" />
    <glyph glyph-name="uni0432" unicode="&#x432;" horiz-adv-x="831" 
d="M422 1434q173 0 253.5 -81t80.5 -249v-51q0 -220 -146 -289q168 -65 168 -307v-117q0 -166 -87 -253t-255 -87h-354v1434h340zM408 645h-101v-440h129q59 0 88 32t29 109v125q0 98 -33.5 136t-111.5 38zM416 1229h-109v-379h88q67 0 101 34.5t34 116.5v80q0 77 -27 112.5
t-87 35.5z" />
    <glyph glyph-name="uni0433" unicode="&#x433;" horiz-adv-x="747" 
d="M309 0h-225v1434h594v-205h-369v-1229z" />
    <glyph glyph-name="uni0434" unicode="&#x434;" horiz-adv-x="999" 
d="M956 -193h-223v193h-481v-193h-219v394h88q28 35 40 77.5t15 108.5l51 1047h631v-1233h98v-394zM438 1229l-41 -838q-4 -79 -19 -120.5t-44 -69.5h295v1028h-191z" />
    <glyph glyph-name="uni0435" unicode="&#x435;" horiz-adv-x="753" 
d="M307 1229v-400h309v-204h-309v-420h389v-205h-614v1434h614v-205h-389z" />
    <glyph glyph-name="uni0436" unicode="&#x436;" horiz-adv-x="1236" 
d="M731 1434v-580l266 580h226l-277 -582l277 -852h-232l-205 635l-55 -109v-526h-223v526l-55 111l-205 -637h-232l279 846l-279 588h226l266 -580v580h223z" />
    <glyph glyph-name="uni0437" unicode="&#x437;" 
d="M516 1001v80q0 92 -29.5 128t-87.5 36q-118 0 -118 -141v-117h-207v107q0 173 84 264.5t248 91.5t249.5 -93.5t85.5 -266.5v-37q0 -230 -157 -295q157 -68 157 -301v-113q0 -173 -85.5 -266.5t-249.5 -93.5t-250 93.5t-86 266.5v158h213v-172q0 -142 116 -142
q58 0 87.5 36t29.5 126v113q0 98 -34.5 140t-112.5 42h-56v205h68q67 0 101 34.5t34 116.5z" />
    <glyph glyph-name="uni0438" unicode="&#x438;" horiz-adv-x="874" 
d="M502 657l-189 -657h-231v1434h201v-908l82 316l184 592h248v-1434h-203v1010z" />
    <glyph glyph-name="uni0439" unicode="&#x439;" horiz-adv-x="878" 
d="M313 0l189 657l92 353v-1010h203v1434h-248l-184 -592l-82 -316v908h-201v-1434h231zM545 1753h137q0 -107 -61 -167t-179 -60q-115 0 -173.5 59.5t-61.5 167.5h139q4 -54 26.5 -74t69.5 -20q49 0 74 20t29 74z" />
    <glyph glyph-name="uni043A" unicode="&#x43a;" horiz-adv-x="847" 
d="M596 0l-219 571l-70 -131v-440h-225v1434h225v-625l295 625h225l-313 -639l313 -795h-231z" />
    <glyph glyph-name="uni043B" unicode="&#x43b;" horiz-adv-x="921" 
d="M18 -2v205q42 0 65 4t41 19.5t25 44.5t9 79l37 1084h636v-1434h-229v1229h-196l-25 -867q-6 -196 -82.5 -280t-245.5 -84h-35z" />
    <glyph glyph-name="uni043C" unicode="&#x43c;" horiz-adv-x="1107" 
d="M393 1434l166 -1018l154 1018h313v-1434h-213v1028l-156 -1028h-213l-168 1014v-1014h-196v1434h313z" />
    <glyph glyph-name="uni043D" unicode="&#x43d;" horiz-adv-x="874" 
d="M307 614v-614h-225v1434h225v-615h256v615h230v-1434h-230v614h-256z" />
    <glyph glyph-name="uni043E" unicode="&#x43e;" 
d="M289 1104v-774q0 -142 117 -142q116 0 116 142v774q0 141 -116 141q-117 0 -117 -141zM63 344v746q0 172 89 266t254 94t253.5 -94t88.5 -266v-746q0 -172 -88.5 -266t-253.5 -94t-254 94t-89 266z" />
    <glyph glyph-name="uni043F" unicode="&#x43f;" horiz-adv-x="874" 
d="M307 1229v-1229h-225v1434h711v-1434h-230v1229h-256z" />
    <glyph glyph-name="uni0440" unicode="&#x440;" horiz-adv-x="772" 
d="M414 1434q167 0 251.5 -91t84.5 -264v-186q0 -173 -84.5 -263.5t-251.5 -90.5h-107v-539h-225v1434h332zM414 1229h-107v-486h107q56 0 83 31t27 105v215q0 74 -27 104.5t-83 30.5z" />
    <glyph glyph-name="uni0441" unicode="&#x441;" horiz-adv-x="790" 
d="M522 535h213v-191q0 -173 -86 -266.5t-250 -93.5t-250 93.5t-86 266.5v746q0 173 86 266.5t250 93.5t250 -93.5t86 -266.5v-140h-213v154q0 141 -116 141q-117 0 -117 -141v-774q0 -140 117 -140q116 0 116 140v205z" />
    <glyph glyph-name="uni0442" unicode="&#x442;" horiz-adv-x="729" 
d="M16 1229v205h697v-205h-236v-1229h-225v1229h-236z" />
    <glyph glyph-name="uni0443" unicode="&#x443;" horiz-adv-x="835" 
d="M823 1434l-241 -1069q-17 -82 -38 -139.5t-55 -106t-82 -75.5t-117.5 -39.5t-162.5 -6.5v201q92 -6 139 18t60 98l2 13l-312 1106h224l122 -490l70 -336l53 334l103 492h235z" />
    <glyph glyph-name="uni0444" unicode="&#x444;" horiz-adv-x="1193" 
d="M483 0v162h-84q-167 0 -251.5 90.5t-84.5 263.5v391q0 173 84.5 264t251.5 91h84v172h222v-172h83q167 0 251.5 -91t84.5 -264v-391q0 -173 -84.5 -263.5t-251.5 -90.5h-83v-162h-222zM788 1063h-83v-705h83q113 0 113 144v420q0 141 -113 141zM483 358v705h-84
q-56 0 -84 -33.5t-28 -107.5v-420q0 -144 112 -144h84z" />
    <glyph glyph-name="uni0445" unicode="&#x445;" horiz-adv-x="880" 
d="M625 1434h209l-236 -697l252 -737h-238l-184 567l-186 -567h-211l252 737l-236 697h234l170 -529z" />
    <glyph glyph-name="uni0446" unicode="&#x446;" horiz-adv-x="931" 
d="M82 0v1434h225v-1229h256v1229h230v-1233h98v-394h-219v193h-590z" />
    <glyph glyph-name="uni0447" unicode="&#x447;" horiz-adv-x="849" 
d="M541 1434h225v-1434h-225v578q-35 -38 -89.5 -59t-103.5 -21q-135 0 -207.5 89t-72.5 240v607h225v-588q0 -69 37 -105t94 -36q55 0 86 38t31 109v582z" />
    <glyph glyph-name="uni0448" unicode="&#x448;" horiz-adv-x="1228" 
d="M1147 0h-1065v1434h225v-1229h195v1229h225v-1229h195v1229h225v-1434z" />
    <glyph glyph-name="uni0449" unicode="&#x449;" horiz-adv-x="1288" 
d="M1147 1434v-1233h100v-394h-219v193h-946v1434h225v-1229h195v1229h225v-1229h195v1229h225z" />
    <glyph glyph-name="uni044A" unicode="&#x44a;" horiz-adv-x="899" 
d="M16 1229v205h387v-539h107q167 0 251.5 -90.5t84.5 -263.5v-187q0 -173 -84.5 -263.5t-251.5 -90.5h-332v1229h-162zM403 205h107q56 0 83.5 30.5t27.5 104.5v215q0 74 -27.5 104.5t-83.5 30.5h-107v-485z" />
    <glyph glyph-name="uni044B" unicode="&#x44b;" horiz-adv-x="1185" 
d="M414 0h-332v1434h225v-539h107q167 0 251.5 -90.5t84.5 -263.5v-187q0 -173 -84.5 -263.5t-251.5 -90.5zM307 205h107q56 0 83 30.5t27 104.5v215q0 74 -27 104.5t-83 30.5h-107v-485zM1104 0h-225v1434h225v-1434z" />
    <glyph glyph-name="uni044C" unicode="&#x44c;" horiz-adv-x="802" 
d="M414 0h-332v1434h225v-539h107q167 0 251.5 -90.5t84.5 -263.5v-187q0 -173 -84.5 -263.5t-251.5 -90.5zM307 205h107q56 0 83 30.5t27 104.5v215q0 74 -27 104.5t-83 30.5h-107v-485z" />
    <glyph glyph-name="uni044D" unicode="&#x44d;" horiz-adv-x="790" 
d="M53 514h213v-184q0 -140 117 -140t117 140v309h-207v205h207v260q0 141 -117 141t-117 -141v-135h-209v121q0 174 84 267t248 93t250 -93.5t86 -266.5v-746q0 -173 -86 -266.5t-250 -93.5t-250 93.5t-86 266.5v170z" />
    <glyph glyph-name="uni044E" unicode="&#x44e;" horiz-adv-x="1226" 
d="M475 344v270h-168v-614h-225v1434h225v-615h168v271q0 172 88.5 266t253.5 94t253.5 -94t88.5 -266v-746q0 -172 -88.5 -266t-253.5 -94t-253.5 94t-88.5 266zM700 1104v-774q0 -142 117 -142t117 142v774q0 141 -117 141t-117 -141z" />
    <glyph glyph-name="uni044F" unicode="&#x44f;" horiz-adv-x="823" 
d="M270 0h-229q25 58 25 174v221q0 119 34 195t115 110q-147 69 -147 291v113q0 168 80 249t253 81h340v-1434h-225v584h-78q-77 0 -112 -42t-35 -141v-225q0 -55 -3.5 -90.5t-6.5 -48t-11 -37.5zM516 1229h-108q-60 0 -87.5 -35.5t-27.5 -112.5v-141q0 -83 34 -117.5
t101 -34.5h88v441z" />
    <glyph glyph-name="uni0451" unicode="&#x451;" horiz-adv-x="753" 
d="M307 1229v-400h309v-204h-309v-420h389v-205h-614v1434h614v-205h-389zM133 1706h197v-197h-197v197zM444 1706h197v-197h-197v197z" />
    <glyph glyph-name="uni1E02" unicode="&#x1e02;" horiz-adv-x="831" 
d="M422 1434q173 0 253.5 -81t80.5 -249v-51q0 -220 -146 -289q168 -65 168 -307v-117q0 -166 -87 -253t-255 -87h-354v1434h340zM408 645h-101v-440h129q59 0 88 32t29 109v125q0 98 -33.5 136t-111.5 38zM416 1229h-109v-379h88q67 0 101 34.5t34 116.5v80q0 77 -27 112.5
t-87 35.5zM283 1706h196v-197h-196v197z" />
    <glyph glyph-name="uni1E03" unicode="&#x1e03;" horiz-adv-x="831" 
d="M422 1434q173 0 253.5 -81t80.5 -249v-51q0 -220 -146 -289q168 -65 168 -307v-117q0 -166 -87 -253t-255 -87h-354v1434h340zM408 645h-101v-440h129q59 0 88 32t29 109v125q0 98 -33.5 136t-111.5 38zM416 1229h-109v-379h88q67 0 101 34.5t34 116.5v80q0 77 -27 112.5
t-87 35.5zM283 1706h196v-197h-196v197z" />
    <glyph glyph-name="uni1E0A" unicode="&#x1e0a;" horiz-adv-x="835" 
d="M82 0v1434h356q167 0 251.5 -91t84.5 -264v-725q0 -173 -84.5 -263.5t-251.5 -90.5h-356zM434 1229h-127v-1024h127q56 0 85.5 32.5t29.5 106.5v746q0 74 -29.5 106.5t-85.5 32.5zM299 1706h197v-197h-197v197z" />
    <glyph glyph-name="uni1E0B" unicode="&#x1e0b;" horiz-adv-x="835" 
d="M82 0v1434h356q167 0 251.5 -91t84.5 -264v-725q0 -173 -84.5 -263.5t-251.5 -90.5h-356zM434 1229h-127v-1024h127q56 0 85.5 32.5t29.5 106.5v746q0 74 -29.5 106.5t-85.5 32.5zM299 1706h197v-197h-197v197z" />
    <glyph glyph-name="uni1E1E" unicode="&#x1e1e;" horiz-adv-x="704" 
d="M307 1229v-432h291v-205h-291v-592h-225v1434h596v-205h-371zM274 1706h197v-197h-197v197z" />
    <glyph glyph-name="uni1E1F" unicode="&#x1e1f;" horiz-adv-x="704" 
d="M307 1229v-432h291v-205h-291v-592h-225v1434h596v-205h-371zM274 1706h197v-197h-197v197z" />
    <glyph glyph-name="uni1E40" unicode="&#x1e40;" horiz-adv-x="1107" 
d="M393 1434l166 -1018l154 1018h313v-1434h-213v1028l-156 -1028h-213l-168 1014v-1014h-196v1434h313zM455 1706h196v-197h-196v197z" />
    <glyph glyph-name="uni1E41" unicode="&#x1e41;" horiz-adv-x="1107" 
d="M393 1434l166 -1018l154 1018h313v-1434h-213v1028l-156 -1028h-213l-168 1014v-1014h-196v1434h313zM455 1706h196v-197h-196v197z" />
    <glyph glyph-name="uni1E56" unicode="&#x1e56;" horiz-adv-x="772" 
d="M414 1434q167 0 251.5 -91t84.5 -264v-186q0 -173 -84.5 -263.5t-251.5 -90.5h-107v-539h-225v1434h332zM414 1229h-107v-486h107q56 0 83 31t27 105v215q0 74 -27 104.5t-83 30.5zM291 1706h196v-197h-196v197z" />
    <glyph glyph-name="uni1E57" unicode="&#x1e57;" horiz-adv-x="772" 
d="M414 1434q167 0 251.5 -91t84.5 -264v-186q0 -173 -84.5 -263.5t-251.5 -90.5h-107v-539h-225v1434h332zM414 1229h-107v-486h107q56 0 83 31t27 105v215q0 74 -27 104.5t-83 30.5zM291 1706h196v-197h-196v197z" />
    <glyph glyph-name="uni1E60" unicode="&#x1e60;" horiz-adv-x="765" 
d="M53 1090q0 173 84.5 266.5t247.5 93.5t247.5 -93.5t84.5 -266.5v-46h-213v60q0 141 -113 141q-56 0 -84 -33.5t-28 -107.5q0 -60 24.5 -113t63 -95.5t85.5 -85t94 -89t85.5 -98.5t63 -124t24.5 -155q0 -173 -86 -266.5t-250 -93.5t-250 93.5t-86 266.5v88h213v-102
q0 -140 117 -140t117 140q0 60 -24.5 113t-63 95.5t-85.5 85t-94.5 89t-86 98.5t-63 124t-24.5 155zM285 1706h196v-197h-196v197z" />
    <glyph glyph-name="uni1E61" unicode="&#x1e61;" horiz-adv-x="765" 
d="M53 1090q0 173 84.5 266.5t247.5 93.5t247.5 -93.5t84.5 -266.5v-46h-213v60q0 141 -113 141q-56 0 -84 -33.5t-28 -107.5q0 -60 24.5 -113t63 -95.5t85.5 -85t94 -89t85.5 -98.5t63 -124t24.5 -155q0 -173 -86 -266.5t-250 -93.5t-250 93.5t-86 266.5v88h213v-102
q0 -140 117 -140t117 140q0 60 -24.5 113t-63 95.5t-85.5 85t-94.5 89t-86 98.5t-63 124t-24.5 155zM285 1706h196v-197h-196v197z" />
    <glyph glyph-name="uni1E6A" unicode="&#x1e6a;" horiz-adv-x="729" 
d="M16 1229v205h697v-205h-236v-1229h-225v1229h-236zM266 1706h197v-197h-197v197z" />
    <glyph glyph-name="uni1E6B" unicode="&#x1e6b;" horiz-adv-x="729" 
d="M16 1229v205h697v-205h-236v-1229h-225v1229h-236zM266 1706h197v-197h-197v197z" />
    <glyph glyph-name="Wgrave" unicode="&#x1e80;" horiz-adv-x="1153" 
d="M664 0l-82 764l-82 -764h-310l-159 1434h219l121 -1131l108 1131h217l113 -1139l117 1139h196l-159 -1434h-299zM330 1737h231l139 -228h-161z" />
    <glyph glyph-name="wgrave" unicode="&#x1e81;" horiz-adv-x="1153" 
d="M664 0l-82 764l-82 -764h-310l-159 1434h219l121 -1131l108 1131h217l113 -1139l117 1139h196l-159 -1434h-299zM330 1737h231l139 -228h-161z" />
    <glyph glyph-name="Wacute" unicode="&#x1e82;" horiz-adv-x="1153" 
d="M664 0l-82 764l-82 -764h-310l-159 1434h219l121 -1131l108 1131h217l113 -1139l117 1139h196l-159 -1434h-299zM596 1737h221l-209 -228h-151z" />
    <glyph glyph-name="wacute" unicode="&#x1e83;" horiz-adv-x="1153" 
d="M664 0l-82 764l-82 -764h-310l-159 1434h219l121 -1131l108 1131h217l113 -1139l117 1139h196l-159 -1434h-299zM596 1737h221l-209 -228h-151z" />
    <glyph glyph-name="Wdieresis" unicode="&#x1e84;" horiz-adv-x="1153" 
d="M664 0l-82 764l-82 -764h-310l-159 1434h219l121 -1131l108 1131h217l113 -1139l117 1139h196l-159 -1434h-299zM322 1706h196v-197h-196v197zM633 1706h196v-197h-196v197z" />
    <glyph glyph-name="wdieresis" unicode="&#x1e85;" horiz-adv-x="1153" 
d="M664 0l-82 764l-82 -764h-310l-159 1434h219l121 -1131l108 1131h217l113 -1139l117 1139h196l-159 -1434h-299zM322 1706h196v-197h-196v197zM633 1706h196v-197h-196v197z" />
    <glyph glyph-name="Ygrave" unicode="&#x1ef2;" 
d="M293 0v475l-285 959h236l172 -654l172 654h215l-285 -959v-475h-225zM168 1737h231l140 -228h-162z" />
    <glyph glyph-name="ygrave" unicode="&#x1ef3;" 
d="M293 0v475l-285 959h236l172 -654l172 654h215l-285 -959v-475h-225zM168 1737h231l140 -228h-162z" />
    <glyph glyph-name="figuredash" unicode="&#x2012;" 
d="M0 625v184h811v-184h-811z" />
    <glyph glyph-name="endash" unicode="&#x2013;" horiz-adv-x="1024" 
d="M0 625v184h1024v-184h-1024z" />
    <glyph glyph-name="emdash" unicode="&#x2014;" horiz-adv-x="2048" 
d="M0 625v184h2048v-184h-2048z" />
    <glyph glyph-name="quoteleft" unicode="&#x2018;" horiz-adv-x="380" 
d="M213 1229h86v-217h-217v194l98 228h92z" />
    <glyph glyph-name="quoteright" unicode="&#x2019;" horiz-adv-x="380" 
d="M168 1217h-86v217h217v-195l-98 -227h-92z" />
    <glyph glyph-name="quotesinglbase" unicode="&#x201a;" horiz-adv-x="380" 
d="M168 0h-86v217h217v-194l-98 -228h-92z" />
    <glyph glyph-name="quotedblleft" unicode="&#x201c;" horiz-adv-x="679" 
d="M213 1229h86v-217h-217v194l98 228h92zM512 1229h86v-217h-217v194l98 228h92z" />
    <glyph glyph-name="quotedblright" unicode="&#x201d;" horiz-adv-x="679" 
d="M168 1217h-86v217h217v-195l-98 -227h-92zM467 1217h-86v217h217v-195l-98 -227h-92z" />
    <glyph glyph-name="quotedblbase" unicode="&#x201e;" horiz-adv-x="679" 
d="M168 0h-86v217h217v-194l-98 -228h-92zM467 0h-86v217h217v-194l-98 -228h-92z" />
    <glyph glyph-name="dagger" unicode="&#x2020;" 
d="M51 901v174h262v359h185v-359h262v-174h-262v-1034h-185v1034h-262z" />
    <glyph glyph-name="daggerdbl" unicode="&#x2021;" 
d="M51 901v174h262v359h185v-359h262v-174h-262v-502h262v-174h-262v-358h-185v358h-262v174h262v502h-262z" />
    <glyph glyph-name="bullet" unicode="&#x2022;" 
d="M121 717q0 118 83 201t202 83q118 0 201 -82.5t83 -201.5t-83 -202t-201 -83t-201.5 83t-83.5 202z" />
    <glyph glyph-name="ellipsis" unicode="&#x2026;" horiz-adv-x="978" 
d="M82 217h217v-217h-217v217zM381 217h217v-217h-217v217zM680 217h217v-217h-217v217z" />
    <glyph glyph-name="perthousand" unicode="&#x2030;" horiz-adv-x="1808" 
d="M213 1225v-492q0 -90 74 -90q73 0 73 90v492q0 90 -73 90q-74 0 -74 -90zM70 743v471q0 111 56 170.5t161 59.5t161 -59.5t56 -170.5v-471q0 -111 -56 -170t-161 -59t-161 59t-56 170zM287 0l565 1434h133l-565 -1434h-133zM924 700v-491q0 -90 73 -90q74 0 74 90v491
q0 91 -74 91q-73 0 -73 -91zM780 219v471q0 111 56 170.5t161 59.5t161 -59.5t56 -170.5v-471q0 -111 -56 -170t-161 -59t-161 59t-56 170zM1448 700v-491q0 -90 74 -90q73 0 73 90v491q0 91 -73 91q-74 0 -74 -91zM1305 219v471q0 111 56 170.5t161 59.5t161 -59.5
t56 -170.5v-471q0 -111 -56 -170t-161 -59t-161 59t-56 170z" />
    <glyph glyph-name="guilsinglleft" unicode="&#x2039;" horiz-adv-x="401" 
d="M156 1264h213l-121 -545l121 -578h-213l-123 578z" />
    <glyph glyph-name="guilsinglright" unicode="&#x203a;" horiz-adv-x="401" 
d="M33 1264h213l123 -545l-123 -578h-213l121 578z" />
    <glyph glyph-name="fraction" unicode="&#x2044;" horiz-adv-x="137" 
d="M-281 0l566 1434h133l-565 -1434h-134z" />
    <glyph glyph-name="zerosuperior" unicode="&#x2070;" horiz-adv-x="573" 
d="M213 1419v-491q0 -90 74 -90q73 0 73 90v491q0 90 -73 90q-74 0 -74 -90zM70 938v471q0 111 56 170t161 59t161 -59t56 -170v-471q0 -111 -56 -170t-161 -59t-161 59t-56 170z" />
    <glyph glyph-name="foursuperior" unicode="&#x2074;" horiz-adv-x="573" 
d="M49 883v131l260 614h156v-614h67v-131h-67v-164h-141v164h-275zM178 1014h146v336z" />
    <glyph glyph-name="fivesuperior" unicode="&#x2075;" horiz-adv-x="573" 
d="M76 1010h135v-84q0 -88 74 -88q73 0 73 88v198q0 90 -73 90q-74 0 -74 -90v-26h-135l26 528h377v-131h-250l-10 -217q40 68 125 68q77 0 117.5 -54t40.5 -155v-203q0 -110 -54 -169.5t-159 -59.5t-159 59.5t-54 169.5v76z" />
    <glyph glyph-name="sixsuperior" unicode="&#x2076;" horiz-adv-x="573" 
d="M74 938v465q0 235 219 235q103 0 158 -59.5t55 -169.5v-23h-135v33q0 90 -74 90q-41 0 -60.5 -24.5t-19.5 -87.5v-166q39 80 133 80q78 0 118 -53.5t40 -153.5v-166q0 -109 -56 -169t-161 -60t-161 60t-56 169zM291 1182q-74 0 -74 -90v-164q0 -88 74 -88t74 88v164
q0 90 -74 90z" />
    <glyph glyph-name="sevensuperior" unicode="&#x2077;" horiz-adv-x="573" 
d="M72 1628h430v-125l-211 -784h-144l209 780h-284v129z" />
    <glyph glyph-name="eightsuperior" unicode="&#x2078;" horiz-adv-x="573" 
d="M510 938q0 -109 -58 -169t-165 -60t-165.5 60t-58.5 169v70q0 139 89 190q-89 50 -89 182v29q0 109 58.5 169t165.5 60t165 -60t58 -169v-29q0 -133 -88 -182q88 -50 88 -190v-70zM207 940q0 -102 80 -102t80 102v86q0 102 -80 102t-80 -102v-86zM207 1405v-51
q0 -97 80 -97t80 97v51q0 104 -80 104t-80 -104z" />
    <glyph glyph-name="ninesuperior" unicode="&#x2079;" horiz-adv-x="573" 
d="M500 1409v-465q0 -235 -219 -235q-103 0 -158 59.5t-55 169.5v23h135v-33q0 -90 73 -90q41 0 60.5 24.5t19.5 87.5v166q-39 -80 -133 -80q-77 0 -117 53t-40 154v166q0 109 56 169t161 60t161 -60t56 -169zM283 1165q73 0 73 90v164q0 88 -73 88q-74 0 -74 -88v-164
q0 -90 74 -90z" />
    <glyph glyph-name="zeroinferior" unicode="&#x2080;" horiz-adv-x="573" 
d="M213 567v-491q0 -90 74 -90q73 0 73 90v491q0 90 -73 90q-74 0 -74 -90zM70 86v471q0 111 56 170t161 59t161 -59t56 -170v-471q0 -111 -56 -170t-161 -59t-161 59t-56 170z" />
    <glyph glyph-name="oneinferior" unicode="&#x2081;" horiz-adv-x="409" 
d="M51 561v101q40 0 67.5 8t45.5 27t26.5 34.5t20.5 44.5h94v-909h-143v694h-111z" />
    <glyph glyph-name="twoinferior" unicode="&#x2082;" horiz-adv-x="573" 
d="M369 557q0 57 -19 79.5t-55 22.5q-74 0 -74 -90v-96h-135v88q0 110 54 168.5t159 58.5t159 -58.5t54 -168.5q0 -83 -32 -157t-76 -126t-87.5 -98.5t-69.5 -93t-18 -90.5h271v-129h-414v110q0 54 15.5 101.5t40.5 84t55 71t60.5 68.5t55.5 70.5t40.5 84t15.5 100.5z" />
    <glyph glyph-name="threeinferior" unicode="&#x2083;" horiz-adv-x="573" 
d="M356 90v70q0 63 -21.5 88.5t-70.5 25.5h-49v129h55q86 0 86 99v51q0 58 -18.5 81t-54.5 23q-74 0 -74 -90v-57h-135v47q0 111 54 170t159 59t159 -59t54 -170v-22q0 -145 -101 -187q101 -43 101 -190v-72q0 -111 -54 -170t-159 -59t-159 59t-54 170v74h135v-84
q0 -90 74 -90q36 0 54.5 23t18.5 81z" />
    <glyph glyph-name="fourinferior" unicode="&#x2084;" horiz-adv-x="573" 
d="M49 31v131l260 614h156v-614h67v-131h-67v-164h-141v164h-275zM178 162h146v336z" />
    <glyph glyph-name="fiveinferior" unicode="&#x2085;" horiz-adv-x="573" 
d="M76 158h135v-84q0 -88 74 -88q73 0 73 88v198q0 90 -73 90q-74 0 -74 -90v-26h-135l26 528h377v-131h-250l-10 -217q40 68 125 68q77 0 117.5 -54t40.5 -155v-203q0 -110 -54 -169.5t-159 -59.5t-159 59.5t-54 169.5v76z" />
    <glyph glyph-name="sixinferior" unicode="&#x2086;" horiz-adv-x="573" 
d="M74 86v465q0 235 219 235q103 0 158 -59.5t55 -169.5v-22h-135v32q0 90 -74 90q-41 0 -60.5 -24.5t-19.5 -87.5v-166q39 80 133 80q78 0 118 -53.5t40 -153.5v-166q0 -109 -56 -169t-161 -60t-161 60t-56 169zM291 330q-74 0 -74 -90v-164q0 -88 74 -88t74 88v164
q0 90 -74 90z" />
    <glyph glyph-name="seveninferior" unicode="&#x2087;" horiz-adv-x="573" 
d="M72 776h430v-125l-211 -784h-144l209 780h-284v129z" />
    <glyph glyph-name="eightinferior" unicode="&#x2088;" horiz-adv-x="573" 
d="M510 86q0 -109 -58 -169t-165 -60t-165.5 60t-58.5 169v70q0 139 89 190q-89 50 -89 182v29q0 109 58.5 169t165.5 60t165 -60t58 -169v-29q0 -133 -88 -182q88 -50 88 -190v-70zM207 88q0 -102 80 -102t80 102v86q0 102 -80 102t-80 -102v-86zM207 553v-51q0 -96 80 -96
t80 96v51q0 104 -80 104t-80 -104z" />
    <glyph glyph-name="nineinferior" unicode="&#x2089;" horiz-adv-x="573" 
d="M500 557v-465q0 -235 -219 -235q-103 0 -158 59.5t-55 169.5v23h135v-33q0 -90 73 -90q41 0 60.5 24.5t19.5 87.5v166q-39 -80 -133 -80q-77 0 -117 53t-40 154v166q0 109 56 169t161 60t161 -60t56 -169zM283 313q73 0 73 90v164q0 88 -73 88q-74 0 -74 -88v-164
q0 -90 74 -90z" />
    <glyph glyph-name="Euro" unicode="&#x20ac;" 
d="M39 778v113h57v199q0 174 83 267t247 93t247 -93t83 -267v-105h-213v119q0 75 -27.5 108t-83.5 33q-55 0 -82.5 -33t-27.5 -108v-213h315v-113h-315v-112h315v-113h-315v-223q0 -75 27 -107.5t83 -32.5t83.5 33t27.5 107v129h213v-115q0 -174 -83 -267t-247 -93t-247 93
t-83 267v209h-57v113h57v112h-57z" />
    <glyph glyph-name="uni20B9" unicode="&#x20b9;" 
d="M53 1124h361q0 74 -42 105t-130 31h-189v174h705v-174h-172q38 -55 51 -136h121v-174h-121q-12 -143 -106 -226t-228 -83h-10l477 -641h-242l-475 641v174h189q88 0 130 30.5t42 104.5h-361v174z" />
    <glyph glyph-name="uni2117" unicode="&#x2117;" horiz-adv-x="1507" 
d="M41 717q0 157 54.5 294t149.5 233t227 151t282 55t282 -55t226.5 -151.5t149 -233t54.5 -293.5t-54.5 -293.5t-149 -233t-226.5 -151.5t-282 -55t-282 55t-227 151t-149.5 233t-54.5 294zM188 717q0 -168 73.5 -303.5t203 -211t289.5 -75.5t289 75.5t202.5 211
t73.5 303.5t-73.5 303.5t-202.5 211t-289 75.5t-289.5 -75.5t-203 -211t-73.5 -303.5zM563 260v877h238q119 0 175 -56.5t56 -173.5v-114q0 -117 -56 -173.5t-175 -56.5h-82v-303h-156zM877 811v78q0 54 -20 79t-64 25h-74v-286h74q44 0 64 25t20 79z" />
    <glyph glyph-name="trademark" unicode="&#x2122;" horiz-adv-x="1200" 
d="M748 1434l106 -512l96 512h199v-729h-135v518l-96 -518h-136l-108 514v-514h-125v729h199zM20 1303v131h443v-131h-150v-598h-143v598h-150z" />
    <glyph glyph-name="onethird" unicode="&#x2153;" horiz-adv-x="1284" 
d="M133 1219v100q40 0 67.5 8.5t45.5 27.5t26.5 34.5t20.5 44.5h94v-910h-143v695h-111zM1067 223v70q0 63 -22 89t-70 26h-49v129h55q86 0 86 98v51q0 58 -19 81.5t-55 23.5q-73 0 -73 -91v-57h-136v47q0 111 54 170.5t159 59.5t159 -59.5t54 -170.5v-22q0 -146 -100 -187
q100 -43 100 -190v-72q0 -111 -54 -170t-159 -59t-159 59t-54 170v74h136v-84q0 -90 73 -90q37 0 55.5 23t18.5 81zM266 0l565 1434h134l-566 -1434h-133z" />
    <glyph glyph-name="twothirds" unicode="&#x2154;" horiz-adv-x="1284" 
d="M369 1212q0 57 -19 80t-55 23q-74 0 -74 -90v-97h-135v89q0 110 54 168.5t159 58.5t159 -58.5t54 -168.5q0 -83 -32 -157t-76 -126.5t-87.5 -99t-69.5 -93t-18 -90.5h271v-129h-414v111q0 54 15.5 101.5t40.5 84t55 70.5t60.5 68.5t55.5 70.5t40.5 83.5t15.5 100.5z
M313 0l566 1434h133l-566 -1434h-133zM1067 223v70q0 63 -22 89t-70 26h-49v129h55q86 0 86 98v51q0 58 -19 81.5t-55 23.5q-73 0 -73 -91v-57h-136v47q0 111 54 170.5t159 59.5t159 -59.5t54 -170.5v-22q0 -146 -100 -187q100 -43 100 -190v-72q0 -111 -54 -170t-159 -59
t-159 59t-54 170v74h136v-84q0 -90 73 -90q37 0 55.5 23t18.5 81z" />
    <glyph glyph-name="oneeighth" unicode="&#x215b;" horiz-adv-x="1284" 
d="M133 1219v100q40 0 67.5 8.5t45.5 27.5t26.5 34.5t20.5 44.5h94v-910h-143v695h-111zM1221 219q0 -109 -58.5 -169t-165.5 -60t-165 60t-58 169v70q0 140 88 190q-88 49 -88 183v28q0 109 58 169.5t165 60.5t165.5 -60.5t58.5 -169.5v-28q0 -134 -88 -183q88 -50 88 -190
v-70zM918 221q0 -102 79 -102q80 0 80 102v86q0 103 -80 103q-79 0 -79 -103v-86zM918 686v-51q0 -96 79 -96q80 0 80 96v51q0 105 -80 105q-79 0 -79 -105zM266 0l565 1434h134l-566 -1434h-133z" />
    <glyph glyph-name="threeeighths" unicode="&#x215c;" horiz-adv-x="1284" 
d="M356 748v69q0 63 -22 89t-70 26h-49v129h55q86 0 86 98v51q0 58 -18.5 81.5t-54.5 23.5q-74 0 -74 -90v-58h-135v47q0 111 54 170.5t159 59.5t159 -59.5t54 -170.5v-22q0 -144 -101 -186q101 -43 101 -191v-72q0 -111 -54 -170t-159 -59t-159 59t-54 170v74h135v-84
q0 -90 74 -90q36 0 54.5 23.5t18.5 81.5zM293 0l565 1434h133l-565 -1434h-133zM1221 219q0 -109 -58.5 -169t-165.5 -60t-165 60t-58 169v70q0 140 88 190q-88 49 -88 183v28q0 109 58 169.5t165 60.5t165.5 -60.5t58.5 -169.5v-28q0 -134 -88 -183q88 -50 88 -190v-70z
M918 221q0 -102 79 -102q80 0 80 102v86q0 103 -80 103q-79 0 -79 -103v-86zM918 686v-51q0 -96 79 -96q80 0 80 96v51q0 105 -80 105q-79 0 -79 -105z" />
    <glyph glyph-name="fiveeighths" unicode="&#x215d;" horiz-adv-x="1284" 
d="M76 815h135v-84q0 -88 74 -88q73 0 73 88v199q0 90 -73 90q-74 0 -74 -90v-27h-135l26 529h377v-132h-250l-10 -217q40 68 125 68q77 0 117.5 -54t40.5 -155v-203q0 -110 -54 -169.5t-159 -59.5t-159 59.5t-54 169.5v76zM293 0l565 1434h133l-565 -1434h-133zM1221 219
q0 -109 -58.5 -169t-165.5 -60t-165 60t-58 169v70q0 140 88 190q-88 49 -88 183v28q0 109 58 169.5t165 60.5t165.5 -60.5t58.5 -169.5v-28q0 -134 -88 -183q88 -50 88 -190v-70zM918 221q0 -102 79 -102q80 0 80 102v86q0 103 -80 103q-79 0 -79 -103v-86zM918 686v-51
q0 -96 79 -96q80 0 80 96v51q0 105 -80 105q-79 0 -79 -105z" />
    <glyph glyph-name="seveneighths" unicode="&#x215e;" horiz-adv-x="1284" 
d="M72 1434h430v-125l-211 -785h-144l209 781h-284v129zM231 0l566 1434h133l-565 -1434h-134zM1221 219q0 -109 -58.5 -169t-165.5 -60t-165 60t-58 169v70q0 140 88 190q-88 49 -88 183v28q0 109 58 169.5t165 60.5t165.5 -60.5t58.5 -169.5v-28q0 -134 -88 -183
q88 -50 88 -190v-70zM918 221q0 -102 79 -102q80 0 80 102v86q0 103 -80 103q-79 0 -79 -103v-86zM918 686v-51q0 -96 79 -96q80 0 80 96v51q0 105 -80 105q-79 0 -79 -105z" />
    <glyph glyph-name="minus" unicode="&#x2212;" 
d="M51 797h709v-160h-709v160z" />
    <glyph glyph-name="infinity" unicode="&#x221e;" horiz-adv-x="1228" 
d="M369 442q-138 0 -214.5 70.5t-76.5 204.5q0 133 76.5 203.5t214.5 70.5h20q181 0 238 -104q55 104 229 104h25q138 0 212 -70t74 -204t-74.5 -204.5t-211.5 -70.5h-25q-172 0 -229 105q-58 -105 -238 -105h-20zM371 838q-76 0 -105.5 -33t-29.5 -88q0 -54 29 -86t106 -33
h41q71 0 105 32t34 87t-34.5 88t-104.5 33h-41zM831 838q-76 0 -105.5 -33t-29.5 -88q0 -54 29 -86t106 -33h41q71 0 105.5 32t34.5 87t-34.5 88t-105.5 33h-41z" />
    <glyph glyph-name="approxequal" unicode="&#x2248;" 
d="M123 408l-107 102q70 104 126 144t118 40q37 0 80.5 -19.5t75.5 -43t70.5 -43t66.5 -19.5q34 0 59.5 23.5t75.5 93.5l107 -111q-69 -102 -124.5 -139t-119.5 -37q-37 0 -80.5 19.5t-75.5 43t-70.5 43t-66.5 19.5q-34 0 -60.5 -23.5t-74.5 -92.5zM123 748l-107 102
q70 104 126 144t118 40q37 0 80.5 -19.5t75.5 -43t70.5 -43t66.5 -19.5q34 0 59.5 23.5t75.5 93.5l107 -111q-69 -102 -124.5 -139t-119.5 -37q-37 0 -80.5 19.5t-75.5 43t-70.5 43t-66.5 19.5q-34 0 -60.5 -23.5t-74.5 -92.5z" />
    <glyph glyph-name="NULL" horiz-adv-x="0" 
 />
    <glyph glyph-name="CR" horiz-adv-x="317" 
 />
    <glyph glyph-name="commaaccent" horiz-adv-x="512" 
d="M236 -256h-74v188h188v-168l-88 -131h-80z" />
    <glyph glyph-name="zero.alt" 
d="M289 1104v-774q0 -142 117 -142q116 0 116 142v774q0 141 -116 141q-117 0 -117 -141zM63 344v746q0 172 89 266t254 94t253.5 -94t88.5 -266v-746q0 -172 -88.5 -266t-253.5 -94t-254 94t-89 266z" />
    <glyph glyph-name="one.alt" horiz-adv-x="512" 
d="M31 1094v159q50 0 89 10.5t63 25t43.5 41t29.5 48t23 56.5h151v-1434h-225v1094h-174z" />
    <glyph glyph-name="two.alt" horiz-adv-x="755" 
d="M500 1081q0 92 -29.5 128t-87.5 36q-117 0 -117 -141v-154h-213v140q0 173 86 266.5t250 93.5t250 -93.5t86 -266.5q0 -95 -27 -183t-69 -155t-93 -128t-99.5 -113.5t-87.5 -101.5t-59 -101t-11 -103h426v-205h-652v176q0 85 24.5 160.5t64 132t87 110t95.5 106.5
t87.5 109t64 129.5t24.5 157.5z" />
    <glyph glyph-name="three.alt" horiz-adv-x="782" 
d="M502 1001v80q0 92 -29.5 128t-87.5 36q-117 0 -117 -141v-92h-213v78q0 173 86 266.5t250 93.5t250 -93.5t86 -266.5v-37q0 -230 -158 -295q158 -69 158 -301v-113q0 -173 -86 -266.5t-250 -93.5t-250 93.5t-86 266.5v119h213v-133q0 -142 117 -142q58 0 87.5 36
t29.5 126v113q0 98 -35 140t-113 42h-75v205h88q67 0 101 34.5t34 116.5z" />
    <glyph glyph-name="four.alt" horiz-adv-x="813" 
d="M29 260v205l409 969h246v-969h107v-205h-107v-260h-225v260h-430zM236 465h223v530z" />
    <glyph glyph-name="five.alt" horiz-adv-x="784" 
d="M57 463h213v-133q0 -140 117 -140t117 140v315q0 141 -117 141t-117 -141v-43h-213l41 832h594v-205h-391l-18 -342q63 104 196 104q124 0 187 -84t63 -243v-320q0 -173 -86 -266.5t-250 -93.5t-250 93.5t-86 266.5v119z" />
    <glyph glyph-name="six.alt" horiz-adv-x="802" 
d="M63 344v733q0 373 345 373q164 0 249.5 -93.5t85.5 -266.5v-37h-213v51q0 141 -116 141q-64 0 -94.5 -39t-30.5 -137v-262q60 127 209 127q124 0 187 -84t63 -244v-262q0 -172 -88.5 -266t-253.5 -94t-254 94t-89 266zM406 729q-117 0 -117 -141v-258q0 -140 117 -140
q116 0 116 140v258q0 141 -116 141z" />
    <glyph glyph-name="seven.alt" horiz-adv-x="696" 
d="M20 1434h656v-197l-311 -1237h-226l312 1237v-8h-431v205z" />
    <glyph glyph-name="eight.alt" horiz-adv-x="815" 
d="M760 344q0 -172 -91 -266t-261 -94t-261.5 94t-91.5 266v113q0 220 140 299q-140 76 -140 288v46q0 172 91.5 266t261.5 94t261 -94t91 -266v-46q0 -211 -139 -288q139 -78 139 -299v-113zM281 350q0 -89 33.5 -125.5t93.5 -36.5q59 0 92.5 36.5t34.5 125.5v133
q0 162 -127 162t-127 -162v-133zM281 1081v-80q0 -151 127 -151t127 151v80q0 90 -33.5 127t-93.5 37t-93.5 -37t-33.5 -127z" />
    <glyph glyph-name="nine.alt" horiz-adv-x="802" 
d="M739 1090v-734q0 -372 -344 -372q-164 0 -250 93.5t-86 266.5v37h213v-51q0 -142 117 -142q63 0 94 39.5t31 137.5v262q-60 -127 -209 -127q-124 0 -187 84t-63 243v263q0 172 88.5 266t253.5 94t253.5 -94t88.5 -266zM397 705q117 0 117 141v258q0 139 -117 139
q-116 0 -116 -139v-258q0 -141 116 -141z" />
    </font>
</defs>
</svg>
