<?xml version="1.0" standalone="no"?>
<!DOCTYPE svg PUBLIC "-//W3C//DTD SVG 1.1//EN" "http://www.w3.org/Graphics/SVG/1.1/DTD/svg11.dtd" >
<svg xmlns="http://www.w3.org/2000/svg" xmlns:xlink="http://www.w3.org/1999/xlink" version="1.1">
<metadata>
Created by FontForge 20170731 at Sat Apr 29 09:59:16 2023
 By Aleksey,,,
Copyright  2010 by Ryoichi Tsunekawa. All rights reserved.
</metadata>
<defs>
<font id="BebasNeueLight" horiz-adv-x="770" >
  <font-face 
    font-family="Bebas Neue Light"
    font-weight="300"
    font-stretch="normal"
    units-per-em="2048"
    panose-1="0 0 5 0 0 0 0 0 0 0"
    ascent="1536"
    descent="-512"
    x-height="1434"
    cap-height="1434"
    bbox="-96 -367 1640 1792"
    underline-thickness="102"
    underline-position="-327"
    unicode-range="U+0020-F6C3"
  />
<missing-glyph horiz-adv-x="1122" 
d="M102 0v1434h918v-1434h-918zM276 1300l267 -561l-287 -610h37l270 576l271 -576h38l-284 610l264 561h-35l-252 -530l-252 530h-37z" />
    <glyph glyph-name=".notdef" horiz-adv-x="1122" 
d="M102 0v1434h918v-1434h-918zM276 1300l267 -561l-287 -610h37l270 576l271 -576h38l-284 610l264 561h-35l-252 -530l-252 530h-37z" />
    <glyph glyph-name=".null" horiz-adv-x="0" 
 />
    <glyph glyph-name="nonmarkingreturn" horiz-adv-x="682" 
 />
    <glyph glyph-name="space" unicode=" " horiz-adv-x="317" 
 />
    <glyph glyph-name="exclam" unicode="!" horiz-adv-x="208" 
d="M88 317l-6 314v805h45v-805l-6 -314h-33zM82 164h45v-164h-45v164z" />
    <glyph glyph-name="quotedbl" unicode="&#x22;" horiz-adv-x="329" 
d="M82 1436h45l-4 -330h-37zM205 1436h43l-4 -330h-35z" />
    <glyph glyph-name="numbersign" unicode="#" horiz-adv-x="849" 
d="M772 1008h-133l-51 -500h131l-2 -35h-133l-49 -473h-41l51 473h-283l-49 -473h-41l51 473h-147l2 35h149l52 500h-150l2 34h152l39 394h40l-40 -394h280l41 394h41l-41 -394h131zM547 508l53 500h-283l-51 -500h281z" />
    <glyph glyph-name="dollar" unicode="$" horiz-adv-x="757" 
d="M401 1571v-129q74 -4 128.5 -33.5t86.5 -79t47 -110.5t15 -134v-26h-43v28q0 139 -60.5 225.5t-191.5 86.5t-191.5 -85t-60.5 -224q0 -75 30.5 -136.5t78.5 -104.5t106.5 -82.5t117.5 -80t107 -85.5t78.5 -109.5t30.5 -143.5q0 -100 -26.5 -175.5t-90.5 -125.5t-162 -55
v-117h-39v117q-146 6 -214 103t-68 253v72h45v-74q0 -142 60.5 -226.5t193.5 -84.5q134 0 195 84.5t61 226.5q0 73 -30.5 133.5t-78.5 103t-106.5 82t-117.5 80t-107 85.5t-78.5 111t-30.5 146q0 159 67 252.5t209 102.5v129h39z" />
    <glyph glyph-name="percent" unicode="%" horiz-adv-x="1222" 
d="M264 1436q97 0 142 -66t45 -168v-422q0 -102 -45 -167.5t-142 -65.5q-96 0 -140 65.5t-44 167.5v422q0 102 44 168t140 66zM874 1436h35l-565 -1436h-35zM264 1403q-55 0 -90 -30t-47 -72.5t-12 -98.5v-424q0 -86 34 -142t115 -56t115.5 56t34.5 142v424q0 41 -7.5 75
t-23.5 63.5t-46.5 46t-72.5 16.5zM958 883q50 0 87 -19t58 -53t30.5 -74t9.5 -88v-416q0 -103 -44 -169t-141 -66t-141.5 66t-44.5 169v416q0 65 16.5 115t60 84.5t109.5 34.5zM958 848q-149 0 -149 -199v-418q0 -86 34 -142t115 -56t115.5 56t34.5 142v418q0 87 -34.5 143
t-115.5 56z" />
    <glyph glyph-name="ampersand" unicode="&#x26;" horiz-adv-x="817" 
d="M610 1391h-182q-301 0 -301 -312v-47q0 -106 58.5 -181.5t160.5 -82.5h266v160h45v-160h86v-41h-86v-532q0 -47 1.5 -71.5t11 -59.5t28.5 -64h-49q-35 61 -35 145q-31 -76 -98.5 -115.5t-153.5 -39.5q-142 0 -211 90.5t-69 241.5v131q0 104 51.5 185.5t147.5 111.5
q-98 24 -148.5 103.5t-50.5 184.5v39q0 173 87 265t259 92h182v-43zM612 727h-254q-108 -9 -169.5 -84t-61.5 -188v-131q0 -133 60 -213t186 -80q105 0 172 62.5t67 166.5v467z" />
    <glyph glyph-name="quotesingle" unicode="'" horiz-adv-x="206" 
d="M82 1436h43l-4 -330h-37z" />
    <glyph glyph-name="parenleft" unicode="(" horiz-adv-x="458" 
d="M383 1395h-35q-66 0 -110 -20t-67.5 -59t-32.5 -86.5t-9 -113.5v-797q0 -67 9 -114t32 -86t67.5 -58.5t110.5 -19.5h35v-41h-37q-148 0 -205 81t-57 238v797q0 156 57.5 238t204.5 82h37v-41z" />
    <glyph glyph-name="parenright" unicode=")" horiz-adv-x="458" 
d="M76 1436h35q147 0 205.5 -82t58.5 -238v-797q0 -76 -12 -131t-40.5 -99t-81.5 -66.5t-130 -22.5h-35v41h35q126 0 172.5 70t46.5 208v797q0 66 -9.5 113.5t-33 86.5t-67.5 59t-109 20h-35v41z" />
    <glyph glyph-name="asterisk" unicode="*" horiz-adv-x="804" 
d="M715 1163l-293 -71l178 -244l-31 -23l-168 250l-165 -248l-33 21l178 244l-291 77l12 39l287 -92l-8 303h41l-6 -303l286 86z" />
    <glyph glyph-name="plus" unicode="+" horiz-adv-x="788" 
d="M711 698h-297v-305h-37v305h-299v37h299v301h37v-301h297v-37z" />
    <glyph glyph-name="comma" unicode="," horiz-adv-x="235" 
d="M86 -137l23 137v166h45v-164l-45 -139h-23z" />
    <glyph glyph-name="hyphen" unicode="-" horiz-adv-x="524" 
d="M80 696v41h364v-41h-364z" />
    <glyph glyph-name="period" unicode="." horiz-adv-x="208" 
d="M82 166h45v-166h-45v166z" />
    <glyph glyph-name="slash" unicode="/" horiz-adv-x="753" 
d="M639 1434h41l-565 -1434h-41z" />
    <glyph glyph-name="zero" unicode="0" 
d="M80 352v729q0 163 74.5 263t230.5 100t230.5 -100t74.5 -263v-729q0 -105 -29.5 -184t-100 -128.5t-175.5 -49.5t-175.5 49.5t-100 128.5t-29.5 184zM125 1083v-731q0 -69 14.5 -125.5t44 -101.5t81 -69.5t120.5 -24.5t120.5 24.5t81 69.5t44 101.5t14.5 125.5v731
q0 143 -63 231.5t-197 88.5t-197 -88.5t-63 -231.5z" />
    <glyph glyph-name="one" unicode="1" horiz-adv-x="487" 
d="M338 0v1348q-71 -142 -240 -160v41q175 17 242 207h43v-1436h-45z" />
    <glyph glyph-name="two" unicode="2" horiz-adv-x="757" 
d="M381 1444q66 0 117.5 -19t85 -51.5t55.5 -79.5t31.5 -100.5t9.5 -116.5q0 -81 -30 -156t-78.5 -136.5t-106.5 -122.5t-117 -126t-108 -134.5t-80 -160t-33 -190.5v-8h545v-43h-590v31q0 109 30.5 206t79.5 169.5t107.5 139t117.5 127t108 120.5t79.5 132t30.5 150
q0 328 -256 328q-70 0 -121 -26.5t-79 -73.5t-41 -103.5t-13 -124.5v-78h-43v76q0 78 16 142.5t50 117t93.5 82t139.5 29.5z" />
    <glyph glyph-name="three" unicode="3" horiz-adv-x="759" 
d="M381 1444q80 0 139 -28t93 -78.5t50.5 -114.5t16.5 -142v-34q0 -104 -55 -185.5t-150 -111.5q100 -26 152.5 -102.5t52.5 -184.5v-111q0 -163 -72 -262.5t-227 -99.5t-228 99.5t-73 262.5v68h45v-68q0 -69 13.5 -125t42 -101t79 -70t119.5 -25t120 25t80 70t42.5 101.5
t13.5 126.5v109q0 118 -62 188t-176 76h-104v41h106q107 9 171.5 85t64.5 187v41q0 70 -13.5 126t-42.5 101t-80 70t-120 25t-119.5 -25t-79 -69.5t-42 -100.5t-13.5 -125v-43h-45v41q0 163 73 263t228 100z" />
    <glyph glyph-name="four" unicode="4" horiz-adv-x="831" 
d="M756 338h-125v-338h-45v338h-510v45l499 1053h56v-1055h125v-43zM586 1356l-467 -975h467v975z" />
    <glyph glyph-name="five" unicode="5" horiz-adv-x="759" 
d="M176 1393l-29 -592q79 127 244 127q77 0 134 -28t90 -78.5t49 -113.5t16 -139v-217q0 -77 -16.5 -141t-51 -114.5t-93.5 -78.5t-138 -28t-138 28t-94 78.5t-52 114.5t-17 141v62h45v-62q0 -143 61 -231t193 -88q69 0 120 25t80 70t42.5 100.5t13.5 123.5v215
q0 67 -13.5 122.5t-42.5 100.5t-80 70t-120 25q-87 0 -147.5 -44.5t-90.5 -127.5v-17h-43l37 740h518v-43h-477z" />
    <glyph glyph-name="six" unicode="6" horiz-adv-x="772" 
d="M387 1444q105 0 173.5 -47.5t97 -124.5t28.5 -182v-11h-43v13q0 142 -61 226.5t-195 84.5q-93 0 -153 -44.5t-84.5 -114.5t-24.5 -165v-395q43 91 105.5 130.5t166.5 39.5q151 0 223 -98.5t72 -259.5v-144q0 -105 -29.5 -184t-100 -128.5t-175.5 -49.5q-157 0 -232 100
t-75 262v729q0 164 75 263.5t232 99.5zM387 811q-70 0 -122 -25.5t-82 -70.5t-44 -100t-14 -121v-142q0 -69 14 -125t44 -100.5t82 -69t122 -24.5q135 0 197.5 87.5t62.5 231.5v142q0 142 -63 229.5t-197 87.5z" />
    <glyph glyph-name="seven" unicode="7" horiz-adv-x="759" 
d="M205 0l428 1393h-553v43h600v-43l-428 -1393h-47z" />
    <glyph glyph-name="eight" unicode="8" horiz-adv-x="788" 
d="M393 1444q156 0 236 -91.5t80 -250.5v-47q0 -120 -50 -200.5t-157 -104.5q207 -47 207 -312v-96q0 -161 -79.5 -256.5t-236.5 -95.5t-236 95.5t-79 256.5v96q0 127 49 206.5t164 105.5q-213 48 -213 305v47q0 158 80.5 250t234.5 92zM393 1403q-133 0 -201.5 -81
t-68.5 -220v-51q0 -138 68 -210.5t202 -72.5q135 0 203 72.5t68 210.5v51q0 139 -69 220t-202 81zM393 727q-270 0 -270 -285v-100q0 -143 67.5 -227t202.5 -84q136 0 203.5 84t67.5 227v100q0 285 -271 285z" />
    <glyph glyph-name="nine" unicode="9" horiz-adv-x="772" 
d="M385 1446q80 0 140 -28t95 -78.5t52.5 -115.5t17.5 -143v-727q0 -79 -17 -143t-52 -114.5t-95.5 -78.5t-140.5 -28q-155 0 -230 98t-75 260v10h43v-12q0 -142 63.5 -228.5t198.5 -86.5t197.5 89t62.5 236v400q-58 -174 -270 -174q-151 0 -223 98.5t-72 259.5v141
q0 78 17.5 143t52.5 115.5t95 78.5t140 28zM385 1403q-134 0 -197 -88.5t-63 -231.5v-141q0 -143 63 -231t197 -88t197 88t63 231v141q0 143 -63 231.5t-197 88.5z" />
    <glyph glyph-name="colon" unicode=":" horiz-adv-x="208" 
d="M82 946h45v-166h-45v166zM82 166h45v-166h-45v166z" />
    <glyph glyph-name="semicolon" unicode=";" horiz-adv-x="235" 
d="M109 946h45v-166h-45v166zM86 -137l23 137v166h45v-164l-45 -139h-23z" />
    <glyph glyph-name="less" unicode="&#x3c;" horiz-adv-x="739" 
d="M657 455v-41l-577 284v37l577 285v-41l-530 -262z" />
    <glyph glyph-name="equal" unicode="=" horiz-adv-x="555" 
d="M80 883h395v-35h-395v35zM80 664h395v-35h-395v35z" />
    <glyph glyph-name="greater" unicode="&#x3e;" horiz-adv-x="739" 
d="M82 414v41l530 262l-530 262v41l577 -285v-37z" />
    <glyph glyph-name="question" unicode="?" horiz-adv-x="745" 
d="M373 1444q82 0 140.5 -28.5t91.5 -80.5t48 -115.5t15 -142.5q0 -61 -17 -116.5t-44.5 -99t-61 -85.5t-67 -83.5t-61 -84.5t-44.5 -98t-17 -115q0 -31 11 -73h-41q-11 46 -11 75q0 73 23 138.5t57 112t74 98t74 96.5t57 107t23 130q0 324 -250 324q-56 0 -100 -18
t-72 -48.5t-46.5 -73t-26 -89t-7.5 -99.5v-78h-43v76q0 61 9.5 114.5t31 101t55 81.5t84.5 54t115 20zM322 164h45v-164h-45v164z" />
    <glyph glyph-name="at" unicode="@" horiz-adv-x="1409" 
d="M797 1487q272 0 404 -149.5t132 -419.5q0 -76 -10 -155t-35 -162.5t-62 -148t-96 -105.5t-131 -42q-61 0 -93 41.5t-34 104.5q-68 -168 -229 -168q-63 1 -107 28t-64 71.5t-28.5 100t0.5 113.5l21 201q13 130 78.5 211.5t183.5 81.5q155 -3 193 -152l14 139h43l-62 -581
q-5 -61 16 -105.5t77 -44.5q66 1 118.5 42.5t83 103.5t50.5 141.5t27.5 149t6.5 132.5q0 256 -123 394.5t-376 138.5q-142 0 -257 -48t-192 -129.5t-129 -193.5t-75 -236t-23 -261q0 -305 145 -466t445 -161q225 0 366 113l-2 -48q-152 -104 -366 -104q-318 0 -473.5 172.5
t-155.5 495.5q0 142 24.5 271t80.5 245.5t137.5 202t204 136t272.5 50.5zM735 1047q-72 0 -122 -36.5t-74 -91t-33 -126.5l-21 -201q-7 -48 0 -95.5t23 -86t54 -62.5t93 -24t98 23t69 62.5t41 86t20 100.5l22 199q7 48 0 93.5t-24.5 81t-55 56.5t-90.5 21z" />
    <glyph glyph-name="A" unicode="A" horiz-adv-x="915" 
d="M711 338h-510l-84 -338h-41l346 1436h63l355 -1436h-45zM453 1382l-244 -1003h493z" />
    <glyph glyph-name="B" unicode="B" horiz-adv-x="751" 
d="M82 1434h287q151 0 213.5 -73t62.5 -224v-93q0 -127 -44.5 -194.5t-160.5 -85.5q234 -34 234 -307v-127q0 -330 -303 -330h-289v1434zM127 782h186q157 0 222 52.5t65 203.5v97q0 132 -50.5 194t-180.5 62h-242v-609zM127 43h244q136 0 197 73t61 214v129
q0 152 -71.5 217t-223.5 65h-207v-698z" />
    <glyph glyph-name="C" unicode="C" horiz-adv-x="757" 
d="M379 1444q80 0 139 -28.5t94 -79t51.5 -114.5t16.5 -141v-110h-45v112q0 143 -61 231.5t-193 88.5q-69 0 -120 -25t-80 -70t-42.5 -101t-13.5 -124v-733q0 -68 13.5 -123.5t42.5 -100t80 -69t120 -24.5q68 0 118.5 24.5t79.5 69t42.5 100t13.5 123.5v158h45v-156
q0 -77 -16.5 -141t-51.5 -114.5t-94 -78.5t-139 -28q-79 0 -138 28t-93.5 78.5t-51 114.5t-16.5 141v729q0 77 16.5 141t51 114.5t93.5 79t138 28.5z" />
    <glyph glyph-name="D" unicode="D" 
d="M82 1434h299q157 0 234 -98t77 -261v-719q0 -161 -76.5 -258.5t-232.5 -97.5h-301v1434zM127 43h254q138 0 202 84t64 227v723q0 144 -65 229t-201 85h-254v-1348z" />
    <glyph glyph-name="E" unicode="E" horiz-adv-x="706" 
d="M127 748h422v-41h-422v-664h502v-43h-547v1434h547v-43h-502v-643z" />
    <glyph glyph-name="F" unicode="F" horiz-adv-x="681" 
d="M127 713h401v-43h-401v-670h-45v1434h526v-43h-481v-678z" />
    <glyph glyph-name="G" unicode="G" horiz-adv-x="759" 
d="M379 1444q80 0 139 -28.5t94 -79t51.5 -114.5t16.5 -141v-94h-45v96q0 143 -61 231.5t-193 88.5q-69 0 -120 -25t-80 -70t-42.5 -101t-13.5 -124v-733q0 -68 13.5 -123.5t42.5 -100t80 -69t120 -24.5q68 0 118.5 24.5t79.5 69t42.5 100t13.5 123.5v326h-223v41h268v-365
q0 -77 -16.5 -141t-51.5 -114.5t-94 -78.5t-139 -28q-79 0 -138 28t-93.5 78.5t-51 114.5t-16.5 141v729q0 77 16.5 141t51 114.5t93.5 79t138 28.5z" />
    <glyph glyph-name="H" unicode="H" horiz-adv-x="772" 
d="M645 696h-518v-696h-45v1434h45v-697h518v697h45v-1434h-45v696z" />
    <glyph glyph-name="I" unicode="I" horiz-adv-x="208" 
d="M82 1434h45v-1434h-45v1434z" />
    <glyph glyph-name="J" unicode="J" horiz-adv-x="516" 
d="M74 0v43q32 -2 86 2q121 11 176 82t55 221v1086h45v-1084q0 -173 -68.5 -256t-203.5 -92q-58 -4 -90 -2z" />
    <glyph glyph-name="K" unicode="K" horiz-adv-x="821" 
d="M696 0l-460 713l-109 -164v-549h-45v1434h45v-809l532 809h50l-445 -678l481 -756h-49z" />
    <glyph glyph-name="L" unicode="L" horiz-adv-x="681" 
d="M608 0h-526v1434h45v-1391h481v-43z" />
    <glyph glyph-name="M" unicode="M" horiz-adv-x="1007" 
d="M881 1366l-353 -1362h-51l-354 1362v-1366h-41v1434h70l352 -1360l352 1360h70v-1434h-45v1366z" />
    <glyph glyph-name="N" unicode="N" horiz-adv-x="774" 
d="M125 1368v-1368h-43v1434h63l504 -1342v1342h43v-1434h-55z" />
    <glyph glyph-name="O" unicode="O" 
d="M80 352v729q0 179 77 271t226 92q152 0 229.5 -92t77.5 -271v-729q0 -179 -77.5 -270.5t-229.5 -91.5q-149 0 -226 92t-77 270zM125 1083v-733q0 -319 258 -319q129 0 195.5 80.5t66.5 238.5v733q0 158 -66.5 239t-195.5 81q-128 0 -193 -81t-65 -239z" />
    <glyph glyph-name="P" unicode="P" horiz-adv-x="737" 
d="M82 1434h283q297 0 297 -347v-143q0 -171 -80.5 -253.5t-249.5 -82.5h-205v-608h-45v1434zM127 651h205q150 0 217 69t67 222v148q0 143 -57 222t-194 79h-238v-740z" />
    <glyph glyph-name="Q" unicode="Q" horiz-adv-x="843" 
d="M385 1444q80 0 140 -28t96 -78.5t53.5 -114.5t17.5 -142v-729q0 -167 -78 -264q41 -68 131 -68h23v-40h-23q-110 0 -159 79q-75 -69 -201 -69q-105 0 -175.5 49.5t-100 128.5t-29.5 184v729q0 78 17.5 142t52.5 114.5t95 78.5t140 28zM385 1403q-134 0 -197 -88.5
t-63 -231.5v-733q0 -143 63 -231t197 -88q91 0 151.5 44t85.5 113.5t25 161.5v733q0 68 -14.5 124.5t-45 101t-82 69.5t-120.5 25z" />
    <glyph glyph-name="R" unicode="R" horiz-adv-x="778" 
d="M82 1434h285q295 0 295 -322v-129q0 -133 -55 -206t-173 -95q228 -36 228 -287v-225q0 -118 38 -170h-49q-35 54 -35 170v225q0 149 -80.5 208t-232.5 59h-176v-662h-45v1434zM127 705h176q79 0 133.5 11.5t97 41t62.5 84t20 135.5v131q0 137 -59 210t-192 73h-238v-686z
" />
    <glyph glyph-name="S" unicode="S" horiz-adv-x="755" 
d="M379 1444q79 0 137.5 -27.5t92.5 -77.5t50.5 -112.5t16.5 -139.5v-26h-45v29q0 67 -13.5 121.5t-41.5 98.5t-78 68.5t-117 24.5q-132 0 -192 -85.5t-60 -225.5q0 -74 30.5 -135.5t78.5 -105.5t106.5 -83.5t117.5 -80.5t107 -86.5t78.5 -110.5t30.5 -144
q0 -161 -73 -258.5t-228 -97.5q-154 0 -226.5 97.5t-72.5 258.5v70h43v-72q0 -141 61.5 -226t194.5 -85t194.5 85t61.5 226q0 73 -30.5 134t-78.5 104t-106.5 82.5t-117.5 80.5t-107 87t-78.5 112t-30.5 146q0 164 72.5 258.5t222.5 95.5z" />
    <glyph glyph-name="T" unicode="T" horiz-adv-x="765" 
d="M403 0h-45v1391h-313v43h672v-43h-314v-1391z" />
    <glyph glyph-name="U" unicode="U" horiz-adv-x="751" 
d="M125 1434v-1082q0 -68 13 -123.5t41.5 -101t78.5 -71t119 -25.5t119 25.5t78.5 71t41.5 101t13 123.5v1082h43v-1080q0 -61 -9.5 -113.5t-32 -99.5t-56 -80t-84 -52t-113.5 -19q-79 0 -138 28.5t-93 80t-50 115t-16 140.5v1080h45z" />
    <glyph glyph-name="V" unicode="V" horiz-adv-x="913" 
d="M76 1434h47l336 -1383l336 1383h43l-344 -1434h-68z" />
    <glyph glyph-name="W" unicode="W" horiz-adv-x="1265" 
d="M645 1327l-246 -1327h-65l-258 1434h45l250 -1373l247 1364h56l233 -1355l242 1364h41l-254 -1434h-59z" />
    <glyph glyph-name="X" unicode="X" horiz-adv-x="909" 
d="M784 0l-331 705l-330 -705h-47l350 745l-326 689h47l310 -650l309 650h45l-326 -689l349 -745h-50z" />
    <glyph glyph-name="Y" unicode="Y" horiz-adv-x="864" 
d="M408 0v580l-334 854h45l313 -793l313 793h48l-340 -854v-580h-45z" />
    <glyph glyph-name="Z" unicode="Z" horiz-adv-x="808" 
d="M719 43v-43h-641v43l602 1348h-574v43h623v-45l-604 -1346h594z" />
    <glyph glyph-name="bracketleft" unicode="[" horiz-adv-x="460" 
d="M129 41h256v-41h-301v1436h301v-41h-256v-1354z" />
    <glyph glyph-name="backslash" unicode="\" horiz-adv-x="753" 
d="M74 1434h41l565 -1434h-41z" />
    <glyph glyph-name="bracketright" unicode="]" horiz-adv-x="460" 
d="M78 41h256v1354h-256v41h301v-1436h-301v41z" />
    <glyph glyph-name="asciicircum" unicode="^" horiz-adv-x="847" 
d="M424 1389l-303 -588h-43l325 633h41l326 -633h-43z" />
    <glyph glyph-name="underscore" unicode="_" horiz-adv-x="1060" 
d="M72 -20h899v-37h-899v37z" />
    <glyph glyph-name="grave" unicode="`" horiz-adv-x="362" 
d="M82 1737h53l150 -183h-43z" />
    <glyph glyph-name="a" unicode="a" horiz-adv-x="915" 
d="M711 338h-510l-84 -338h-41l346 1436h63l355 -1436h-45zM453 1382l-244 -1003h493z" />
    <glyph glyph-name="b" unicode="b" horiz-adv-x="751" 
d="M82 1434h287q151 0 213.5 -73t62.5 -224v-93q0 -127 -44.5 -194.5t-160.5 -85.5q234 -34 234 -307v-127q0 -330 -303 -330h-289v1434zM127 782h186q157 0 222 52.5t65 203.5v97q0 132 -50.5 194t-180.5 62h-242v-609zM127 43h244q136 0 197 73t61 214v129
q0 152 -71.5 217t-223.5 65h-207v-698z" />
    <glyph glyph-name="c" unicode="c" horiz-adv-x="757" 
d="M379 1444q80 0 139 -28.5t94 -79t51.5 -114.5t16.5 -141v-110h-45v112q0 143 -61 231.5t-193 88.5q-69 0 -120 -25t-80 -70t-42.5 -101t-13.5 -124v-733q0 -68 13.5 -123.5t42.5 -100t80 -69t120 -24.5q68 0 118.5 24.5t79.5 69t42.5 100t13.5 123.5v158h45v-156
q0 -77 -16.5 -141t-51.5 -114.5t-94 -78.5t-139 -28q-79 0 -138 28t-93.5 78.5t-51 114.5t-16.5 141v729q0 77 16.5 141t51 114.5t93.5 79t138 28.5z" />
    <glyph glyph-name="d" unicode="d" 
d="M82 1434h299q157 0 234 -98t77 -261v-719q0 -161 -76.5 -258.5t-232.5 -97.5h-301v1434zM127 43h254q138 0 202 84t64 227v723q0 144 -65 229t-201 85h-254v-1348z" />
    <glyph glyph-name="e" unicode="e" horiz-adv-x="706" 
d="M127 748h422v-41h-422v-664h502v-43h-547v1434h547v-43h-502v-643z" />
    <glyph glyph-name="f" unicode="f" horiz-adv-x="681" 
d="M127 713h401v-43h-401v-670h-45v1434h526v-43h-481v-678z" />
    <glyph glyph-name="g" unicode="g" horiz-adv-x="759" 
d="M379 1444q80 0 139 -28.5t94 -79t51.5 -114.5t16.5 -141v-94h-45v96q0 143 -61 231.5t-193 88.5q-69 0 -120 -25t-80 -70t-42.5 -101t-13.5 -124v-733q0 -68 13.5 -123.5t42.5 -100t80 -69t120 -24.5q68 0 118.5 24.5t79.5 69t42.5 100t13.5 123.5v326h-223v41h268v-365
q0 -77 -16.5 -141t-51.5 -114.5t-94 -78.5t-139 -28q-79 0 -138 28t-93.5 78.5t-51 114.5t-16.5 141v729q0 77 16.5 141t51 114.5t93.5 79t138 28.5z" />
    <glyph glyph-name="h" unicode="h" horiz-adv-x="772" 
d="M645 696h-518v-696h-45v1434h45v-697h518v697h45v-1434h-45v696z" />
    <glyph glyph-name="i" unicode="i" horiz-adv-x="208" 
d="M82 1434h45v-1434h-45v1434z" />
    <glyph glyph-name="j" unicode="j" horiz-adv-x="516" 
d="M74 0v43q32 -2 86 2q121 11 176 82t55 221v1086h45v-1084q0 -173 -68.5 -256t-203.5 -92q-58 -4 -90 -2z" />
    <glyph glyph-name="k" unicode="k" horiz-adv-x="821" 
d="M696 0l-460 713l-109 -164v-549h-45v1434h45v-809l532 809h50l-445 -678l481 -756h-49z" />
    <glyph glyph-name="l" unicode="l" horiz-adv-x="681" 
d="M608 0h-526v1434h45v-1391h481v-43z" />
    <glyph glyph-name="m" unicode="m" horiz-adv-x="1007" 
d="M881 1366l-353 -1362h-51l-354 1362v-1366h-41v1434h70l352 -1360l352 1360h70v-1434h-45v1366z" />
    <glyph glyph-name="n" unicode="n" horiz-adv-x="774" 
d="M125 1368v-1368h-43v1434h63l504 -1342v1342h43v-1434h-55z" />
    <glyph glyph-name="o" unicode="o" 
d="M80 352v729q0 162 74.5 262.5t228.5 100.5q80 0 140.5 -28t96 -78.5t53 -114.5t17.5 -142v-729q0 -162 -75 -262t-232 -100q-154 0 -228.5 100t-74.5 262zM125 1083v-733q0 -144 62 -231.5t196 -87.5q136 0 199 87.5t63 231.5v733q0 144 -63 232t-199 88q-134 0 -196 -88
t-62 -232z" />
    <glyph glyph-name="p" unicode="p" horiz-adv-x="735" 
d="M82 1434h283q297 0 297 -347v-143q0 -171 -80.5 -253.5t-249.5 -82.5h-205v-608h-45v1434zM127 651h205q150 0 217 69t67 222v148q0 143 -57 222t-194 79h-238v-740z" />
    <glyph glyph-name="q" unicode="q" horiz-adv-x="790" 
d="M385 1444q80 0 140 -28t96 -78.5t53.5 -114.5t17.5 -142v-729q0 -167 -78 -264q41 -68 131 -68h23v-40h-23q-110 0 -159 79q-75 -69 -201 -69q-105 0 -175.5 49.5t-100 128.5t-29.5 184v729q0 78 17.5 142t52.5 114.5t95 78.5t140 28zM385 1403q-134 0 -197 -88.5
t-63 -231.5v-733q0 -143 63 -231t197 -88q91 0 151.5 44t85.5 113.5t25 161.5v733q0 68 -14.5 124.5t-45 101t-82 69.5t-120.5 25z" />
    <glyph glyph-name="r" unicode="r" horiz-adv-x="778" 
d="M82 1434h285q295 0 295 -322v-129q0 -133 -55 -206t-173 -95q228 -36 228 -287v-225q0 -118 38 -170h-49q-35 54 -35 170v225q0 149 -80.5 208t-232.5 59h-176v-662h-45v1434zM127 705h176q79 0 133.5 11.5t97 41t62.5 84t20 135.5v131q0 137 -59 210t-192 73h-238v-686z
" />
    <glyph glyph-name="s" unicode="s" horiz-adv-x="755" 
d="M379 1444q79 0 137.5 -27.5t92.5 -77.5t50.5 -112.5t16.5 -139.5v-26h-45v29q0 67 -13.5 121.5t-41.5 98.5t-78 68.5t-117 24.5q-132 0 -192 -85.5t-60 -225.5q0 -74 30.5 -135.5t78.5 -105.5t106.5 -83.5t117.5 -80.5t107 -86.5t78.5 -110.5t30.5 -144
q0 -161 -73 -258.5t-228 -97.5q-154 0 -226.5 97.5t-72.5 258.5v70h43v-72q0 -141 61.5 -226t194.5 -85t194.5 85t61.5 226q0 73 -30.5 134t-78.5 104t-106.5 82.5t-117.5 80.5t-107 87t-78.5 112t-30.5 146q0 164 72.5 258.5t222.5 95.5z" />
    <glyph glyph-name="t" unicode="t" horiz-adv-x="751" 
d="M395 0h-45v1391h-311v43h670v-43h-314v-1391z" />
    <glyph glyph-name="u" unicode="u" horiz-adv-x="751" 
d="M125 1434v-1082q0 -68 13 -123.5t41.5 -101t78.5 -71t119 -25.5t119 25.5t78.5 71t41.5 101t13 123.5v1082h43v-1080q0 -61 -9.5 -113.5t-32 -99.5t-56 -80t-84 -52t-113.5 -19q-79 0 -138 28.5t-93 80t-50 115t-16 140.5v1080h45z" />
    <glyph glyph-name="v" unicode="v" horiz-adv-x="913" 
d="M76 1434h47l336 -1383l336 1383h43l-344 -1434h-68z" />
    <glyph glyph-name="w" unicode="w" horiz-adv-x="1265" 
d="M645 1327l-246 -1327h-65l-258 1434h45l250 -1373l247 1364h56l233 -1355l242 1364h41l-254 -1434h-59z" />
    <glyph glyph-name="x" unicode="x" horiz-adv-x="909" 
d="M784 0l-331 705l-330 -705h-47l350 745l-326 689h47l310 -650l309 650h45l-326 -689l349 -745h-50z" />
    <glyph glyph-name="y" unicode="y" horiz-adv-x="864" 
d="M408 0v580l-334 854h45l313 -793l313 793h48l-340 -854v-580h-45z" />
    <glyph glyph-name="z" unicode="z" horiz-adv-x="808" 
d="M719 43v-43h-641v43l602 1348h-574v43h623v-45l-604 -1346h594z" />
    <glyph glyph-name="braceleft" unicode="{" horiz-adv-x="524" 
d="M449 1395h-52q-32 0 -55 -9.5t-36 -24t-21.5 -40t-11.5 -48t-5 -56.5l-14 -279q-2 -46 -6.5 -75t-17.5 -60.5t-40 -52t-69 -33.5q42 -12 69 -32.5t40 -52t17.5 -60.5t6.5 -76l14 -277q2 -35 5 -57.5t11.5 -47.5t21.5 -39.5t36 -24t55 -9.5h52v-41h-62q-46 0 -78 15.5
t-49 45.5t-25 64.5t-10 81.5l-14 285q-1 40 -3.5 62.5t-10.5 49t-21.5 41.5t-38.5 27.5t-61 19.5v49q36 7 60.5 20t39 28t22 41.5t10 49.5t3.5 64l14 285q2 47 10 81t25 64t49 46t78 16h62v-41z" />
    <glyph glyph-name="bar" unicode="|" horiz-adv-x="321" 
d="M141 1452h41v-1468h-41v1468z" />
    <glyph glyph-name="braceright" unicode="}" horiz-adv-x="524" 
d="M76 1436h61q38 0 66 -11t45 -29t28.5 -45.5t16 -56t6.5 -65.5l14 -285q3 -99 27.5 -142.5t110.5 -60.5v-49q-86 -16 -110.5 -59t-27.5 -141l-14 -285q-2 -48 -10 -82t-25 -64t-48.5 -45.5t-78.5 -15.5h-61v41h51q32 0 55 9.5t36 24t21.5 39.5t11.5 47.5t5 57.5l14 277
q2 47 6.5 76t17.5 60.5t40 52t69 32.5q-42 13 -69 33.5t-40 52t-17.5 60.5t-6.5 75l-14 279q-2 34 -5 56.5t-11.5 48t-21.5 40t-36 24t-55 9.5h-51v41z" />
    <glyph glyph-name="asciitilde" unicode="~" horiz-adv-x="813" 
d="M252 797q42 1 89.5 -18.5t83 -44t79 -44t78.5 -18.5q40 1 69.5 29.5t59.5 78.5l28 -22q-69 -120 -155 -125q-40 -2 -86.5 17.5t-82 44.5t-81 45.5t-84.5 19.5q-84 0 -150 -109l-26 21q76 125 178 125z" />
    <glyph glyph-name="uni00A0" unicode="&#xa0;" horiz-adv-x="317" 
 />
    <glyph glyph-name="exclamdown" unicode="&#xa1;" horiz-adv-x="208" 
d="M82 1436h45v-166h-45v166zM82 0v694l6 424h33l6 -424v-694h-45z" />
    <glyph glyph-name="cent" unicode="&#xa2;" horiz-adv-x="757" 
d="M399 1438v-95q145 -6 212 -99.5t67 -248.5v-51h-43v53q0 141 -60.5 223.5t-195.5 82.5q-68 0 -118 -25t-78.5 -70t-42 -100.5t-13.5 -122.5v-532q0 -67 13.5 -122t42 -100t78.5 -70.5t118 -25.5q134 0 195 86t61 228v92h43v-90q0 -156 -67.5 -253.5t-211.5 -103.5v-98
h-41v98q-143 6 -209.5 105.5t-66.5 255.5v528q0 155 66.5 254t209.5 106v95h41z" />
    <glyph glyph-name="sterling" unicode="&#xa3;" horiz-adv-x="784" 
d="M401 1444q80 0 138.5 -30t90.5 -83.5t47 -117.5t15 -142v-65h-43v67q0 68 -12 124t-39 104t-77 75t-120 27q-251 0 -251 -324q0 -84 20 -159t45 -123.5t56.5 -116.5t47.5 -127h322v-39h-313q19 -100 -22 -210.5t-169 -260.5h565v-43h-622v41q246 259 203 473h-179v39h172
q-17 59 -49.5 126.5t-58 115t-45 122.5t-19.5 160q0 79 15.5 143t49 115.5t92.5 80t140 28.5z" />
    <glyph glyph-name="currency" unicode="&#xa4;" horiz-adv-x="679" 
d="M600 952l-92 -90q55 -61 55 -145q0 -85 -55 -146l92 -90l-25 -22l-90 88q-63 -53 -147 -53q-80 0 -143 53l-93 -88l-22 22l90 88q-53 66 -53 148t53 145l-90 90l22 23l93 -90q61 55 143 55q86 0 147 -55l90 90zM338 905q-77 0 -132.5 -55t-55.5 -133t55.5 -133.5
t132.5 -55.5q79 0 134.5 55.5t55.5 133.5t-55.5 133t-134.5 55z" />
    <glyph glyph-name="yen" unicode="&#xa5;" horiz-adv-x="909" 
d="M713 532h-236v-170h236v-30h-236v-332h-45v332h-235v30h235v170h-235v31h231l-354 871h49l332 -818l336 818h43l-355 -871h234v-31z" />
    <glyph glyph-name="brokenbar" unicode="&#xa6;" horiz-adv-x="323" 
d="M141 838v612h43v-612h-43zM141 -16v612h43v-612h-43z" />
    <glyph glyph-name="section" unicode="&#xa7;" horiz-adv-x="759" 
d="M387 1444q121 -2 203 -71.5t82 -184.5v-25h-43v21q0 99 -70 159t-172 62q-105 0 -180 -51.5t-78 -151.5q-1 -55 28.5 -98.5t78 -73t107 -55.5t117.5 -55t108 -64t79.5 -89.5t30.5 -123.5q0 -99 -60.5 -168.5t-158.5 -109.5q51 -24 86.5 -45.5t69 -53t50 -73.5t15.5 -93
q-3 -108 -92 -170.5t-205 -62.5q-128 0 -214.5 67.5t-86.5 188.5v55h43v-51q0 -105 75 -162t183 -57q96 0 173 51t81 141q1 58 -28.5 103.5t-78.5 75t-108 55.5t-118 54t-108 62t-79.5 88t-30.5 124q0 100 71 170.5t175 99.5q-48 23 -77 38t-66 41t-57.5 51.5t-34.5 62
t-13 79.5q3 117 90 178.5t213 61.5zM383 909q-101 -16 -177.5 -82.5t-76.5 -164.5q0 -32 9.5 -60.5t21 -49.5t37.5 -43.5t42 -35t52.5 -31.5t50.5 -25.5t54 -23.5q4 -2 6.5 -3t5.5 -2.5t6 -2.5q97 32 159 96.5t62 159.5q0 52 -20 94t-60 74t-77 53t-95 47z" />
    <glyph glyph-name="dieresis" unicode="&#xa8;" horiz-adv-x="342" 
d="M111 1698h41v-166h-41v166zM190 1698h43v-166h-43v166z" />
    <glyph glyph-name="copyright" unicode="&#xa9;" horiz-adv-x="1540" 
d="M770 1427q149 0 278 -54.5t219.5 -149t142.5 -226t52 -280.5q0 -200 -88 -362t-247 -255.5t-357 -93.5q-199 0 -358 93.5t-246.5 255.5t-87.5 362t87.5 362t246.5 255t358 93zM770 1393q-142 0 -265 -52.5t-208.5 -142.5t-134.5 -215t-49 -266q0 -189 83 -343.5
t234 -244.5t340 -90t340 90t234 244.5t83 343.5q0 141 -49 266t-134.5 215t-208.5 142.5t-265 52.5zM762 1165q106 0 156.5 -69.5t50.5 -182.5v-39h-35v41q0 97 -40.5 156t-131.5 59t-132.5 -59.5t-41.5 -155.5v-397q0 -96 41.5 -156.5t132.5 -60.5t131.5 60t40.5 157v60h35
v-58q0 -113 -50.5 -183.5t-156.5 -70.5q-108 0 -159.5 70.5t-51.5 183.5v393q0 113 51.5 182.5t159.5 69.5z" />
    <glyph glyph-name="ordfeminine" unicode="&#xaa;" horiz-adv-x="555" 
d="M299 1444q174 0 174 -221v-533h-31l-2 137q-23 -68 -69.5 -107.5t-114.5 -39.5q-87 0 -131.5 51t-44.5 141v7q0 226 358 231v115q0 57 -10 95t-42 64.5t-87 26.5q-156 0 -156 -188v-19h-32v19q0 221 188 221zM438 918v161q-323 -5 -323 -196v-9q0 -76 37 -118.5
t110 -42.5q54 0 93.5 31.5t58.5 75.5t24 98zM84 535h389v-35h-389v35z" />
    <glyph glyph-name="guillemotleft" unicode="&#xab;" horiz-adv-x="530" 
d="M213 225l-137 494l137 491h41l-135 -491l135 -494h-41zM412 225l-136 494l136 491h43l-136 -491l136 -494h-43z" />
    <glyph glyph-name="logicalnot" unicode="&#xac;" horiz-adv-x="765" 
d="M651 700h-573v35h610v-309h-37v274z" />
    <glyph glyph-name="uni00AD" unicode="&#xad;" horiz-adv-x="524" 
d="M80 696v41h364v-41h-364z" />
    <glyph glyph-name="registered" unicode="&#xae;" horiz-adv-x="1540" 
d="M770 1427q149 0 278 -54.5t219.5 -149t142.5 -226t52 -280.5q0 -200 -88 -362t-247 -255.5t-357 -93.5q-199 0 -358 93.5t-246.5 255.5t-87.5 362t87.5 362t246.5 255t358 93zM770 1393q-142 0 -265 -52.5t-208.5 -142.5t-134.5 -215t-49 -266q0 -189 83 -343.5
t234 -244.5t340 -90t340 90t234 244.5t83 343.5q0 141 -49 266t-134.5 215t-208.5 142.5t-265 52.5zM578 1155h198q209 0 209 -227v-29q0 -173 -139 -209q141 -38 141 -198v-95q0 -87 27 -118h-41q-23 45 -23 118v95q0 105 -56.5 143.5t-164.5 38.5h-115v-395h-36v876z
M614 709h138q101 0 148.5 43t47.5 143v31q0 95 -40 144.5t-132 49.5h-162v-411z" />
    <glyph glyph-name="macron" unicode="&#xaf;" horiz-adv-x="520" 
d="M74 1569h370v-35h-370v35z" />
    <glyph glyph-name="degree" unicode="&#xb0;" horiz-adv-x="415" 
d="M209 1450q55 0 93 -37t38 -92t-38.5 -93t-92.5 -38q-56 0 -94.5 38t-38.5 93t38.5 92t94.5 37zM209 1419q-43 0 -73 -28t-30 -70q0 -44 30 -72t73 -28q42 0 72 28.5t30 71.5q0 42 -30 70t-72 28z" />
    <glyph glyph-name="plusminus" unicode="&#xb1;" horiz-adv-x="788" 
d="M80 432h297v270h-297v39h297v295h37v-295h295v-39h-295v-270h295v-39h-629v39z" />
    <glyph glyph-name="twosuperior" unicode="&#xb2;" horiz-adv-x="548" 
d="M276 1638q101 0 147 -64.5t46 -170.5q0 -52 -19 -99.5t-49 -86.5t-67 -77.5t-74.5 -79t-68.5 -83.5t-51.5 -99.5t-22.5 -119.5v-6h344v-33h-379v22q0 94 36.5 174t88 136.5t103 108t88 113t36.5 128.5q0 205 -160 205q-157 0 -157 -207v-49h-35v49q0 106 46.5 172.5
t147.5 66.5z" />
    <glyph glyph-name="threesuperior" unicode="&#xb3;" horiz-adv-x="548" 
d="M274 1638q99 0 146 -64.5t47 -168.5v-23q0 -65 -31.5 -116t-89.5 -72q61 -20 91 -68t30 -114v-70q0 -104 -47 -168.5t-146 -64.5q-100 0 -146 64t-46 169v43h33v-45q0 -90 37.5 -144.5t121.5 -54.5q158 0 158 201v70q0 71 -39.5 117.5t-107.5 46.5h-66v32h66
q65 0 107 51.5t40 118.5v27q0 90 -37 145.5t-121 55.5q-83 0 -121 -55.5t-38 -143.5v-29h-33v27q0 105 46 169t146 64z" />
    <glyph glyph-name="acute" unicode="&#xb4;" horiz-adv-x="362" 
d="M227 1737h52l-158 -183h-43z" />
    <glyph glyph-name="uni00B5" unicode="&#xb5;" horiz-adv-x="819" 
d="M659 0l3 217q-25 -103 -92 -161t-169 -58q-100 0 -163 54.5t-84 146.5l2 -385h-45v1210h45v-666q0 -69 13.5 -124.5t42 -100.5t78 -69.5t116.5 -24.5q130 0 190.5 88t60.5 231v666h45v-1024h-43z" />
    <glyph glyph-name="paragraph" unicode="&#xb6;" horiz-adv-x="811" 
d="M662 1397h-312v-1522h-37v735q-143 7 -200.5 88t-57.5 248v154q0 80 11.5 136.5t39.5 103t82 70t134 24.5h376v-1559h-36v1522z" />
    <glyph glyph-name="periodcentered" unicode="&#xb7;" horiz-adv-x="208" 
d="M82 827h45v-165h-45v165z" />
    <glyph glyph-name="cedilla" unicode="&#xb8;" horiz-adv-x="503" 
d="M272 4v-84q71 -2 112.5 -25t41.5 -83q0 -62 -52 -92.5t-120 -28.5q-69 0 -122.5 30t-53.5 91v8h37v-6q0 -49 42.5 -73t96.5 -26q51 0 93 24.5t42 72.5q0 52 -37.5 70t-97.5 18h-10v104h28z" />
    <glyph glyph-name="onesuperior" unicode="&#xb9;" horiz-adv-x="346" 
d="M80 1470l-2 31q110 8 149 127h35v-909h-35v848q-53 -85 -147 -97z" />
    <glyph glyph-name="ordmasculine" unicode="&#xba;" horiz-adv-x="555" 
d="M279 1444q100 0 148 -65t48 -169v-305q0 -104 -48 -168.5t-148 -64.5t-149.5 64.5t-49.5 168.5v305q0 104 49.5 169t149.5 65zM279 1411q-85 0 -124.5 -55t-39.5 -144v-309q0 -89 39.5 -143.5t124.5 -54.5q84 0 122.5 54.5t38.5 143.5v309q0 89 -38.5 144t-122.5 55z
M84 537h391v-35h-391v35z" />
    <glyph glyph-name="guillemotright" unicode="&#xbb;" horiz-adv-x="530" 
d="M76 225l135 494l-135 491h43l135 -491l-135 -494h-43zM276 225l136 494l-136 491h43l136 -491l-136 -494h-43z" />
    <glyph glyph-name="onequarter" unicode="&#xbc;" horiz-adv-x="1005" 
d="M236 524v848q-49 -84 -146 -96l-2 31q111 9 150 127h34v-910h-36zM793 1434l-566 -1434h-32l565 1434h33zM852 209v-209h-35v209h-325v33l317 667h43v-667h76v-33h-76zM528 242h289v604z" />
    <glyph glyph-name="onehalf" unicode="&#xbd;" horiz-adv-x="1130" 
d="M236 524v848q-49 -84 -146 -96l-2 31q111 9 150 127h34v-910h-36zM752 1434h34l-565 -1434h-35zM858 920q102 0 147.5 -65t45.5 -171q0 -51 -19 -99t-49.5 -86.5t-67 -77t-74 -79.5t-68.5 -84t-51 -99.5t-22 -119.5v-6h342v-33h-376v23q0 69 19.5 130t50 107t68 88t75 80
t68 75.5t50 83.5t19.5 95q0 205 -158 205q-85 0 -122.5 -57.5t-37.5 -149.5v-49h-32v49q0 107 46 173.5t146 66.5z" />
    <glyph glyph-name="threequarters" unicode="&#xbe;" horiz-adv-x="1144" 
d="M274 1444q99 0 146 -65t47 -169v-22q0 -65 -31.5 -116.5t-89.5 -72.5q61 -20 91 -68t30 -114v-69q0 -104 -47 -169t-146 -65q-100 0 -146 64.5t-46 169.5v43h33v-46q0 -90 37.5 -144t121.5 -54q158 0 158 201v69q0 71 -39.5 117.5t-107.5 46.5h-66v33h66q65 0 107 51.5
t40 118.5v26q0 90 -37 145.5t-121 55.5q-83 0 -121 -55.5t-38 -143.5v-28h-33v26q0 105 46 169.5t146 64.5zM338 0l565 1434h33l-565 -1434h-33zM956 0v209h-323v33l317 667h41v-667h78v-33h-78v-209h-35zM956 846l-286 -604h286v604z" />
    <glyph glyph-name="questiondown" unicode="&#xbf;" horiz-adv-x="745" 
d="M379 1434h43v-164h-43v164zM377 1112h43q10 -42 10 -76q-1 -86 -33 -161t-77 -131.5t-90.5 -112t-77 -126.5t-31.5 -151q0 -323 252 -323q70 0 120.5 26.5t78.5 74t40.5 103t12.5 123.5v78h43v-76q0 -77 -16 -141.5t-49 -117t-92 -82t-138 -29.5q-82 0 -141 28.5
t-92.5 80t-48.5 115t-15 142.5q0 70 23 134.5t57.5 110.5t75 97.5t75 97.5t57.5 109.5t23 132.5q0 36 -10 74z" />
    <glyph glyph-name="Agrave" unicode="&#xc0;" horiz-adv-x="915" 
d="M317 1692h54l147 -183h-41zM711 338h-510l-84 -338h-41l346 1436h63l355 -1436h-45zM453 1382l-244 -1003h493z" />
    <glyph glyph-name="Aacute" unicode="&#xc1;" horiz-adv-x="915" 
d="M518 1694h53l-159 -183h-41zM711 338h-510l-84 -338h-41l346 1436h63l355 -1436h-45zM453 1382l-244 -1003h493z" />
    <glyph glyph-name="Acircumflex" unicode="&#xc2;" horiz-adv-x="915" 
d="M453 1645l-138 -136h-49l168 168h37l170 -168h-51zM711 338h-510l-84 -338h-41l346 1436h63l355 -1436h-45zM453 1382l-244 -1003h493z" />
    <glyph glyph-name="Atilde" unicode="&#xc3;" horiz-adv-x="915" 
d="M360 1649q39 0 101 -39t92 -37q45 3 72 63l30 -18q-43 -80 -98 -82q-37 -2 -99.5 37.5t-95.5 38.5q-50 0 -83 -64l-29 19q42 79 110 82zM711 338h-510l-84 -338h-41l346 1436h63l355 -1436h-45zM453 1382l-244 -1003h493z" />
    <glyph glyph-name="Adieresis" unicode="&#xc4;" horiz-adv-x="915" 
d="M354 1673h41v-164h-41v164zM510 1673h43v-164h-43v164zM711 338h-510l-84 -338h-41l346 1436h63l355 -1436h-45zM453 1382l-244 -1003h493z" />
    <glyph glyph-name="Aring" unicode="&#xc5;" horiz-adv-x="915" 
d="M453 1767q53 0 90 -35t37 -87q0 -55 -37 -91t-90 -36q-55 0 -92 36t-37 91q0 52 37.5 87t91.5 35zM453 1737q-42 0 -70.5 -26.5t-28.5 -65.5q0 -42 28.5 -69.5t70.5 -27.5q39 0 67.5 27.5t28.5 69.5q0 39 -28.5 65.5t-67.5 26.5zM711 338h-510l-84 -338h-41l346 1436h63
l355 -1436h-45zM453 1382l-244 -1003h493z" />
    <glyph glyph-name="AE" unicode="&#xc6;" horiz-adv-x="1212" 
d="M705 748h360v-41h-360v-664h430v-43h-476v344h-407l-135 -344h-43l557 1434h504v-43h-430v-643zM659 1380l-393 -993h393v993z" />
    <glyph glyph-name="Ccedilla" unicode="&#xc7;" horiz-adv-x="757" 
d="M379 1444q80 0 139 -28.5t94 -79t51.5 -114.5t16.5 -141v-110h-45v112q0 143 -61 231.5t-193 88.5q-69 0 -120 -25t-80 -70t-42.5 -101t-13.5 -124v-733q0 -68 13.5 -123.5t42.5 -100t80 -69t120 -24.5q68 0 118.5 24.5t79.5 69t42.5 100t13.5 123.5v158h45v-156
q0 -75 -16 -137.5t-49.5 -113t-90 -80t-131.5 -31.5v-70q71 -2 112.5 -25t41.5 -83q0 -62 -52 -92.5t-120 -28.5q-69 0 -121.5 30t-52.5 91v8h35v-6q0 -49 42.5 -73t96.5 -26q51 0 93 24.5t42 72.5q0 52 -37.5 70t-97.5 18h-10v90q-75 3 -131.5 32.5t-89 79.5t-48.5 112.5
t-16 137.5v729q0 77 16.5 141t51 114.5t93.5 79t138 28.5z" />
    <glyph glyph-name="Egrave" unicode="&#xc8;" horiz-adv-x="706" 
d="M238 1720h53l149 -182h-43zM127 748h422v-41h-422v-664h502v-43h-547v1434h547v-43h-502v-643z" />
    <glyph glyph-name="Eacute" unicode="&#xc9;" horiz-adv-x="706" 
d="M444 1700h54l-160 -182h-41zM127 748h422v-41h-422v-664h502v-43h-547v1434h547v-43h-502v-643z" />
    <glyph glyph-name="Ecircumflex" unicode="&#xca;" horiz-adv-x="706" 
d="M354 1659l-139 -137h-47l168 168h37l170 -168h-51zM127 748h422v-41h-422v-664h502v-43h-547v1434h547v-43h-502v-643z" />
    <glyph glyph-name="Edieresis" unicode="&#xcb;" horiz-adv-x="706" 
d="M256 1683h41v-165h-41v165zM412 1683h41v-165h-41v165zM127 748h422v-41h-422v-664h502v-43h-547v1434h547v-43h-502v-643z" />
    <glyph glyph-name="Igrave" unicode="&#xcc;" horiz-adv-x="208" 
d="M109 1518l-158 182h53l148 -182h-43zM82 0v1434h45v-1434h-45z" />
    <glyph glyph-name="Iacute" unicode="&#xcd;" horiz-adv-x="208" 
d="M41 1520l149 182h52l-158 -182h-43zM82 0v1434h45v-1434h-45z" />
    <glyph glyph-name="Icircumflex" unicode="&#xce;" horiz-adv-x="208" 
d="M86 1686h37l168 -168h-49l-138 137l-139 -137h-47zM82 0v1434h45v-1434h-45z" />
    <glyph glyph-name="Idieresis" unicode="&#xcf;" horiz-adv-x="208" 
d="M6 1683h41v-163h-41v163zM162 1683h41v-163h-41v163zM82 1434h45v-1434h-45v1434z" />
    <glyph glyph-name="Eth" unicode="&#xd0;" 
d="M82 1434h299q157 0 234 -98t77 -261v-719q0 -161 -76.5 -258.5t-232.5 -97.5h-301v698h-102v39h102v697zM326 737v-39h-199v-655h254q138 0 202 84t64 227v723q0 144 -65 229t-201 85h-254v-654h199z" />
    <glyph glyph-name="Ntilde" unicode="&#xd1;" horiz-adv-x="774" 
d="M563 1659l29 -19q-36 -76 -98 -79q-37 -2 -99 36t-94 37q-50 0 -86 -63l-29 18q42 79 111 82q39 1 102.5 -37.5t92.5 -36.5q37 0 71 62zM125 1368v-1368h-43v1434h63l504 -1342v1342h43v-1434h-55z" />
    <glyph glyph-name="Ograve" unicode="&#xd2;" 
d="M246 1718h53l147 -182h-43zM383 1444q80 0 140.5 -28t96 -78.5t53 -114.5t17.5 -142v-729q0 -162 -75 -262t-232 -100q-154 0 -228.5 100t-74.5 262v729q0 162 74.5 262.5t228.5 100.5zM383 1403q-134 0 -196 -88t-62 -232v-733q0 -144 62 -231.5t196 -87.5
q136 0 199 87.5t63 231.5v733q0 144 -63 232t-199 88z" />
    <glyph glyph-name="Oacute" unicode="&#xd3;" 
d="M469 1718h51l-158 -182h-40zM383 1444q80 0 140.5 -28t96 -78.5t53 -114.5t17.5 -142v-729q0 -162 -75 -262t-232 -100q-154 0 -228.5 100t-74.5 262v729q0 162 74.5 262.5t228.5 100.5zM383 1403q-134 0 -196 -88t-62 -232v-733q0 -144 62 -231.5t196 -87.5
q136 0 199 87.5t63 231.5v733q0 144 -63 232t-199 88z" />
    <glyph glyph-name="Ocircumflex" unicode="&#xd4;" 
d="M383 1669l-137 -137h-49l168 168h36l170 -168h-51zM383 1444q80 0 140.5 -28t96 -78.5t53 -114.5t17.5 -142v-729q0 -162 -75 -262t-232 -100q-154 0 -228.5 100t-74.5 262v729q0 162 74.5 262.5t228.5 100.5zM383 1403q-134 0 -196 -88t-62 -232v-733q0 -144 62 -231.5
t196 -87.5q136 0 199 87.5t63 231.5v733q0 144 -63 232t-199 88z" />
    <glyph glyph-name="Otilde" unicode="&#xd5;" 
d="M567 1653l31 -19q-37 -79 -98 -82q-37 -2 -99.5 37t-95.5 39q-52 0 -84 -63l-28 18q44 80 110 80q39 1 101.5 -37.5t91.5 -36.5q43 2 71 64zM383 1444q80 0 140.5 -28t96 -78.5t53 -114.5t17.5 -142v-729q0 -162 -75 -262t-232 -100q-154 0 -228.5 100t-74.5 262v729
q0 162 74.5 262.5t228.5 100.5zM383 1403q-134 0 -196 -88t-62 -232v-733q0 -144 62 -231.5t196 -87.5q136 0 199 87.5t63 231.5v733q0 144 -63 232t-199 88z" />
    <glyph glyph-name="Odieresis" unicode="&#xd6;" 
d="M285 1698h41v-166h-41v166zM440 1698h43v-166h-43v166zM383 1444q80 0 140.5 -28t96 -78.5t53 -114.5t17.5 -142v-729q0 -162 -75 -262t-232 -100q-154 0 -228.5 100t-74.5 262v729q0 162 74.5 262.5t228.5 100.5zM383 1403q-134 0 -196 -88t-62 -232v-733
q0 -144 62 -231.5t196 -87.5q136 0 199 87.5t63 231.5v733q0 144 -63 232t-199 88z" />
    <glyph glyph-name="multiply" unicode="&#xd7;" horiz-adv-x="645" 
d="M563 500l-24 -27l-215 217l-218 -217l-24 27l215 215l-215 215l24 26l218 -215l215 215l24 -26l-215 -215z" />
    <glyph glyph-name="Oslash" unicode="&#xd8;" 
d="M680 1432l-43 -113q53 -89 53 -238v-729q0 -179 -77.5 -270.5t-229.5 -91.5q-148 0 -227 94l-39 -98l-33 10l47 123q-51 88 -51 233v729q0 179 77 271t226 92q152 0 229 -92l35 90zM125 1083v-733q0 -100 29 -176l440 1129q-66 100 -211 100q-128 0 -193 -81t-65 -239z
M645 350v733q0 105 -31 181l-440 -1131q64 -102 209 -102q129 0 195.5 80.5t66.5 238.5z" />
    <glyph glyph-name="Ugrave" unicode="&#xd9;" horiz-adv-x="751" 
d="M236 1702h53l147 -182h-43zM672 1434v-1080q0 -61 -9.5 -113.5t-32 -99.5t-56 -80t-84 -52t-113.5 -19q-79 0 -138 28.5t-93 80t-50 115t-16 140.5v1080h45v-1082q0 -68 13 -123.5t41.5 -101t78.5 -71t119 -25.5t119 25.5t78.5 71t41.5 101t13 123.5v1082h43z" />
    <glyph glyph-name="Uacute" unicode="&#xda;" horiz-adv-x="751" 
d="M479 1718h51l-157 -182h-43zM672 1434v-1080q0 -61 -9.5 -113.5t-32 -99.5t-56 -80t-84 -52t-113.5 -19q-79 0 -138 28.5t-93 80t-50 115t-16 140.5v1080h45v-1082q0 -68 13 -123.5t41.5 -101t78.5 -71t119 -25.5t119 25.5t78.5 71t41.5 101t13 123.5v1082h43z" />
    <glyph glyph-name="Ucircumflex" unicode="&#xdb;" horiz-adv-x="751" 
d="M379 1669l-139 -137h-47l167 168h37l170 -168h-51zM672 1434v-1080q0 -61 -9.5 -113.5t-32 -99.5t-56 -80t-84 -52t-113.5 -19q-79 0 -138 28.5t-93 80t-50 115t-16 140.5v1080h45v-1082q0 -68 13 -123.5t41.5 -101t78.5 -71t119 -25.5t119 25.5t78.5 71t41.5 101
t13 123.5v1082h43z" />
    <glyph glyph-name="Udieresis" unicode="&#xdc;" horiz-adv-x="751" 
d="M276 1692h41v-164h-41v164zM432 1692h43v-164h-43v164zM672 1434v-1080q0 -61 -9.5 -113.5t-32 -99.5t-56 -80t-84 -52t-113.5 -19q-79 0 -138 28.5t-93 80t-50 115t-16 140.5v1080h45v-1082q0 -68 13 -123.5t41.5 -101t78.5 -71t119 -25.5t119 25.5t78.5 71t41.5 101
t13 123.5v1082h43z" />
    <glyph glyph-name="Yacute" unicode="&#xdd;" horiz-adv-x="864" 
d="M532 1700h52l-160 -182h-41zM408 0v580l-334 854h45l313 -793l313 793h48l-340 -854v-580h-45z" />
    <glyph glyph-name="Thorn" unicode="&#xde;" horiz-adv-x="772" 
d="M127 1151h238q297 0 297 -346v-143q0 -171 -80.5 -253.5t-249.5 -82.5h-205v-326h-45v1434h45v-283zM127 369h205q150 0 217 68.5t67 221.5v148q0 143 -57 222t-194 79h-238v-739z" />
    <glyph glyph-name="germandbls" unicode="&#xdf;" horiz-adv-x="1429" 
d="M371 1444q152 0 223.5 -98.5t71.5 -258.5v-26h-43v29q0 140 -60 226.5t-192 86.5q-68 0 -117.5 -24t-77.5 -68t-41.5 -98t-13.5 -121q0 -74 30 -135.5t78.5 -105.5t106.5 -83.5t116.5 -80.5t107 -86.5t78.5 -110.5t30 -144q0 -161 -72.5 -258.5t-226.5 -97.5t-226.5 97.5
t-72.5 258.5v70h43v-72q0 -142 61 -226.5t195 -84.5q133 0 193.5 84.5t60.5 226.5q0 58 -18.5 107.5t-50.5 87t-73 71.5t-86 64.5t-90.5 61t-86.5 66.5t-73 76t-50.5 94.5t-18.5 117.5q0 164 72 258.5t223 95.5zM1061 1444q152 0 223.5 -98.5t71.5 -258.5v-26h-43v29
q0 140 -60 226.5t-192 86.5q-68 0 -117.5 -24t-77.5 -68t-41.5 -98t-13.5 -121q0 -74 30 -135.5t78.5 -105.5t106.5 -83.5t116.5 -80.5t107 -86.5t78.5 -110.5t30 -144q0 -161 -72.5 -258.5t-226.5 -97.5t-226.5 97.5t-72.5 258.5v70h43v-72q0 -142 61 -226.5t195 -84.5
q133 0 193.5 84.5t60.5 226.5q0 58 -18.5 107.5t-50.5 87t-73 71.5t-86 64.5t-90.5 61t-86.5 66.5t-73 76t-50.5 94.5t-18.5 117.5q0 164 72 258.5t223 95.5z" />
    <glyph glyph-name="agrave" unicode="&#xe0;" horiz-adv-x="915" 
d="M317 1692h54l147 -183h-41zM711 338h-510l-84 -338h-41l346 1436h63l355 -1436h-45zM453 1382l-244 -1003h493z" />
    <glyph glyph-name="aacute" unicode="&#xe1;" horiz-adv-x="915" 
d="M518 1694h53l-159 -183h-41zM711 338h-510l-84 -338h-41l346 1436h63l355 -1436h-45zM453 1382l-244 -1003h493z" />
    <glyph glyph-name="acircumflex" unicode="&#xe2;" horiz-adv-x="915" 
d="M453 1645l-138 -136h-49l168 168h37l170 -168h-51zM711 338h-510l-84 -338h-41l346 1436h63l355 -1436h-45zM453 1382l-244 -1003h493z" />
    <glyph glyph-name="atilde" unicode="&#xe3;" horiz-adv-x="915" 
d="M360 1649q39 0 102 -39t93 -37q46 3 72 61l28 -16q-43 -80 -98 -82q-37 -2 -100.5 37.5t-96.5 38.5q-52 0 -84 -62l-26 17q42 79 110 82zM711 338h-510l-84 -338h-41l346 1436h63l355 -1436h-45zM453 1382l-244 -1003h493z" />
    <glyph glyph-name="adieresis" unicode="&#xe4;" horiz-adv-x="915" 
d="M354 1673h41v-164h-41v164zM510 1673h43v-164h-43v164zM711 338h-510l-84 -338h-41l346 1436h63l355 -1436h-45zM453 1382l-244 -1003h493z" />
    <glyph glyph-name="aring" unicode="&#xe5;" horiz-adv-x="915" 
d="M453 1767q53 0 90 -35t37 -87q0 -55 -37 -91t-90 -36q-55 0 -92 36t-37 91q0 52 37.5 87t91.5 35zM453 1737q-42 0 -70.5 -26.5t-28.5 -65.5q0 -42 28.5 -69.5t70.5 -27.5q39 0 67.5 27.5t28.5 69.5q0 39 -28.5 65.5t-67.5 26.5zM711 338h-510l-84 -338h-41l346 1436h63
l355 -1436h-45zM453 1382l-244 -1003h493z" />
    <glyph glyph-name="ae" unicode="&#xe6;" horiz-adv-x="1212" 
d="M705 748h360v-41h-360v-664h430v-43h-476v344h-407l-135 -344h-43l557 1434h504v-43h-430v-643zM659 1380l-393 -993h393v993z" />
    <glyph glyph-name="ccedilla" unicode="&#xe7;" horiz-adv-x="757" 
d="M379 1444q80 0 139 -28.5t94 -79t51.5 -114.5t16.5 -141v-110h-45v112q0 143 -61 231.5t-193 88.5q-69 0 -120 -25t-80 -70t-42.5 -101t-13.5 -124v-733q0 -68 13.5 -123.5t42.5 -100t80 -69t120 -24.5q68 0 118.5 24.5t79.5 69t42.5 100t13.5 123.5v158h45v-156
q0 -75 -16 -137.5t-49.5 -113t-90 -80t-131.5 -31.5v-62q66 -2 110 -30t44 -86q0 -63 -52 -95t-120 -30q-68 0 -121 32t-53 93v8h32v-6q0 -34 24 -56.5t54 -31t64 -9.5q51 0 93 23.5t42 71.5q0 52 -37.5 70t-97.5 18h-10v90q-75 3 -131.5 32.5t-89 79.5t-48.5 112.5
t-16 137.5v729q0 77 16.5 141t51 114.5t93.5 79t138 28.5z" />
    <glyph glyph-name="egrave" unicode="&#xe8;" horiz-adv-x="706" 
d="M238 1720h53l149 -182h-43zM127 748h422v-41h-422v-664h502v-43h-547v1434h547v-43h-502v-643z" />
    <glyph glyph-name="eacute" unicode="&#xe9;" horiz-adv-x="706" 
d="M444 1700h54l-160 -182h-41zM127 748h422v-41h-422v-664h502v-43h-547v1434h547v-43h-502v-643z" />
    <glyph glyph-name="ecircumflex" unicode="&#xea;" horiz-adv-x="706" 
d="M354 1659l-139 -137h-47l168 168h37l170 -168h-51zM127 748h422v-41h-422v-664h502v-43h-547v1434h547v-43h-502v-643z" />
    <glyph glyph-name="edieresis" unicode="&#xeb;" horiz-adv-x="706" 
d="M256 1683h41v-165h-41v165zM412 1683h41v-165h-41v165zM127 748h422v-41h-422v-664h502v-43h-547v1434h547v-43h-502v-643z" />
    <glyph glyph-name="igrave" unicode="&#xec;" horiz-adv-x="208" 
d="M109 1518l-158 182h53l148 -182h-43zM82 0v1434h45v-1434h-45z" />
    <glyph glyph-name="iacute" unicode="&#xed;" horiz-adv-x="208" 
d="M41 1520l149 182h52l-158 -182h-43zM82 0v1434h45v-1434h-45z" />
    <glyph glyph-name="icircumflex" unicode="&#xee;" horiz-adv-x="208" 
d="M86 1686h37l168 -168h-49l-138 137l-139 -137h-47zM82 0v1434h45v-1434h-45z" />
    <glyph glyph-name="idieresis" unicode="&#xef;" horiz-adv-x="208" 
d="M6 1683h41v-163h-41v163zM162 1683h41v-163h-41v163zM82 1434h45v-1434h-45v1434z" />
    <glyph glyph-name="eth" unicode="&#xf0;" 
d="M82 1434h299q157 0 234 -98t77 -261v-719q0 -161 -76.5 -258.5t-232.5 -97.5h-301v694h-92v39h92v701zM328 733v-39h-201v-651h254q138 0 202 84t64 227v723q0 144 -65 229t-201 85h-254v-658h201z" />
    <glyph glyph-name="ntilde" unicode="&#xf1;" horiz-adv-x="774" 
d="M563 1659l29 -19q-36 -76 -98 -79q-37 -2 -99 36t-94 37q-50 0 -86 -63l-29 18q42 79 111 82q39 1 102.5 -37.5t92.5 -36.5q37 0 71 62zM125 1368v-1368h-43v1434h63l504 -1342v1342h43v-1434h-55z" />
    <glyph glyph-name="ograve" unicode="&#xf2;" 
d="M246 1718h53l147 -182h-43zM383 1444q80 0 140.5 -28t96 -78.5t53 -114.5t17.5 -142v-729q0 -162 -75 -262t-232 -100q-154 0 -228.5 100t-74.5 262v729q0 162 74.5 262.5t228.5 100.5zM383 1403q-134 0 -196 -88t-62 -232v-733q0 -144 62 -231.5t196 -87.5
q136 0 199 87.5t63 231.5v733q0 144 -63 232t-199 88z" />
    <glyph glyph-name="oacute" unicode="&#xf3;" 
d="M469 1718h51l-158 -182h-40zM383 1444q80 0 140.5 -28t96 -78.5t53 -114.5t17.5 -142v-729q0 -162 -75 -262t-232 -100q-154 0 -228.5 100t-74.5 262v729q0 162 74.5 262.5t228.5 100.5zM383 1403q-134 0 -196 -88t-62 -232v-733q0 -144 62 -231.5t196 -87.5
q136 0 199 87.5t63 231.5v733q0 144 -63 232t-199 88z" />
    <glyph glyph-name="ocircumflex" unicode="&#xf4;" 
d="M383 1669l-137 -137h-49l168 168h36l170 -168h-51zM383 1444q80 0 140.5 -28t96 -78.5t53 -114.5t17.5 -142v-729q0 -162 -75 -262t-232 -100q-154 0 -228.5 100t-74.5 262v729q0 162 74.5 262.5t228.5 100.5zM383 1403q-134 0 -196 -88t-62 -232v-733q0 -144 62 -231.5
t196 -87.5q136 0 199 87.5t63 231.5v733q0 144 -63 232t-199 88z" />
    <glyph glyph-name="otilde" unicode="&#xf5;" 
d="M567 1653l31 -19q-37 -79 -98 -82q-37 -2 -99.5 37t-95.5 39q-52 0 -84 -63l-28 18q44 80 110 80q39 1 101.5 -37.5t91.5 -36.5q43 2 71 64zM383 1444q80 0 140.5 -28t96 -78.5t53 -114.5t17.5 -142v-729q0 -162 -75 -262t-232 -100q-154 0 -228.5 100t-74.5 262v729
q0 162 74.5 262.5t228.5 100.5zM383 1403q-134 0 -196 -88t-62 -232v-733q0 -144 62 -231.5t196 -87.5q136 0 199 87.5t63 231.5v733q0 144 -63 232t-199 88z" />
    <glyph glyph-name="odieresis" unicode="&#xf6;" 
d="M285 1698h41v-166h-41v166zM440 1698h43v-166h-43v166zM383 1444q80 0 140.5 -28t96 -78.5t53 -114.5t17.5 -142v-729q0 -162 -75 -262t-232 -100q-154 0 -228.5 100t-74.5 262v729q0 162 74.5 262.5t228.5 100.5zM383 1403q-134 0 -196 -88t-62 -232v-733
q0 -144 62 -231.5t196 -87.5q136 0 199 87.5t63 231.5v733q0 144 -63 232t-199 88z" />
    <glyph glyph-name="divide" unicode="&#xf7;" horiz-adv-x="555" 
d="M254 979h43v-166h-43v166zM78 735h399v-35h-399v35zM254 623h43v-168h-43v168z" />
    <glyph glyph-name="oslash" unicode="&#xf8;" 
d="M680 1432l-43 -113q53 -89 53 -238v-729q0 -179 -77.5 -270.5t-229.5 -91.5q-148 0 -227 94l-39 -98l-33 10l47 123q-51 88 -51 233v729q0 179 77 271t226 92q152 0 229 -92l35 90zM125 1083v-733q0 -100 29 -176l440 1129q-66 100 -211 100q-128 0 -193 -81t-65 -239z
M645 350v733q0 105 -31 181l-440 -1131q64 -102 209 -102q129 0 195.5 80.5t66.5 238.5z" />
    <glyph glyph-name="ugrave" unicode="&#xf9;" horiz-adv-x="751" 
d="M236 1702h53l147 -182h-43zM672 1434v-1080q0 -61 -9.5 -113.5t-32 -99.5t-56 -80t-84 -52t-113.5 -19q-79 0 -138 28.5t-93 80t-50 115t-16 140.5v1080h45v-1082q0 -68 13 -123.5t41.5 -101t78.5 -71t119 -25.5t119 25.5t78.5 71t41.5 101t13 123.5v1082h43z" />
    <glyph glyph-name="uacute" unicode="&#xfa;" horiz-adv-x="751" 
d="M479 1718h51l-157 -182h-43zM672 1434v-1080q0 -61 -9.5 -113.5t-32 -99.5t-56 -80t-84 -52t-113.5 -19q-79 0 -138 28.5t-93 80t-50 115t-16 140.5v1080h45v-1082q0 -68 13 -123.5t41.5 -101t78.5 -71t119 -25.5t119 25.5t78.5 71t41.5 101t13 123.5v1082h43z" />
    <glyph glyph-name="ucircumflex" unicode="&#xfb;" horiz-adv-x="751" 
d="M379 1669l-139 -137h-47l167 168h37l170 -168h-51zM672 1434v-1080q0 -61 -9.5 -113.5t-32 -99.5t-56 -80t-84 -52t-113.5 -19q-79 0 -138 28.5t-93 80t-50 115t-16 140.5v1080h45v-1082q0 -68 13 -123.5t41.5 -101t78.5 -71t119 -25.5t119 25.5t78.5 71t41.5 101
t13 123.5v1082h43z" />
    <glyph glyph-name="udieresis" unicode="&#xfc;" horiz-adv-x="751" 
d="M276 1692h41v-164h-41v164zM432 1692h43v-164h-43v164zM672 1434v-1080q0 -61 -9.5 -113.5t-32 -99.5t-56 -80t-84 -52t-113.5 -19q-79 0 -138 28.5t-93 80t-50 115t-16 140.5v1080h45v-1082q0 -68 13 -123.5t41.5 -101t78.5 -71t119 -25.5t119 25.5t78.5 71t41.5 101
t13 123.5v1082h43z" />
    <glyph glyph-name="yacute" unicode="&#xfd;" horiz-adv-x="864" 
d="M532 1700h52l-160 -182h-41zM408 0v580l-334 854h45l313 -793l313 793h48l-340 -854v-580h-45z" />
    <glyph glyph-name="thorn" unicode="&#xfe;" horiz-adv-x="772" 
d="M127 1151h238q297 0 297 -346v-143q0 -171 -80.5 -253.5t-249.5 -82.5h-205v-326h-45v1434h45v-283zM127 369h205q150 0 217 68.5t67 221.5v148q0 143 -57 222t-194 79h-238v-739z" />
    <glyph glyph-name="ydieresis" unicode="&#xff;" horiz-adv-x="864" 
d="M332 1683h43v-163h-43v163zM489 1683h41v-163h-41v163zM408 0v580l-334 854h45l313 -793l313 793h48l-340 -854v-580h-45z" />
    <glyph glyph-name="Amacron" unicode="&#x100;" horiz-adv-x="915" 
d="M268 1606h371v-35h-371v35zM711 338h-510l-84 -338h-41l346 1436h63l355 -1436h-45zM453 1382l-244 -1003h493z" />
    <glyph glyph-name="amacron" unicode="&#x101;" horiz-adv-x="915" 
d="M268 1606h371v-35h-371v35zM711 338h-510l-84 -338h-41l346 1436h63l355 -1436h-45zM453 1382l-244 -1003h493z" />
    <glyph glyph-name="Abreve" unicode="&#x102;" horiz-adv-x="915" 
d="M608 1661h33q-3 -74 -56.5 -117t-131.5 -43q-76 0 -130 42.5t-55 117.5h33q1 -60 45.5 -92.5t106.5 -32.5q63 0 107.5 32.5t47.5 92.5zM711 338h-510l-84 -338h-41l346 1436h63l355 -1436h-45zM453 1382l-244 -1003h493z" />
    <glyph glyph-name="abreve" unicode="&#x103;" horiz-adv-x="915" 
d="M608 1661h33q-3 -74 -56.5 -117t-131.5 -43q-76 0 -130 42.5t-55 117.5h33q1 -60 45.5 -92.5t106.5 -32.5q63 0 107.5 32.5t47.5 92.5zM711 338h-510l-84 -338h-41l346 1436h63l355 -1436h-45zM453 1382l-244 -1003h493z" />
    <glyph glyph-name="Aogonek" unicode="&#x104;" horiz-adv-x="915" 
d="M840 0h-6q-40 -32 -72 -85t-29 -95q1 -34 24.5 -51t59.5 -17q55 0 94 31v-37q-47 -27 -104 -27q-48 2 -80 25t-33 70q-3 46 25.5 98t73.5 90l-82 336h-510l-84 -338h-41l346 1436h63zM453 1382l-244 -1003h493z" />
    <glyph glyph-name="aogonek" unicode="&#x105;" horiz-adv-x="915" 
d="M840 0h-9q-40 -32 -71.5 -85t-28.5 -95q1 -33 25 -49.5t61 -16.5q58 0 94 29v-37q-47 -27 -104 -27q-48 2 -80 25t-33 70q-3 46 25.5 98t73.5 90l-82 336h-510l-84 -338h-41l346 1436h63zM453 1382l-244 -1003h493z" />
    <glyph glyph-name="Cacute" unicode="&#x106;" horiz-adv-x="757" 
d="M475 1718h53l-159 -182h-41zM379 1444q80 0 139 -28.5t94 -79t51.5 -114.5t16.5 -141v-110h-45v112q0 143 -61 231.5t-193 88.5q-69 0 -120 -25t-80 -70t-42.5 -101t-13.5 -124v-733q0 -68 13.5 -123.5t42.5 -100t80 -69t120 -24.5q68 0 118.5 24.5t79.5 69t42.5 100
t13.5 123.5v158h45v-156q0 -77 -16.5 -141t-51.5 -114.5t-94 -78.5t-139 -28q-79 0 -138 28t-93.5 78.5t-51 114.5t-16.5 141v729q0 77 16.5 141t51 114.5t93.5 79t138 28.5z" />
    <glyph glyph-name="cacute" unicode="&#x107;" horiz-adv-x="757" 
d="M475 1718h53l-159 -182h-41zM379 1444q80 0 139 -28.5t94 -79t51.5 -114.5t16.5 -141v-110h-45v112q0 143 -61 231.5t-193 88.5q-69 0 -120 -25t-80 -70t-42.5 -101t-13.5 -124v-733q0 -68 13.5 -123.5t42.5 -100t80 -69t120 -24.5q68 0 118.5 24.5t79.5 69t42.5 100
t13.5 123.5v158h45v-156q0 -77 -16.5 -141t-51.5 -114.5t-94 -78.5t-139 -28q-79 0 -138 28t-93.5 78.5t-51 114.5t-16.5 141v729q0 77 16.5 141t51 114.5t93.5 79t138 28.5z" />
    <glyph glyph-name="Ccircumflex" unicode="&#x108;" horiz-adv-x="757" 
d="M389 1663l-137 -135h-49l168 168h37l170 -168h-52zM379 1444q80 0 139 -28.5t94 -79t51.5 -114.5t16.5 -141v-110h-45v112q0 143 -61 231.5t-193 88.5q-69 0 -120 -25t-80 -70t-42.5 -101t-13.5 -124v-733q0 -68 13.5 -123.5t42.5 -100t80 -69t120 -24.5q68 0 118.5 24.5
t79.5 69t42.5 100t13.5 123.5v158h45v-156q0 -77 -16.5 -141t-51.5 -114.5t-94 -78.5t-139 -28q-79 0 -138 28t-93.5 78.5t-51 114.5t-16.5 141v729q0 77 16.5 141t51 114.5t93.5 79t138 28.5z" />
    <glyph glyph-name="ccircumflex" unicode="&#x109;" horiz-adv-x="757" 
d="M389 1663l-137 -135h-49l168 168h37l170 -168h-52zM379 1444q80 0 139 -28.5t94 -79t51.5 -114.5t16.5 -141v-110h-45v112q0 143 -61 231.5t-193 88.5q-69 0 -120 -25t-80 -70t-42.5 -101t-13.5 -124v-733q0 -68 13.5 -123.5t42.5 -100t80 -69t120 -24.5q68 0 118.5 24.5
t79.5 69t42.5 100t13.5 123.5v158h45v-156q0 -77 -16.5 -141t-51.5 -114.5t-94 -78.5t-139 -28q-79 0 -138 28t-93.5 78.5t-51 114.5t-16.5 141v729q0 77 16.5 141t51 114.5t93.5 79t138 28.5z" />
    <glyph glyph-name="Cdotaccent" unicode="&#x10a;" horiz-adv-x="757" 
d="M358 1681h41v-163h-41v163zM379 1444q80 0 139 -28.5t94 -79t51.5 -114.5t16.5 -141v-110h-45v112q0 143 -61 231.5t-193 88.5q-69 0 -120 -25t-80 -70t-42.5 -101t-13.5 -124v-733q0 -68 13.5 -123.5t42.5 -100t80 -69t120 -24.5q68 0 118.5 24.5t79.5 69t42.5 100
t13.5 123.5v158h45v-156q0 -77 -16.5 -141t-51.5 -114.5t-94 -78.5t-139 -28q-79 0 -138 28t-93.5 78.5t-51 114.5t-16.5 141v729q0 77 16.5 141t51 114.5t93.5 79t138 28.5z" />
    <glyph glyph-name="cdotaccent" unicode="&#x10b;" horiz-adv-x="757" 
d="M358 1681h41v-163h-41v163zM379 1444q80 0 139 -28.5t94 -79t51.5 -114.5t16.5 -141v-110h-45v112q0 143 -61 231.5t-193 88.5q-69 0 -120 -25t-80 -70t-42.5 -101t-13.5 -124v-733q0 -68 13.5 -123.5t42.5 -100t80 -69t120 -24.5q68 0 118.5 24.5t79.5 69t42.5 100
t13.5 123.5v158h45v-156q0 -77 -16.5 -141t-51.5 -114.5t-94 -78.5t-139 -28q-79 0 -138 28t-93.5 78.5t-51 114.5t-16.5 141v729q0 77 16.5 141t51 114.5t93.5 79t138 28.5z" />
    <glyph glyph-name="Ccaron" unicode="&#x10c;" horiz-adv-x="757" 
d="M207 1698h47l139 -137l137 137h52l-170 -168h-37zM379 1444q80 0 139 -28.5t94 -79t51.5 -114.5t16.5 -141v-110h-45v112q0 143 -61 231.5t-193 88.5q-69 0 -120 -25t-80 -70t-42.5 -101t-13.5 -124v-733q0 -68 13.5 -123.5t42.5 -100t80 -69t120 -24.5q68 0 118.5 24.5
t79.5 69t42.5 100t13.5 123.5v158h45v-156q0 -77 -16.5 -141t-51.5 -114.5t-94 -78.5t-139 -28q-79 0 -138 28t-93.5 78.5t-51 114.5t-16.5 141v729q0 77 16.5 141t51 114.5t93.5 79t138 28.5z" />
    <glyph glyph-name="ccaron" unicode="&#x10d;" horiz-adv-x="757" 
d="M207 1698h47l139 -137l137 137h52l-170 -168h-37zM379 1444q80 0 139 -28.5t94 -79t51.5 -114.5t16.5 -141v-110h-45v112q0 143 -61 231.5t-193 88.5q-69 0 -120 -25t-80 -70t-42.5 -101t-13.5 -124v-733q0 -68 13.5 -123.5t42.5 -100t80 -69t120 -24.5q68 0 118.5 24.5
t79.5 69t42.5 100t13.5 123.5v158h45v-156q0 -77 -16.5 -141t-51.5 -114.5t-94 -78.5t-139 -28q-79 0 -138 28t-93.5 78.5t-51 114.5t-16.5 141v729q0 77 16.5 141t51 114.5t93.5 79t138 28.5z" />
    <glyph glyph-name="Dcaron" unicode="&#x10e;" 
d="M178 1686h47l140 -136l137 136h51l-170 -168h-37zM82 1434h299q157 0 234 -98t77 -261v-719q0 -161 -76.5 -258.5t-232.5 -97.5h-301v1434zM127 43h254q138 0 202 84t64 227v723q0 144 -65 229t-201 85h-254v-1348z" />
    <glyph glyph-name="dcaron" unicode="&#x10f;" 
d="M178 1686h47l140 -136l137 136h51l-170 -168h-37zM82 1434h299q157 0 234 -98t77 -261v-719q0 -161 -76.5 -258.5t-232.5 -97.5h-301v1434zM127 43h254q138 0 202 84t64 227v723q0 144 -65 229t-201 85h-254v-1348z" />
    <glyph glyph-name="Dcroat" unicode="&#x110;" 
d="M82 1434h299q157 0 234 -98t77 -261v-719q0 -161 -76.5 -258.5t-232.5 -97.5h-301v694h-92v39h92v701zM328 733v-39h-201v-651h254q138 0 202 84t64 227v723q0 144 -65 229t-201 85h-254v-658h201z" />
    <glyph glyph-name="dcroat" unicode="&#x111;" 
d="M82 1434h299q157 0 234 -98t77 -261v-719q0 -161 -76.5 -258.5t-232.5 -97.5h-301v694h-92v39h92v701zM328 733v-39h-201v-651h254q138 0 202 84t64 227v723q0 144 -65 229t-201 85h-254v-658h201z" />
    <glyph glyph-name="Emacron" unicode="&#x112;" horiz-adv-x="706" 
d="M172 1612h352v-35h-352v35zM127 748h422v-41h-422v-664h502v-43h-547v1434h547v-43h-502v-643z" />
    <glyph glyph-name="emacron" unicode="&#x113;" horiz-adv-x="706" 
d="M172 1612h352v-35h-352v35zM127 748h422v-41h-422v-664h502v-43h-547v1434h547v-43h-502v-643z" />
    <glyph glyph-name="Ebreve" unicode="&#x114;" horiz-adv-x="706" 
d="M506 1692h35q-3 -74 -57 -117t-132 -43q-77 0 -131 42.5t-55 117.5h35q1 -61 44.5 -93t106.5 -32t107 32t47 93zM127 748h422v-41h-422v-664h502v-43h-547v1434h547v-43h-502v-643z" />
    <glyph glyph-name="ebreve" unicode="&#x115;" horiz-adv-x="706" 
d="M506 1692h35q-3 -74 -57 -117t-132 -43q-77 0 -131 42.5t-55 117.5h35q1 -61 44.5 -93t106.5 -32t107 32t47 93zM127 748h422v-41h-422v-664h502v-43h-547v1434h547v-43h-502v-643z" />
    <glyph glyph-name="Edotaccent" unicode="&#x116;" horiz-adv-x="706" 
d="M340 1688h43v-164h-43v164zM127 748h422v-41h-422v-664h502v-43h-547v1434h547v-43h-502v-643z" />
    <glyph glyph-name="edotaccent" unicode="&#x117;" horiz-adv-x="706" 
d="M340 1688h43v-164h-43v164zM127 748h422v-41h-422v-664h502v-43h-547v1434h547v-43h-502v-643z" />
    <glyph glyph-name="Eogonek" unicode="&#x118;" horiz-adv-x="706" 
d="M127 748h422v-41h-422v-664h502v-43h-33q-41 -32 -74 -85t-30 -95q3 -34 26 -51t57 -17q58 0 97 31v-37q-46 -27 -107 -27q-106 4 -112 95q-3 47 27 98t73 88h-471v1434h547v-43h-502v-643z" />
    <glyph glyph-name="eogonek" unicode="&#x119;" horiz-adv-x="706" 
d="M127 748h422v-41h-422v-664h502v-43h-37q-41 -31 -72 -84.5t-28 -95.5q3 -34 26 -51t57 -17q58 0 97 31v-37q-46 -27 -107 -27q-106 4 -112 95q-3 46 26.5 97t71.5 89h-469v1434h547v-43h-502v-643z" />
    <glyph glyph-name="Ecaron" unicode="&#x11a;" horiz-adv-x="706" 
d="M176 1688h49l137 -136l138 136h51l-170 -168h-37zM127 748h422v-41h-422v-664h502v-43h-547v1434h547v-43h-502v-643z" />
    <glyph glyph-name="ecaron" unicode="&#x11b;" horiz-adv-x="706" 
d="M176 1688h49l137 -136l138 136h51l-170 -168h-37zM127 748h422v-41h-422v-664h502v-43h-547v1434h547v-43h-502v-643z" />
    <glyph glyph-name="Gcircumflex" unicode="&#x11c;" horiz-adv-x="759" 
d="M383 1675l-139 -137h-47l168 168h36l168 -168h-49zM379 1444q80 0 139 -28.5t94 -79t51.5 -114.5t16.5 -141v-94h-45v96q0 143 -61 231.5t-193 88.5q-69 0 -120 -25t-80 -70t-42.5 -101t-13.5 -124v-733q0 -68 13.5 -123.5t42.5 -100t80 -69t120 -24.5q68 0 118.5 24.5
t79.5 69t42.5 100t13.5 123.5v326h-223v41h268v-365q0 -77 -16.5 -141t-51.5 -114.5t-94 -78.5t-139 -28q-79 0 -138 28t-93.5 78.5t-51 114.5t-16.5 141v729q0 77 16.5 141t51 114.5t93.5 79t138 28.5z" />
    <glyph glyph-name="gcircumflex" unicode="&#x11d;" horiz-adv-x="759" 
d="M383 1675l-139 -137h-47l168 168h36l168 -168h-49zM379 1444q80 0 139 -28.5t94 -79t51.5 -114.5t16.5 -141v-94h-45v96q0 143 -61 231.5t-193 88.5q-69 0 -120 -25t-80 -70t-42.5 -101t-13.5 -124v-733q0 -68 13.5 -123.5t42.5 -100t80 -69t120 -24.5q68 0 118.5 24.5
t79.5 69t42.5 100t13.5 123.5v326h-223v41h268v-365q0 -77 -16.5 -141t-51.5 -114.5t-94 -78.5t-139 -28q-79 0 -138 28t-93.5 78.5t-51 114.5t-16.5 141v729q0 77 16.5 141t51 114.5t93.5 79t138 28.5z" />
    <glyph glyph-name="Gbreve" unicode="&#x11e;" horiz-adv-x="759" 
d="M537 1698h34q-3 -74 -57 -117t-131 -43t-131 42.5t-55 117.5h34q1 -61 45 -93t107 -32t107 32t47 93zM379 1444q80 0 139 -28.5t94 -79t51.5 -114.5t16.5 -141v-94h-45v96q0 143 -61 231.5t-193 88.5q-69 0 -120 -25t-80 -70t-42.5 -101t-13.5 -124v-733
q0 -68 13.5 -123.5t42.5 -100t80 -69t120 -24.5q68 0 118.5 24.5t79.5 69t42.5 100t13.5 123.5v326h-223v41h268v-365q0 -77 -16.5 -141t-51.5 -114.5t-94 -78.5t-139 -28q-79 0 -138 28t-93.5 78.5t-51 114.5t-16.5 141v729q0 77 16.5 141t51 114.5t93.5 79t138 28.5z" />
    <glyph glyph-name="gbreve" unicode="&#x11f;" horiz-adv-x="759" 
d="M537 1698h34q-3 -74 -57 -117t-131 -43t-131 42.5t-55 117.5h34q1 -61 45 -93t107 -32t107 32t47 93zM379 1444q80 0 139 -28.5t94 -79t51.5 -114.5t16.5 -141v-94h-45v96q0 143 -61 231.5t-193 88.5q-69 0 -120 -25t-80 -70t-42.5 -101t-13.5 -124v-733
q0 -68 13.5 -123.5t42.5 -100t80 -69t120 -24.5q68 0 118.5 24.5t79.5 69t42.5 100t13.5 123.5v326h-223v41h268v-365q0 -77 -16.5 -141t-51.5 -114.5t-94 -78.5t-139 -28q-79 0 -138 28t-93.5 78.5t-51 114.5t-16.5 141v729q0 77 16.5 141t51 114.5t93.5 79t138 28.5z" />
    <glyph glyph-name="Gdotaccent" unicode="&#x120;" horiz-adv-x="759" 
d="M377 1692h41v-164h-41v164zM379 1444q80 0 139 -28.5t94 -79t51.5 -114.5t16.5 -141v-94h-45v96q0 143 -61 231.5t-193 88.5q-69 0 -120 -25t-80 -70t-42.5 -101t-13.5 -124v-733q0 -68 13.5 -123.5t42.5 -100t80 -69t120 -24.5q68 0 118.5 24.5t79.5 69t42.5 100
t13.5 123.5v326h-223v41h268v-365q0 -77 -16.5 -141t-51.5 -114.5t-94 -78.5t-139 -28q-79 0 -138 28t-93.5 78.5t-51 114.5t-16.5 141v729q0 77 16.5 141t51 114.5t93.5 79t138 28.5z" />
    <glyph glyph-name="gdotaccent" unicode="&#x121;" horiz-adv-x="759" 
d="M377 1692h41v-164h-41v164zM379 1444q80 0 139 -28.5t94 -79t51.5 -114.5t16.5 -141v-94h-45v96q0 143 -61 231.5t-193 88.5q-69 0 -120 -25t-80 -70t-42.5 -101t-13.5 -124v-733q0 -68 13.5 -123.5t42.5 -100t80 -69t120 -24.5q68 0 118.5 24.5t79.5 69t42.5 100
t13.5 123.5v326h-223v41h268v-365q0 -77 -16.5 -141t-51.5 -114.5t-94 -78.5t-139 -28q-79 0 -138 28t-93.5 78.5t-51 114.5t-16.5 141v729q0 77 16.5 141t51 114.5t93.5 79t138 28.5z" />
    <glyph glyph-name="uni0122" unicode="&#x122;" horiz-adv-x="759" 
d="M379 1444q80 0 139 -28.5t94 -79t51.5 -114.5t16.5 -141v-94h-45v96q0 143 -61 231.5t-193 88.5q-69 0 -120 -25t-80 -70t-42.5 -101t-13.5 -124v-733q0 -68 13.5 -123.5t42.5 -100t80 -69t120 -24.5q68 0 118.5 24.5t79.5 69t42.5 100t13.5 123.5v326h-223v41h268v-365
q0 -77 -16.5 -141t-51.5 -114.5t-94 -78.5t-139 -28q-79 0 -138 28t-93.5 78.5t-51 114.5t-16.5 141v729q0 77 16.5 141t51 114.5t93.5 79t138 28.5zM334 -358l24 125v163h39v-159l-43 -129h-20z" />
    <glyph glyph-name="uni0123" unicode="&#x123;" horiz-adv-x="759" 
d="M379 1444q80 0 139 -28.5t94 -79t51.5 -114.5t16.5 -141v-94h-45v96q0 143 -61 231.5t-193 88.5q-69 0 -120 -25t-80 -70t-42.5 -101t-13.5 -124v-733q0 -68 13.5 -123.5t42.5 -100t80 -69t120 -24.5q68 0 118.5 24.5t79.5 69t42.5 100t13.5 123.5v326h-223v41h268v-365
q0 -77 -16.5 -141t-51.5 -114.5t-94 -78.5t-139 -28q-79 0 -138 28t-93.5 78.5t-51 114.5t-16.5 141v729q0 77 16.5 141t51 114.5t93.5 79t138 28.5zM334 -358l24 125v163h41v-159l-43 -129h-22z" />
    <glyph glyph-name="Hcircumflex" unicode="&#x124;" horiz-adv-x="772" 
d="M385 1669l-137 -137h-49l168 168h36l170 -168h-51zM645 696h-518v-696h-45v1434h45v-697h518v697h45v-1434h-45v696z" />
    <glyph glyph-name="hcircumflex" unicode="&#x125;" horiz-adv-x="772" 
d="M385 1669l-137 -137h-49l168 168h36l170 -168h-51zM645 696h-518v-696h-45v1434h45v-697h518v697h45v-1434h-45v696z" />
    <glyph glyph-name="Hbar" unicode="&#x126;" horiz-adv-x="774" 
d="M768 1094h-78v-1094h-45v696h-516v-696h-45v1094h-82v34h82v306h45v-306h516v306h45v-306h78v-34zM645 737v357h-516v-357h516z" />
    <glyph glyph-name="hbar" unicode="&#x127;" horiz-adv-x="774" 
d="M768 1094h-78v-1094h-45v696h-516v-696h-45v1094h-82v34h82v306h45v-306h516v306h45v-306h78v-34zM645 737v357h-516v-357h516z" />
    <glyph glyph-name="Itilde" unicode="&#x128;" horiz-adv-x="208" 
d="M281 1649l28 -19q-37 -79 -98 -82q-36 -1 -98.5 38t-96.5 38q-48 0 -84 -63l-28 18q42 79 110 82q40 1 103 -38t92 -38q38 2 72 64zM82 1434h45v-1434h-45v1434z" />
    <glyph glyph-name="itilde" unicode="&#x129;" horiz-adv-x="208" 
d="M281 1649l28 -19q-37 -79 -98 -82q-36 -1 -98.5 38t-96.5 38q-48 0 -84 -63l-28 18q42 79 110 82q40 1 103 -38t92 -38q38 2 72 64zM82 1434h45v-1434h-45v1434z" />
    <glyph glyph-name="Imacron" unicode="&#x12a;" horiz-adv-x="208" 
d="M-45 1606h299v-35h-299v35zM82 1434h45v-1434h-45v1434z" />
    <glyph glyph-name="imacron" unicode="&#x12b;" horiz-adv-x="208" 
d="M-45 1606h299v-35h-299v35zM82 1434h45v-1434h-45v1434z" />
    <glyph glyph-name="Ibreve" unicode="&#x12c;" horiz-adv-x="208" 
d="M258 1679h35q-3 -74 -57.5 -116.5t-131.5 -42.5q-78 0 -131.5 42t-54.5 117h35q1 -61 44.5 -93t106.5 -32t107 32t47 93zM82 0v1434h45v-1434h-45z" />
    <glyph glyph-name="ibreve" unicode="&#x12d;" horiz-adv-x="208" 
d="M258 1679h35q-3 -74 -57.5 -116.5t-131.5 -42.5q-78 0 -131.5 42t-54.5 117h35q1 -61 44.5 -93t106.5 -32t107 32t47 93zM82 0v1434h45v-1434h-45z" />
    <glyph glyph-name="Iogonek" unicode="&#x12e;" horiz-adv-x="208" 
d="M127 0h-6q-39 -31 -69 -84.5t-27 -95.5q3 -34 26.5 -51t57.5 -17q57 0 96 31v-37q-46 -27 -107 -27q-106 4 -112 95q-3 47 23.5 96.5t74.5 89.5h-4l2 1434h45v-1434z" />
    <glyph glyph-name="iogonek" unicode="&#x12f;" horiz-adv-x="208" 
d="M127 0h-2q-40 -32 -71.5 -85t-28.5 -95q3 -34 26.5 -51t57.5 -17q57 0 96 31v-37q-46 -27 -107 -27q-106 4 -112 95q-3 46 24.5 95.5t75.5 90.5h-6l2 1434h45v-1434z" />
    <glyph glyph-name="Idotaccent" unicode="&#x130;" horiz-adv-x="208" 
d="M84 1683h41v-163h-41v163zM82 1434h45v-1434h-45v1434z" />
    <glyph glyph-name="dotlessi" unicode="&#x131;" horiz-adv-x="208" 
d="M82 1434h45v-1434h-45v1434z" />
    <glyph glyph-name="IJ" unicode="&#x132;" horiz-adv-x="724" 
d="M82 1434h45v-1434h-45v1434zM645 1434v-1084q0 -177 -71 -259t-214 -91h-77v43h75q130 10 186 81.5t56 223.5v1086h45z" />
    <glyph glyph-name="ij" unicode="&#x133;" horiz-adv-x="724" 
d="M82 1434h45v-1434h-45v1434zM645 1434v-1084q0 -177 -71 -259t-214 -91h-77v43h75q130 10 186 81.5t56 223.5v1086h45z" />
    <glyph glyph-name="Jcircumflex" unicode="&#x134;" horiz-adv-x="516" 
d="M410 1659l-140 -137h-49l168 168h37l170 -168h-49zM436 1434v-1084q0 -173 -68.5 -256t-203.5 -92q-58 -4 -90 -2v43q32 -2 86 2q121 11 176 82t55 221v1086h45z" />
    <glyph glyph-name="jcircumflex" unicode="&#x135;" horiz-adv-x="516" 
d="M410 1659l-140 -137h-49l168 168h37l170 -168h-49zM436 1434v-1084q0 -173 -68.5 -256t-203.5 -92q-58 -4 -90 -2v43q32 -2 86 2q121 11 176 82t55 221v1086h45z" />
    <glyph glyph-name="uni0136" unicode="&#x136;" horiz-adv-x="821" 
d="M696 0l-460 713l-109 -164v-549h-45v1434h45v-809l532 809h50l-445 -678l481 -756h-49zM340 -358l25 125v163h41v-159l-44 -129h-22z" />
    <glyph glyph-name="uni0137" unicode="&#x137;" horiz-adv-x="821" 
d="M696 0l-460 713l-109 -164v-549h-45v1434h45v-809l532 809h50l-445 -678l481 -756h-49zM340 -358l25 125v163h41v-159l-44 -129h-22z" />
    <glyph glyph-name="kgreenlandic" unicode="&#x138;" horiz-adv-x="821" 
d="M696 0l-460 713l-109 -164v-549h-45v1434h45v-809l532 809h50l-445 -678l481 -756h-49z" />
    <glyph glyph-name="Lacute" unicode="&#x139;" horiz-adv-x="681" 
d="M223 1700h51l-157 -182h-41zM608 0h-526v1434h45v-1391h481v-43z" />
    <glyph glyph-name="lacute" unicode="&#x13a;" horiz-adv-x="681" 
d="M205 1704h53l-160 -182h-41zM608 0h-526v1434h45v-1391h481v-43z" />
    <glyph glyph-name="uni013B" unicode="&#x13b;" horiz-adv-x="681" 
d="M608 0h-526v1434h45v-1391h481v-43zM315 -367l25 125v164h39v-162l-43 -127h-21z" />
    <glyph glyph-name="uni013C" unicode="&#x13c;" horiz-adv-x="681" 
d="M608 0h-526v1434h45v-1391h481v-43zM332 -358l24 125v163h41v-159l-43 -129h-22z" />
    <glyph glyph-name="Lcaron" unicode="&#x13d;" horiz-adv-x="681" 
d="M608 0h-526v1434h45v-1391h481v-43zM422 1130l35 138h-13v166h45v-164l-45 -140h-22z" />
    <glyph glyph-name="lcaron" unicode="&#x13e;" horiz-adv-x="681" 
d="M608 0h-526v1434h45v-1391h481v-43zM422 1130l22 138v166h45v-164l-45 -140h-22z" />
    <glyph glyph-name="Ldot" unicode="&#x13f;" horiz-adv-x="681" 
d="M608 0h-526v1434h45v-1391h481v-43zM360 809h43v-166h-43v166z" />
    <glyph glyph-name="ldot" unicode="&#x140;" horiz-adv-x="681" 
d="M608 0h-526v1434h45v-1391h481v-43zM360 809h43v-166h-43v166z" />
    <glyph glyph-name="Lslash" unicode="&#x141;" horiz-adv-x="710" 
d="M334 858l-178 -170v-645h481v-43h-526v641l-111 -96v47l111 98v744h45v-697l178 168v-47z" />
    <glyph glyph-name="lslash" unicode="&#x142;" horiz-adv-x="710" 
d="M334 858l-178 -170v-645h481v-43h-526v641l-111 -96v47l111 98v744h45v-697l178 168v-47z" />
    <glyph glyph-name="Nacute" unicode="&#x143;" horiz-adv-x="774" 
d="M489 1706h52l-158 -182h-43zM125 1370v-1368h-43v1434h63l504 -1342v1342h43v-1434h-55z" />
    <glyph glyph-name="nacute" unicode="&#x144;" horiz-adv-x="774" 
d="M489 1706h52l-158 -182h-43zM125 1370v-1368h-43v1434h63l504 -1342v1342h43v-1434h-55z" />
    <glyph glyph-name="uni0145" unicode="&#x145;" horiz-adv-x="774" 
d="M125 1368v-1368h-43v1434h63l504 -1342v1342h43v-1434h-55zM340 -358l25 125v163h38v-159l-43 -129h-20z" />
    <glyph glyph-name="uni0146" unicode="&#x146;" horiz-adv-x="774" 
d="M125 1368v-1368h-43v1434h63l504 -1342v1342h43v-1434h-55zM340 -358l25 125v163h38v-159l-43 -129h-20z" />
    <glyph glyph-name="Ncaron" unicode="&#x147;" horiz-adv-x="774" 
d="M205 1700h47l139 -135l137 135h50l-168 -168h-37zM125 1368v-1368h-43v1434h63l504 -1342v1342h43v-1434h-55z" />
    <glyph glyph-name="ncaron" unicode="&#x148;" horiz-adv-x="774" 
d="M205 1700h47l139 -135l137 135h50l-168 -168h-37zM125 1368v-1368h-43v1434h63l504 -1342v1342h43v-1434h-55z" />
    <glyph glyph-name="napostrophe" unicode="&#x149;" horiz-adv-x="892" 
d="M23 1130l24 138v166h43v-164l-43 -140h-24zM242 1368v-1368h-41v1434h63l504 -1342v1342h43v-1434h-55z" />
    <glyph glyph-name="Omacron" unicode="&#x14c;" 
d="M213 1608h348v-37h-348v37zM383 1444q80 0 140.5 -28t96 -78.5t53 -114.5t17.5 -142v-729q0 -162 -75 -262t-232 -100q-154 0 -228.5 100t-74.5 262v729q0 162 74.5 262.5t228.5 100.5zM383 1403q-134 0 -196 -88t-62 -232v-733q0 -144 62 -231.5t196 -87.5
q136 0 199 87.5t63 231.5v733q0 144 -63 232t-199 88z" />
    <glyph glyph-name="omacron" unicode="&#x14d;" 
d="M213 1608h348v-37h-348v37zM383 1444q80 0 140.5 -28t96 -78.5t53 -114.5t17.5 -142v-729q0 -162 -75 -262t-232 -100q-154 0 -228.5 100t-74.5 262v729q0 162 74.5 262.5t228.5 100.5zM383 1403q-134 0 -196 -88t-62 -232v-733q0 -144 62 -231.5t196 -87.5
q136 0 199 87.5t63 231.5v733q0 144 -63 232t-199 88z" />
    <glyph glyph-name="Obreve" unicode="&#x14e;" 
d="M539 1698h32q-3 -74 -56.5 -117t-131.5 -43q-76 0 -129.5 42.5t-54.5 117.5h32q1 -61 45.5 -93t106.5 -32q63 0 107.5 32t48.5 93zM383 1444q80 0 140.5 -28t96 -78.5t53 -114.5t17.5 -142v-729q0 -162 -75 -262t-232 -100q-154 0 -228.5 100t-74.5 262v729
q0 162 74.5 262.5t228.5 100.5zM383 1403q-134 0 -196 -88t-62 -232v-733q0 -144 62 -231.5t196 -87.5q136 0 199 87.5t63 231.5v733q0 144 -63 232t-199 88z" />
    <glyph glyph-name="obreve" unicode="&#x14f;" 
d="M539 1698h32q-3 -74 -56.5 -117t-131.5 -43q-76 0 -129.5 42.5t-54.5 117.5h32q1 -61 45.5 -93t106.5 -32q63 0 107.5 32t48.5 93zM383 1444q80 0 140.5 -28t96 -78.5t53 -114.5t17.5 -142v-729q0 -162 -75 -262t-232 -100q-154 0 -228.5 100t-74.5 262v729
q0 162 74.5 262.5t228.5 100.5zM383 1403q-134 0 -196 -88t-62 -232v-733q0 -144 62 -231.5t196 -87.5q136 0 199 87.5t63 231.5v733q0 144 -63 232t-199 88z" />
    <glyph glyph-name="Ohungarumlaut" unicode="&#x150;" 
d="M414 1718h51l-154 -182h-41zM553 1718h49l-153 -182h-39zM383 1444q80 0 140.5 -28t96 -78.5t53 -114.5t17.5 -142v-729q0 -162 -75 -262t-232 -100q-154 0 -228.5 100t-74.5 262v729q0 162 74.5 262.5t228.5 100.5zM383 1403q-134 0 -196 -88t-62 -232v-733
q0 -144 62 -231.5t196 -87.5q136 0 199 87.5t63 231.5v733q0 144 -63 232t-199 88z" />
    <glyph glyph-name="ohungarumlaut" unicode="&#x151;" 
d="M414 1718h51l-154 -182h-41zM553 1718h49l-153 -182h-39zM383 1444q80 0 140.5 -28t96 -78.5t53 -114.5t17.5 -142v-729q0 -162 -75 -262t-232 -100q-154 0 -228.5 100t-74.5 262v729q0 162 74.5 262.5t228.5 100.5zM383 1403q-134 0 -196 -88t-62 -232v-733
q0 -144 62 -231.5t196 -87.5q136 0 199 87.5t63 231.5v733q0 144 -63 232t-199 88z" />
    <glyph glyph-name="OE" unicode="&#x152;" horiz-adv-x="1148" 
d="M639 748h362v-41h-362v-664h432v-43h-709q-76 0 -132.5 29t-88 80t-46.5 113t-15 136v717q0 74 15 136t46.5 113.5t88 80.5t132.5 29h709v-43h-432v-643zM594 1391h-229q-66 0 -114 -25.5t-74.5 -71t-39 -99.5t-12.5 -118v-721q0 -64 12.5 -117.5t39 -99t74.5 -71
t114 -25.5h229v1348z" />
    <glyph glyph-name="oe" unicode="&#x153;" horiz-adv-x="1148" 
d="M639 748h362v-41h-362v-664h432v-43h-709q-76 0 -132.5 29t-88 80t-46.5 113t-15 136v717q0 74 15 136t46.5 113.5t88 80.5t132.5 29h709v-43h-432v-643zM594 1391h-229q-66 0 -114 -25.5t-74.5 -71t-39 -99.5t-12.5 -118v-721q0 -64 12.5 -117.5t39 -99t74.5 -71
t114 -25.5h229v1348z" />
    <glyph glyph-name="Racute" unicode="&#x154;" horiz-adv-x="778" 
d="M442 1718h54l-160 -182h-41zM82 1434h285q295 0 295 -322v-129q0 -133 -55 -206t-173 -95q228 -36 228 -287v-225q0 -118 38 -170h-49q-35 54 -35 170v225q0 149 -80.5 208t-232.5 59h-176v-662h-45v1434zM127 705h176q79 0 133.5 11.5t97 41t62.5 84t20 135.5v131
q0 137 -59 210t-192 73h-238v-686z" />
    <glyph glyph-name="racute" unicode="&#x155;" horiz-adv-x="778" 
d="M442 1718h54l-160 -182h-41zM82 1434h285q295 0 295 -322v-129q0 -133 -55 -206t-173 -95q228 -36 228 -287v-225q0 -118 38 -170h-49q-35 54 -35 170v225q0 149 -80.5 208t-232.5 59h-176v-662h-45v1434zM127 705h176q79 0 133.5 11.5t97 41t62.5 84t20 135.5v131
q0 137 -59 210t-192 73h-238v-686z" />
    <glyph glyph-name="uni0156" unicode="&#x156;" horiz-adv-x="778" 
d="M82 1434h285q295 0 295 -322v-129q0 -133 -55 -206t-173 -95q228 -36 228 -287v-225q0 -118 38 -170h-49q-35 54 -35 170v225q0 149 -80.5 208t-232.5 59h-176v-662h-45v1434zM127 705h176q79 0 133.5 11.5t97 41t62.5 84t20 135.5v131q0 137 -59 210t-192 73h-238v-686z
M334 -356l24 125v163h39v-159l-43 -129h-20z" />
    <glyph glyph-name="uni0157" unicode="&#x157;" horiz-adv-x="778" 
d="M82 1434h285q295 0 295 -322v-129q0 -133 -55 -206t-173 -95q228 -36 228 -287v-225q0 -118 38 -170h-49q-35 54 -35 170v225q0 149 -80.5 208t-232.5 59h-176v-662h-45v1434zM127 705h176q79 0 133.5 11.5t97 41t62.5 84t20 135.5v131q0 137 -59 210t-192 73h-238v-686z
M336 -358l24 125v163h41v-159l-43 -129h-22z" />
    <glyph glyph-name="Rcaron" unicode="&#x158;" horiz-adv-x="778" 
d="M164 1702h47l139 -135l137 135h52l-170 -168h-37zM82 1434h285q295 0 295 -322v-129q0 -133 -55 -206t-173 -95q228 -36 228 -287v-225q0 -118 38 -170h-49q-35 54 -35 170v225q0 149 -80.5 208t-232.5 59h-176v-662h-45v1434zM127 705h176q79 0 133.5 11.5t97 41
t62.5 84t20 135.5v131q0 137 -59 210t-192 73h-238v-686z" />
    <glyph glyph-name="rcaron" unicode="&#x159;" horiz-adv-x="778" 
d="M164 1702h47l139 -135l137 135h52l-170 -168h-37zM82 1434h285q295 0 295 -322v-129q0 -133 -55 -206t-173 -95q228 -36 228 -287v-225q0 -118 38 -170h-49q-35 54 -35 170v225q0 149 -80.5 208t-232.5 59h-176v-662h-45v1434zM127 705h176q79 0 133.5 11.5t97 41
t62.5 84t20 135.5v131q0 137 -59 210t-192 73h-238v-686z" />
    <glyph glyph-name="Sacute" unicode="&#x15a;" horiz-adv-x="755" 
d="M483 1718h52l-158 -182h-43zM379 1444q79 0 137.5 -27.5t92.5 -77.5t50.5 -112.5t16.5 -139.5v-26h-45v29q0 67 -13.5 121.5t-41.5 98.5t-78 68.5t-117 24.5q-132 0 -192 -85.5t-60 -225.5q0 -74 30.5 -135.5t78.5 -105.5t106.5 -83.5t117.5 -80.5t107 -86.5t78.5 -110.5
t30.5 -144q0 -161 -73 -258.5t-228 -97.5q-154 0 -226.5 97.5t-72.5 258.5v70h43v-72q0 -141 61.5 -226t194.5 -85t194.5 85t61.5 226q0 73 -30.5 134t-78.5 104t-106.5 82.5t-117.5 80.5t-107 87t-78.5 112t-30.5 146q0 164 72.5 258.5t222.5 95.5z" />
    <glyph glyph-name="sacute" unicode="&#x15b;" horiz-adv-x="755" 
d="M483 1718h52l-158 -182h-43zM379 1444q79 0 137.5 -27.5t92.5 -77.5t50.5 -112.5t16.5 -139.5v-26h-45v29q0 67 -13.5 121.5t-41.5 98.5t-78 68.5t-117 24.5q-132 0 -192 -85.5t-60 -225.5q0 -74 30.5 -135.5t78.5 -105.5t106.5 -83.5t117.5 -80.5t107 -86.5t78.5 -110.5
t30.5 -144q0 -161 -73 -258.5t-228 -97.5q-154 0 -226.5 97.5t-72.5 258.5v70h43v-72q0 -141 61.5 -226t194.5 -85t194.5 85t61.5 226q0 73 -30.5 134t-78.5 104t-106.5 82.5t-117.5 80.5t-107 87t-78.5 112t-30.5 146q0 164 72.5 258.5t222.5 95.5z" />
    <glyph glyph-name="Scircumflex" unicode="&#x15c;" horiz-adv-x="755" 
d="M391 1669l-137 -137h-49l168 168h37l170 -168h-52zM379 1444q79 0 137.5 -27.5t92.5 -77.5t50.5 -112.5t16.5 -139.5v-26h-45v29q0 67 -13.5 121.5t-41.5 98.5t-78 68.5t-117 24.5q-132 0 -192 -85.5t-60 -225.5q0 -74 30.5 -135.5t78.5 -105.5t106.5 -83.5t117.5 -80.5
t107 -86.5t78.5 -110.5t30.5 -144q0 -161 -73 -258.5t-228 -97.5q-154 0 -226.5 97.5t-72.5 258.5v70h43v-72q0 -141 61.5 -226t194.5 -85t194.5 85t61.5 226q0 73 -30.5 134t-78.5 104t-106.5 82.5t-117.5 80.5t-107 87t-78.5 112t-30.5 146q0 164 72.5 258.5t222.5 95.5z
" />
    <glyph glyph-name="scircumflex" unicode="&#x15d;" horiz-adv-x="755" 
d="M391 1669l-137 -137h-49l168 168h37l170 -168h-52zM379 1444q79 0 137.5 -27.5t92.5 -77.5t50.5 -112.5t16.5 -139.5v-26h-45v29q0 67 -13.5 121.5t-41.5 98.5t-78 68.5t-117 24.5q-132 0 -192 -85.5t-60 -225.5q0 -74 30.5 -135.5t78.5 -105.5t106.5 -83.5t117.5 -80.5
t107 -86.5t78.5 -110.5t30.5 -144q0 -161 -73 -258.5t-228 -97.5q-154 0 -226.5 97.5t-72.5 258.5v70h43v-72q0 -141 61.5 -226t194.5 -85t194.5 85t61.5 226q0 73 -30.5 134t-78.5 104t-106.5 82.5t-117.5 80.5t-107 87t-78.5 112t-30.5 146q0 164 72.5 258.5t222.5 95.5z
" />
    <glyph glyph-name="Scedilla" unicode="&#x15e;" horiz-adv-x="755" 
d="M379 1444q79 0 137.5 -27.5t92.5 -77.5t50.5 -112.5t16.5 -139.5v-26h-45v29q0 67 -13.5 121.5t-41.5 98.5t-78 68.5t-117 24.5q-132 0 -192 -85.5t-60 -225.5q0 -74 30.5 -135.5t78.5 -105.5t106.5 -83.5t117.5 -80.5t107 -86.5t78.5 -110.5t30.5 -144
q0 -156 -68.5 -253t-212.5 -103v-64q152 -4 152 -114q0 -62 -52 -93.5t-120 -29.5q-69 0 -121.5 31t-52.5 92v8h33v-6q0 -48 43.5 -70.5t97.5 -24.5q53 0 95 22.5t42 70.5q0 52 -37.5 70t-97.5 18h-12v90q-77 1 -134 29t-90 77.5t-49 111.5t-16 138v70h43v-72
q0 -141 61.5 -226t194.5 -85t194.5 85t61.5 226q0 73 -30.5 134t-78.5 104t-106.5 82.5t-117.5 80.5t-107 87t-78.5 112t-30.5 146q0 164 72.5 258.5t222.5 95.5z" />
    <glyph glyph-name="scedilla" unicode="&#x15f;" horiz-adv-x="755" 
d="M379 1444q79 0 137.5 -27.5t92.5 -77.5t50.5 -112.5t16.5 -139.5v-26h-45v29q0 67 -13.5 121.5t-41.5 98.5t-78 68.5t-117 24.5q-132 0 -192 -85.5t-60 -225.5q0 -74 30.5 -135.5t78.5 -105.5t106.5 -83.5t117.5 -80.5t107 -86.5t78.5 -110.5t30.5 -144
q0 -156 -68.5 -253t-212.5 -103v-64q152 -4 152 -114q0 -62 -52 -93.5t-120 -29.5q-69 0 -121.5 31t-52.5 92v8h33v-6q0 -48 43.5 -70.5t97.5 -24.5q53 0 95 22.5t42 70.5q0 52 -37.5 70t-97.5 18h-12v90q-77 1 -134 29t-90 77.5t-49 111.5t-16 138v70h43v-72
q0 -141 61.5 -226t194.5 -85t194.5 85t61.5 226q0 73 -30.5 134t-78.5 104t-106.5 82.5t-117.5 80.5t-107 87t-78.5 112t-30.5 146q0 164 72.5 258.5t222.5 95.5z" />
    <glyph glyph-name="Scaron" unicode="&#x160;" horiz-adv-x="755" 
d="M199 1702h47l139 -135l137 135h49l-168 -168h-38zM379 1444q79 0 137.5 -27.5t92.5 -77.5t50.5 -112.5t16.5 -139.5v-26h-45v29q0 67 -13.5 121.5t-41.5 98.5t-78 68.5t-117 24.5q-132 0 -192 -85.5t-60 -225.5q0 -74 30.5 -135.5t78.5 -105.5t106.5 -83.5t117.5 -80.5
t107 -86.5t78.5 -110.5t30.5 -144q0 -161 -73 -258.5t-228 -97.5q-154 0 -226.5 97.5t-72.5 258.5v70h43v-72q0 -141 61.5 -226t194.5 -85t194.5 85t61.5 226q0 73 -30.5 134t-78.5 104t-106.5 82.5t-117.5 80.5t-107 87t-78.5 112t-30.5 146q0 164 72.5 258.5t222.5 95.5z
" />
    <glyph glyph-name="scaron" unicode="&#x161;" horiz-adv-x="755" 
d="M197 1702h49l139 -135l137 135h49l-170 -168h-36zM379 1444q79 0 137.5 -27.5t92.5 -77.5t50.5 -112.5t16.5 -139.5v-26h-45v29q0 67 -13.5 121.5t-41.5 98.5t-78 68.5t-117 24.5q-132 0 -192 -85.5t-60 -225.5q0 -74 30.5 -135.5t78.5 -105.5t106.5 -83.5t117.5 -80.5
t107 -86.5t78.5 -110.5t30.5 -144q0 -161 -73 -258.5t-228 -97.5q-154 0 -226.5 97.5t-72.5 258.5v70h43v-72q0 -141 61.5 -226t194.5 -85t194.5 85t61.5 226q0 73 -30.5 134t-78.5 104t-106.5 82.5t-117.5 80.5t-107 87t-78.5 112t-30.5 146q0 164 72.5 258.5t222.5 95.5z
" />
    <glyph glyph-name="uni0162" unicode="&#x162;" horiz-adv-x="819" 
d="M432 0h-6v-68q64 -2 106.5 -28.5t42.5 -87.5q0 -43 -27 -73.5t-64 -43t-78 -12.5q-67 0 -120 33t-53 94v8h31v-8q0 -47 43.5 -70t98.5 -25q51 0 93 24t42 73q0 88 -138 88h-10v96h-6v1391h-313v43h671v-43h-313v-1391z" />
    <glyph glyph-name="uni0163" unicode="&#x163;" horiz-adv-x="819" 
d="M432 0h-6v-70q149 -4 149 -114q0 -43 -27 -73.5t-64 -43t-78 -12.5q-67 0 -120 33t-53 94v8h31v-8q0 -47 43.5 -70t98.5 -25q51 0 93 24t42 73q0 88 -140 88h-10v96h-4v1391h-313v43h671v-43h-313v-1391z" />
    <glyph glyph-name="Tcaron" unicode="&#x164;" horiz-adv-x="819" 
d="M223 1690h47l140 -136l137 136h49l-168 -168h-39zM432 0h-45v1391h-313v43h671v-43h-313v-1391z" />
    <glyph glyph-name="tcaron" unicode="&#x165;" horiz-adv-x="819" 
d="M223 1690h47l140 -136l137 136h49l-168 -168h-39zM432 0h-45v1391h-313v43h671v-43h-313v-1391z" />
    <glyph glyph-name="Tbar" unicode="&#x166;" horiz-adv-x="819" 
d="M432 936h164v-37h-164v-899h-45v899h-164v37h164v455h-313v43h671v-43h-313v-455z" />
    <glyph glyph-name="tbar" unicode="&#x167;" horiz-adv-x="819" 
d="M432 936h164v-37h-164v-899h-45v899h-164v37h164v455h-313v43h671v-43h-313v-455z" />
    <glyph glyph-name="Utilde" unicode="&#x168;" horiz-adv-x="751" 
d="M553 1653l29 -19q-37 -79 -99 -82q-37 -2 -99 37t-93 39q-50 0 -86 -63l-29 18q44 80 111 80q39 1 102 -37.5t92 -36.5q40 2 72 64zM672 1434v-1080q0 -61 -9.5 -113.5t-32 -99.5t-56 -80t-84 -52t-113.5 -19q-79 0 -138 28.5t-93 80t-50 115t-16 140.5v1080h45v-1082
q0 -68 13 -123.5t41.5 -101t78.5 -71t119 -25.5t119 25.5t78.5 71t41.5 101t13 123.5v1082h43z" />
    <glyph glyph-name="utilde" unicode="&#x169;" horiz-adv-x="751" 
d="M553 1653l29 -19q-37 -79 -99 -82q-37 -2 -99 37t-93 39q-50 0 -86 -63l-29 18q44 80 111 80q39 1 102 -37.5t92 -36.5q40 2 72 64zM672 1434v-1080q0 -61 -9.5 -113.5t-32 -99.5t-56 -80t-84 -52t-113.5 -19q-79 0 -138 28.5t-93 80t-50 115t-16 140.5v1080h45v-1082
q0 -68 13 -123.5t41.5 -101t78.5 -71t119 -25.5t119 25.5t78.5 71t41.5 101t13 123.5v1082h43z" />
    <glyph glyph-name="Umacron" unicode="&#x16a;" horiz-adv-x="751" 
d="M217 1606h334v-35h-334v35zM672 1434v-1080q0 -61 -9.5 -113.5t-32 -99.5t-56 -80t-84 -52t-113.5 -19q-79 0 -138 28.5t-93 80t-50 115t-16 140.5v1080h45v-1082q0 -68 13 -123.5t41.5 -101t78.5 -71t119 -25.5t119 25.5t78.5 71t41.5 101t13 123.5v1082h43z" />
    <glyph glyph-name="umacron" unicode="&#x16b;" horiz-adv-x="751" 
d="M217 1606h334v-35h-334v35zM672 1434v-1080q0 -61 -9.5 -113.5t-32 -99.5t-56 -80t-84 -52t-113.5 -19q-79 0 -138 28.5t-93 80t-50 115t-16 140.5v1080h45v-1082q0 -68 13 -123.5t41.5 -101t78.5 -71t119 -25.5t119 25.5t78.5 71t41.5 101t13 123.5v1082h43z" />
    <glyph glyph-name="Ubreve" unicode="&#x16c;" horiz-adv-x="751" 
d="M532 1679h35q-3 -74 -56.5 -116.5t-131.5 -42.5t-131.5 42t-54.5 117h34q1 -61 45 -93t107 -32t106.5 32t46.5 93zM672 1434v-1080q0 -61 -9.5 -113.5t-32 -99.5t-56 -80t-84 -52t-113.5 -19q-79 0 -138 28.5t-93 80t-50 115t-16 140.5v1080h45v-1082q0 -68 13 -123.5
t41.5 -101t78.5 -71t119 -25.5t119 25.5t78.5 71t41.5 101t13 123.5v1082h43z" />
    <glyph glyph-name="ubreve" unicode="&#x16d;" horiz-adv-x="751" 
d="M532 1679h35q-3 -74 -56.5 -116.5t-131.5 -42.5t-131.5 42t-54.5 117h34q1 -61 45 -93t107 -32t106.5 32t46.5 93zM672 1434v-1080q0 -61 -9.5 -113.5t-32 -99.5t-56 -80t-84 -52t-113.5 -19q-79 0 -138 28.5t-93 80t-50 115t-16 140.5v1080h45v-1082q0 -68 13 -123.5
t41.5 -101t78.5 -71t119 -25.5t119 25.5t78.5 71t41.5 101t13 123.5v1082h43z" />
    <glyph glyph-name="Uring" unicode="&#x16e;" horiz-adv-x="751" 
d="M387 1759q54 0 91.5 -35.5t37.5 -89.5t-37.5 -89.5t-91.5 -35.5q-53 0 -90 36t-37 89t37 89t90 36zM387 1729q-40 0 -68 -27t-28 -68t28 -68.5t68 -27.5t69 27.5t29 68.5t-29 68t-69 27zM672 1434v-1080q0 -61 -9.5 -113.5t-32 -99.5t-56 -80t-84 -52t-113.5 -19
q-79 0 -138 28.5t-93 80t-50 115t-16 140.5v1080h45v-1082q0 -68 13 -123.5t41.5 -101t78.5 -71t119 -25.5t119 25.5t78.5 71t41.5 101t13 123.5v1082h43z" />
    <glyph glyph-name="uring" unicode="&#x16f;" horiz-adv-x="751" 
d="M387 1759q54 0 91.5 -35.5t37.5 -89.5t-37.5 -89.5t-91.5 -35.5q-53 0 -90 36t-37 89t37 89t90 36zM387 1729q-40 0 -68 -27t-28 -68t28 -68.5t68 -27.5t69 27.5t29 68.5t-29 68t-69 27zM672 1434v-1080q0 -61 -9.5 -113.5t-32 -99.5t-56 -80t-84 -52t-113.5 -19
q-79 0 -138 28.5t-93 80t-50 115t-16 140.5v1080h45v-1082q0 -68 13 -123.5t41.5 -101t78.5 -71t119 -25.5t119 25.5t78.5 71t41.5 101t13 123.5v1082h43z" />
    <glyph glyph-name="Uhungarumlaut" unicode="&#x170;" horiz-adv-x="751" 
d="M403 1714h52l-154 -182h-41zM543 1714h49l-154 -182h-39zM672 1434v-1080q0 -61 -9.5 -113.5t-32 -99.5t-56 -80t-84 -52t-113.5 -19q-79 0 -138 28.5t-93 80t-50 115t-16 140.5v1080h45v-1082q0 -68 13 -123.5t41.5 -101t78.5 -71t119 -25.5t119 25.5t78.5 71t41.5 101
t13 123.5v1082h43z" />
    <glyph glyph-name="uhungarumlaut" unicode="&#x171;" horiz-adv-x="751" 
d="M403 1714h52l-154 -182h-41zM543 1714h49l-154 -182h-39zM672 1434v-1080q0 -61 -9.5 -113.5t-32 -99.5t-56 -80t-84 -52t-113.5 -19q-79 0 -138 28.5t-93 80t-50 115t-16 140.5v1080h45v-1082q0 -68 13 -123.5t41.5 -101t78.5 -71t119 -25.5t119 25.5t78.5 71t41.5 101
t13 123.5v1082h43z" />
    <glyph glyph-name="Uogonek" unicode="&#x172;" horiz-adv-x="751" 
d="M672 1434v-1080q0 -131 -46.5 -225.5t-150.5 -126.5q-39 -31 -70 -85.5t-28 -96.5q3 -34 26.5 -51t57.5 -17q57 0 96 31v-37q-46 -27 -104 -27q-109 4 -115 95q-1 43 25.5 92.5t66.5 87.5q-32 -4 -53 -4q-79 0 -138 28.5t-93 80t-50 115t-16 140.5v1080h45v-1082
q0 -68 13 -123.5t41.5 -101t78.5 -71t119 -25.5t119 25.5t78.5 71t41.5 101t13 123.5v1082h43z" />
    <glyph glyph-name="uogonek" unicode="&#x173;" horiz-adv-x="751" 
d="M672 1434v-1080q0 -131 -46.5 -225.5t-150.5 -126.5q-39 -31 -70 -85.5t-28 -96.5q3 -34 26.5 -51t57.5 -17q57 0 96 31v-37q-46 -27 -104 -27q-109 4 -115 95q-1 43 25.5 92.5t66.5 87.5q-32 -4 -53 -4q-79 0 -138 28.5t-93 80t-50 115t-16 140.5v1080h45v-1082
q0 -68 13 -123.5t41.5 -101t78.5 -71t119 -25.5t119 25.5t78.5 71t41.5 101t13 123.5v1082h43z" />
    <glyph glyph-name="Wcircumflex" unicode="&#x174;" horiz-adv-x="1265" 
d="M641 1663l-139 -135h-49l168 168h36l170 -168h-49zM645 1327l-246 -1327h-65l-258 1434h45l250 -1373l247 1364h56l233 -1355l242 1364h41l-254 -1434h-59z" />
    <glyph glyph-name="wcircumflex" unicode="&#x175;" horiz-adv-x="1265" 
d="M641 1663l-139 -135h-49l168 168h36l170 -168h-49zM645 1327l-246 -1327h-65l-258 1434h45l250 -1373l247 1364h56l233 -1355l242 1364h41l-254 -1434h-59z" />
    <glyph glyph-name="Ycircumflex" unicode="&#x176;" horiz-adv-x="864" 
d="M434 1661l-139 -135h-49l168 168h37l170 -168h-50zM408 0v580l-334 854h45l313 -793l313 793h48l-340 -854v-580h-45z" />
    <glyph glyph-name="ycircumflex" unicode="&#x177;" horiz-adv-x="864" 
d="M434 1661l-139 -135h-49l168 168h37l170 -168h-50zM408 0v580l-334 854h45l313 -793l313 793h48l-340 -854v-580h-45z" />
    <glyph glyph-name="Ydieresis" unicode="&#x178;" horiz-adv-x="864" 
d="M332 1683h43v-163h-43v163zM489 1683h41v-163h-41v163zM408 0v580l-334 854h45l313 -793l313 793h48l-340 -854v-580h-45z" />
    <glyph glyph-name="Zacute" unicode="&#x179;" horiz-adv-x="808" 
d="M530 1718h54l-160 -182h-41zM719 43v-43h-641v43l602 1348h-574v43h623v-45l-604 -1346h594z" />
    <glyph glyph-name="zacute" unicode="&#x17a;" horiz-adv-x="808" 
d="M530 1718h54l-160 -182h-41zM719 43v-43h-641v43l602 1348h-574v43h623v-45l-604 -1346h594z" />
    <glyph glyph-name="Zdotaccent" unicode="&#x17b;" horiz-adv-x="808" 
d="M420 1698h41v-164h-41v164zM719 43v-43h-641v43l602 1348h-574v43h623v-45l-604 -1346h594z" />
    <glyph glyph-name="zdotaccent" unicode="&#x17c;" horiz-adv-x="808" 
d="M420 1698h41v-164h-41v164zM719 43v-43h-641v43l602 1348h-574v43h623v-45l-604 -1346h594z" />
    <glyph glyph-name="Zcaron" unicode="&#x17d;" horiz-adv-x="808" 
d="M236 1700h47l139 -135l137 135h51l-170 -168h-37zM719 43v-43h-641v43l602 1348h-574v43h623v-45l-604 -1346h594z" />
    <glyph glyph-name="zcaron" unicode="&#x17e;" horiz-adv-x="808" 
d="M236 1700h47l139 -135l137 135h51l-170 -168h-37zM719 43v-43h-641v43l602 1348h-574v43h623v-45l-604 -1346h594z" />
    <glyph glyph-name="AEacute" unicode="&#x1fc;" horiz-adv-x="1212" 
d="M795 1714h51l-158 -182h-41zM705 748h360v-41h-360v-664h430v-43h-476v344h-407l-135 -344h-43l557 1434h504v-43h-430v-643zM659 1380l-393 -993h393v993z" />
    <glyph glyph-name="aeacute" unicode="&#x1fd;" horiz-adv-x="1212" 
d="M795 1714h51l-158 -182h-41zM705 748h360v-41h-360v-664h430v-43h-476v344h-407l-135 -344h-43l557 1434h504v-43h-430v-643zM659 1380l-393 -993h393v993z" />
    <glyph glyph-name="Oslashacute" unicode="&#x1fe;" 
d="M340 1536l147 182h52l-158 -182h-41zM680 1432l-43 -113q53 -89 53 -238v-729q0 -179 -77.5 -270.5t-229.5 -91.5q-148 0 -227 94l-39 -98l-33 10l47 123q-51 88 -51 233v729q0 179 77 271t226 92q152 0 229 -92l35 90zM125 1083v-733q0 -100 29 -176l440 1129
q-66 100 -211 100q-128 0 -193 -81t-65 -239zM645 350v733q0 105 -31 181l-440 -1131q64 -102 209 -102q129 0 195.5 80.5t66.5 238.5z" />
    <glyph glyph-name="oslashacute" unicode="&#x1ff;" 
d="M340 1536l147 182h52l-158 -182h-41zM680 1432l-43 -113q53 -89 53 -238v-729q0 -179 -77.5 -270.5t-229.5 -91.5q-148 0 -227 94l-39 -98l-33 10l47 123q-51 88 -51 233v729q0 179 77 271t226 92q152 0 229 -92l35 90zM125 1083v-733q0 -100 29 -176l440 1129
q-66 100 -211 100q-128 0 -193 -81t-65 -239zM645 350v733q0 105 -31 181l-440 -1131q64 -102 209 -102q129 0 195.5 80.5t66.5 238.5z" />
    <glyph glyph-name="uni0218" unicode="&#x218;" horiz-adv-x="755" 
d="M379 1444q79 0 137.5 -27.5t92.5 -77.5t50.5 -112.5t16.5 -139.5v-26h-45v29q0 67 -13.5 121.5t-41.5 98.5t-78 68.5t-117 24.5q-132 0 -192 -85.5t-60 -225.5q0 -74 30.5 -135.5t78.5 -105.5t106.5 -83.5t117.5 -80.5t107 -86.5t78.5 -110.5t30.5 -144
q0 -161 -73 -258.5t-228 -97.5q-154 0 -226.5 97.5t-72.5 258.5v70h43v-72q0 -141 61.5 -226t194.5 -85t194.5 85t61.5 226q0 73 -30.5 134t-78.5 104t-106.5 82.5t-117.5 80.5t-107 87t-78.5 112t-30.5 146q0 164 72.5 258.5t222.5 95.5zM332 -358l24 125v163h41v-159
l-43 -129h-22z" />
    <glyph glyph-name="uni0219" unicode="&#x219;" horiz-adv-x="755" 
d="M379 1444q79 0 137.5 -27.5t92.5 -77.5t50.5 -112.5t16.5 -139.5v-26h-45v29q0 67 -13.5 121.5t-41.5 98.5t-78 68.5t-117 24.5q-132 0 -192 -85.5t-60 -225.5q0 -74 30.5 -135.5t78.5 -105.5t106.5 -83.5t117.5 -80.5t107 -86.5t78.5 -110.5t30.5 -144
q0 -161 -73 -258.5t-228 -97.5q-154 0 -226.5 97.5t-72.5 258.5v70h43v-72q0 -141 61.5 -226t194.5 -85t194.5 85t61.5 226q0 73 -30.5 134t-78.5 104t-106.5 82.5t-117.5 80.5t-107 87t-78.5 112t-30.5 146q0 164 72.5 258.5t222.5 95.5zM332 -358l24 125v163h41v-159
l-43 -129h-22z" />
    <glyph glyph-name="uni021A" unicode="&#x21a;" horiz-adv-x="819" 
d="M432 0h-45v1391h-313v43h671v-43h-313v-1391zM365 -358l24 125v163h41v-159l-43 -129h-22z" />
    <glyph glyph-name="uni021B" unicode="&#x21b;" horiz-adv-x="819" 
d="M432 0h-45v1391h-313v43h671v-43h-313v-1391zM365 -358l24 125v163h41v-159l-43 -129h-22z" />
    <glyph glyph-name="uni0237" unicode="&#x237;" horiz-adv-x="516" 
d="M74 0v43q32 -2 86 2q121 11 176 82t55 221v1086h45v-1084q0 -173 -68.5 -256t-203.5 -92q-58 -4 -90 -2z" />
    <glyph glyph-name="uni02BC" unicode="&#x2bc;" horiz-adv-x="235" 
d="M154 1270l-45 -140h-23l35 138h-12v166h45v-164z" />
    <glyph glyph-name="circumflex" unicode="&#x2c6;" horiz-adv-x="512" 
d="M256 1704l-139 -135h-47l168 168h36l168 -168h-49z" />
    <glyph glyph-name="caron" unicode="&#x2c7;" horiz-adv-x="512" 
d="M70 1737h47l139 -138l137 138h49l-168 -168h-36z" />
    <glyph glyph-name="breve" unicode="&#x2d8;" horiz-adv-x="524" 
d="M416 1661h33q-1 -74 -55.5 -117t-131.5 -43t-131 42.5t-55 117.5h33q3 -60 47 -92.5t106 -32.5q61 0 106 32.5t48 92.5z" />
    <glyph glyph-name="dotaccent" unicode="&#x2d9;" horiz-adv-x="223" 
d="M90 1706h43v-164h-43v164z" />
    <glyph glyph-name="ring" unicode="&#x2da;" horiz-adv-x="421" 
d="M211 1792q53 0 90 -36.5t37 -88.5q0 -54 -37 -90.5t-90 -36.5t-90 36.5t-37 90.5q0 52 37 88.5t90 36.5zM211 1761q-42 0 -70 -26.5t-28 -67.5q0 -42 28 -69t70 -27q41 0 69.5 27t28.5 69q0 41 -28.5 67.5t-69.5 26.5z" />
    <glyph glyph-name="ogonek" unicode="&#x2db;" horiz-adv-x="385" 
d="M184 0h37q-40 -31 -70.5 -84t-27.5 -96q1 -34 24.5 -51t59.5 -17q58 0 94 31v-37q-47 -27 -104 -27q-48 2 -79 25t-34 70q-3 46 27 97t73 89z" />
    <glyph glyph-name="tilde" unicode="&#x2dc;" horiz-adv-x="544" 
d="M446 1649l29 -19q-37 -79 -98 -82q-37 -1 -99 38t-94 38q-50 0 -86 -63l-28 18q42 79 110 82q40 1 103 -38t92 -38q37 2 71 64z" />
    <glyph glyph-name="hungarumlaut" unicode="&#x2dd;" horiz-adv-x="468" 
d="M209 1737h51l-154 -183h-40zM348 1737h49l-153 -183h-39z" />
    <glyph glyph-name="uni0401" unicode="&#x401;" horiz-adv-x="706" 
d="M258 1698h41v-166h-41v166zM414 1698h41v-166h-41v166zM127 748h422v-41h-422v-664h502v-43h-547v1434h547v-43h-502v-643z" />
    <glyph glyph-name="uni0410" unicode="&#x410;" horiz-adv-x="915" 
d="M711 338h-510l-84 -338h-41l346 1436h63l355 -1436h-45zM453 1382l-244 -1003h493z" />
    <glyph glyph-name="uni0411" unicode="&#x411;" 
d="M127 809h231q171 0 251.5 -70t80.5 -237v-166q0 -164 -74 -250t-235 -86h-299v1434h559v-43h-514v-582zM127 43h254q140 0 202 73.5t62 217.5v170q0 148 -68 205t-219 57h-231v-723z" />
    <glyph glyph-name="uni0412" unicode="&#x412;" horiz-adv-x="751" 
d="M82 1434h287q151 0 213.5 -73t62.5 -224v-93q0 -129 -42 -196.5t-157 -85.5q122 -18 175 -95.5t53 -209.5v-127q0 -330 -303 -330h-289v1434zM127 782h186q157 0 222 52.5t65 203.5v97q0 132 -50.5 194t-180.5 62h-242v-609zM127 43h244q136 0 197 73t61 214v129
q0 152 -71.5 217t-223.5 65h-207v-698z" />
    <glyph glyph-name="uni0413" unicode="&#x413;" horiz-adv-x="694" 
d="M614 1391h-487v-1391h-45v1434h532v-43z" />
    <glyph glyph-name="uni0414" unicode="&#x414;" horiz-adv-x="1003" 
d="M926 -201h-45v201h-760v-201h-45v244h102q43 43 57.5 101t18.5 145l59 1145h486v-1391h127v-244zM356 1391l-57 -1104q-4 -62 -8 -93.5t-19 -75.5t-43 -75h525v1348h-398z" />
    <glyph glyph-name="uni0415" unicode="&#x415;" horiz-adv-x="706" 
d="M127 748h422v-41h-422v-664h502v-43h-547v1434h547v-43h-502v-643z" />
    <glyph glyph-name="uni0416" unicode="&#x416;" horiz-adv-x="1290" 
d="M1167 0l-389 748l-112 -183v-565h-45v565l-109 183l-391 -748h-47l409 788l-387 646h47l389 -646l89 -151v797h45v-797l90 156l389 641h49l-387 -646l407 -788h-47z" />
    <glyph glyph-name="uni0417" unicode="&#x417;" horiz-adv-x="759" 
d="M381 1444q80 0 139 -28t93 -78.5t50.5 -114.5t16.5 -142v-37q0 -104 -56 -184.5t-153 -109.5q101 -24 155 -102t54 -185v-111q0 -163 -72 -262.5t-227 -99.5t-228 99.5t-73 262.5v105h45v-107q0 -68 13.5 -123.5t42 -100.5t79 -70t119.5 -25t120 25t80 70t42.5 101
t13.5 125v111q0 116 -68 190t-180 74h-92v41h94q105 0 175.5 80.5t70.5 189.5v43q0 70 -13.5 126t-42.5 101t-80 70t-120 25q-134 0 -195 -88t-61 -232v-61h-41v61q0 77 16.5 140.5t50.5 114t93 78.5t139 28z" />
    <glyph glyph-name="uni0418" unicode="&#x418;" horiz-adv-x="774" 
d="M649 1364l-260 -684l-252 -680h-55v1434h43v-1348l506 1348h61v-1434h-43v1364z" />
    <glyph glyph-name="uni0419" unicode="&#x419;" horiz-adv-x="774" 
d="M559 1686h37q-3 -70 -59.5 -112t-135.5 -42q-80 0 -136.5 41.5t-57.5 112.5h37q1 -58 46 -88.5t111 -30.5q65 0 110 30.5t48 88.5zM649 1364l-246 -649l-266 -715h-55v1434h43v-1348l506 1348h61v-1434h-43v1364z" />
    <glyph glyph-name="uni041A" unicode="&#x41a;" horiz-adv-x="821" 
d="M696 0l-460 713l-109 -164v-549h-45v1434h45v-809l532 809h50l-445 -678l481 -756h-49z" />
    <glyph glyph-name="uni041B" unicode="&#x41b;" horiz-adv-x="888" 
d="M760 1391h-408l-41 -1045q-2 -36 -3 -57t-4.5 -54.5t-8 -53.5t-13 -47.5t-19.5 -44t-27.5 -35.5t-37.5 -29.5t-49 -18t-61 -8.5h-14v43q30 0 55.5 6.5t43.5 15t32.5 26t24 31t16 40t10 42t6 48t3 47t1.5 49.5l43 1088h498v-1434h-47v1391z" />
    <glyph glyph-name="uni041C" unicode="&#x41c;" horiz-adv-x="1007" 
d="M881 1366l-353 -1362h-51l-354 1362v-1366h-41v1434h70l352 -1360l352 1360h70v-1434h-45v1366z" />
    <glyph glyph-name="uni041D" unicode="&#x41d;" horiz-adv-x="772" 
d="M645 696h-518v-696h-45v1434h45v-697h518v697h45v-1434h-45v696z" />
    <glyph glyph-name="uni041E" unicode="&#x41e;" 
d="M80 352v729q0 162 74.5 262.5t228.5 100.5q80 0 140.5 -28t96 -78.5t53 -114.5t17.5 -142v-729q0 -162 -75 -262t-232 -100q-154 0 -228.5 100t-74.5 262zM125 1083v-733q0 -144 62 -231.5t196 -87.5q136 0 199 87.5t63 231.5v733q0 144 -63 232t-199 88q-134 0 -196 -88
t-62 -232z" />
    <glyph glyph-name="uni041F" unicode="&#x41f;" horiz-adv-x="772" 
d="M645 1391h-518v-1391h-45v1434h608v-1434h-45v1391z" />
    <glyph glyph-name="uni0420" unicode="&#x420;" horiz-adv-x="735" 
d="M82 1434h283q297 0 297 -347v-143q0 -171 -80.5 -253.5t-249.5 -82.5h-205v-608h-45v1434zM127 651h205q150 0 217 69t67 222v148q0 143 -57 222t-194 79h-238v-740z" />
    <glyph glyph-name="uni0421" unicode="&#x421;" horiz-adv-x="757" 
d="M379 1444q80 0 139 -28.5t94 -79t51.5 -114.5t16.5 -141v-110h-45v112q0 143 -61 231.5t-193 88.5q-69 0 -120 -25t-80 -70t-42.5 -101t-13.5 -124v-733q0 -68 13.5 -123.5t42.5 -100t80 -69t120 -24.5q68 0 118.5 24.5t79.5 69t42.5 100t13.5 123.5v158h45v-156
q0 -77 -16.5 -141t-51.5 -114.5t-94 -78.5t-139 -28q-79 0 -138 28t-93.5 78.5t-51 114.5t-16.5 141v729q0 77 16.5 141t51 114.5t93.5 79t138 28.5z" />
    <glyph glyph-name="uni0422" unicode="&#x422;" horiz-adv-x="819" 
d="M432 0h-45v1391h-313v43h671v-43h-313v-1391z" />
    <glyph glyph-name="uni0423" unicode="&#x423;" horiz-adv-x="886" 
d="M813 1434l-420 -1205q-38 -121 -92 -175.5t-170 -53.5v41q49 0 84.5 12t60 39t40 57.5t32.5 79.5l82 234l-356 971h47l332 -912l137 404l174 508h49z" />
    <glyph glyph-name="uni0424" unicode="&#x424;" horiz-adv-x="1118" 
d="M580 1270h129q172 0 250.5 -93.5t78.5 -269.5v-391q0 -176 -78.5 -269t-250.5 -93h-129v-154h-43v154h-129q-173 0 -250.5 92.5t-77.5 269.5v391q0 177 77.5 270t250.5 93h129v164h43v-164zM537 1229h-129q-151 0 -217 -81.5t-66 -238.5v-395q0 -157 66 -238t217 -81h129
v1034zM580 195h129q151 0 217.5 81.5t66.5 237.5v395q0 157 -66 238.5t-218 81.5h-129v-1034z" />
    <glyph glyph-name="uni0425" unicode="&#x425;" horiz-adv-x="909" 
d="M784 0l-331 705l-330 -705h-47l350 745l-326 689h47l310 -650l309 650h45l-326 -689l349 -745h-50z" />
    <glyph glyph-name="uni0426" unicode="&#x426;" horiz-adv-x="931" 
d="M852 -193h-45v193h-688v1434h43v-1391h516v1391h47v-1391h127v-236z" />
    <glyph glyph-name="uni0427" unicode="&#x427;" horiz-adv-x="772" 
d="M645 0v731q-84 -166 -274 -166q-76 0 -133.5 29t-91 79.5t-50 113.5t-16.5 137v510h45v-508q0 -89 24 -158.5t83 -115.5t147 -46q199 0 266 201v627h45v-1434h-45z" />
    <glyph glyph-name="uni0428" unicode="&#x428;" horiz-adv-x="1126" 
d="M82 1434h45v-1391h414v1391h45v-1391h413v1391h45v-1434h-962v1434z" />
    <glyph glyph-name="uni0429" unicode="&#x429;" horiz-adv-x="1249" 
d="M1171 -193h-45v193h-1044v1434h45v-1391h412v1391h45v-1391h415l-2 1391h45v-1391h129v-236z" />
    <glyph glyph-name="uni042A" unicode="&#x42a;" horiz-adv-x="884" 
d="M272 825h205q169 0 249.5 -82.5t80.5 -253.5v-143q0 -346 -297 -346h-283v1391h-207v43h252v-609zM272 43h238q137 0 194.5 79t57.5 222v148q0 152 -68 221t-217 69h-205v-739z" />
    <glyph glyph-name="uni042B" unicode="&#x42b;" horiz-adv-x="925" 
d="M127 825h203q171 0 251.5 -82.5t80.5 -253.5v-143q0 -346 -300 -346h-280v1434h45v-609zM799 1434h45v-1434h-45v1434zM127 43h235q137 0 195.5 79t58.5 222v148q0 152 -67.5 221t-218.5 69h-203v-739z" />
    <glyph glyph-name="uni042C" unicode="&#x42c;" horiz-adv-x="739" 
d="M127 825h203q171 0 251.5 -82.5t80.5 -253.5v-143q0 -346 -300 -346h-280v1434h45v-609zM127 43h235q137 0 195.5 79t58.5 222v148q0 152 -67.5 221t-218.5 69h-203v-739z" />
    <glyph glyph-name="uni042D" unicode="&#x42d;" horiz-adv-x="755" 
d="M377 1444q79 0 138 -28.5t93.5 -79t51 -114.5t16.5 -141v-729q0 -77 -16.5 -141t-51 -114.5t-93.5 -78.5t-138 -28t-138 28t-93.5 78.5t-51 114.5t-16.5 141v129h45v-131q0 -143 60 -230t192 -87q70 0 121 24.5t80 69t42 100t13 123.5v371h-324v41h324v321
q0 68 -13.5 123.5t-42 101t-79.5 70.5t-121 25q-132 0 -192 -88.5t-60 -231.5v-82h-43v80q0 162 72 262.5t225 100.5z" />
    <glyph glyph-name="uni042E" unicode="&#x42e;" horiz-adv-x="1095" 
d="M709 1444q80 0 140 -28t96 -78.5t53.5 -114.5t17.5 -142v-729q0 -105 -30 -184t-101 -128.5t-176 -49.5q-155 0 -229 99.5t-74 262.5v344h-279v-696h-45v1434h45v-697h279v344q0 163 74 263t229 100zM709 1403q-134 0 -196 -88t-62 -232v-733q0 -144 62 -231.5t196 -87.5
q91 0 151.5 44t85.5 113.5t25 161.5v733q0 68 -14.5 124.5t-45 101t-82 69.5t-120.5 25z" />
    <glyph glyph-name="uni042F" unicode="&#x42f;" horiz-adv-x="778" 
d="M651 662h-176q-152 0 -232.5 -59t-80.5 -208v-225q0 -116 -35 -170h-49q39 53 39 170v225q0 252 227 287q-118 22 -172.5 95t-54.5 206v129q0 322 295 322h284v-1434h-45v662zM651 1391h-237q-133 0 -192.5 -73t-59.5 -210v-131q0 -81 20 -135.5t62.5 -84t97 -41
t133.5 -11.5h176v686z" />
    <glyph glyph-name="uni0430" unicode="&#x430;" horiz-adv-x="915" 
d="M711 338h-510l-84 -338h-41l346 1436h63l355 -1436h-45zM453 1382l-244 -1003h493z" />
    <glyph glyph-name="uni0431" unicode="&#x431;" 
d="M127 809h231q171 0 251.5 -70t80.5 -237v-166q0 -164 -74 -250t-235 -86h-299v1434h559v-43h-514v-582zM127 43h254q140 0 202 73.5t62 217.5v170q0 148 -68 205t-219 57h-231v-723z" />
    <glyph glyph-name="uni0432" unicode="&#x432;" horiz-adv-x="751" 
d="M82 1434h287q151 0 213.5 -73t62.5 -224v-93q0 -127 -44.5 -194.5t-160.5 -85.5q234 -34 234 -307v-127q0 -330 -303 -330h-289v1434zM127 782h186q157 0 222 52.5t65 203.5v97q0 132 -50.5 194t-180.5 62h-242v-609zM127 43h244q136 0 197 73t61 214v129
q0 152 -71.5 217t-223.5 65h-207v-698z" />
    <glyph glyph-name="uni0433" unicode="&#x433;" horiz-adv-x="694" 
d="M614 1391h-487v-1391h-45v1434h532v-43z" />
    <glyph glyph-name="uni0434" unicode="&#x434;" horiz-adv-x="1003" 
d="M926 -201h-45v201h-760v-201h-45v244h102q43 43 57.5 101t18.5 145l59 1145h486v-1391h127v-244zM356 1391l-57 -1104q-4 -62 -8 -93.5t-19 -75.5t-43 -75h525v1348h-398z" />
    <glyph glyph-name="uni0435" unicode="&#x435;" horiz-adv-x="706" 
d="M127 748h422v-41h-422v-664h502v-43h-547v1434h547v-43h-502v-643z" />
    <glyph glyph-name="uni0436" unicode="&#x436;" horiz-adv-x="1290" 
d="M1167 0l-389 748l-112 -185v-563h-45v565l-109 183l-391 -748h-47l409 788l-387 646h47l389 -648l89 -153v801h45v-801l86 151l393 650h49l-387 -646l407 -788h-47z" />
    <glyph glyph-name="uni0437" unicode="&#x437;" horiz-adv-x="759" 
d="M381 1444q80 0 139 -28t93 -78.5t50.5 -114.5t16.5 -142v-37q0 -104 -56 -184.5t-153 -109.5q101 -24 155 -102t54 -185v-111q0 -163 -72 -262.5t-227 -99.5t-228 99.5t-73 262.5v105h45v-107q0 -68 13.5 -123.5t42 -100.5t79 -70t119.5 -25t120 25t80 70t42.5 101
t13.5 125v111q0 116 -68 190t-180 74h-92v41h94q105 0 175.5 80.5t70.5 189.5v43q0 70 -13.5 126t-42.5 101t-80 70t-120 25q-134 0 -195 -88t-61 -232v-61h-41v61q0 77 16.5 140.5t50.5 114t93 78.5t139 28z" />
    <glyph glyph-name="uni0438" unicode="&#x438;" horiz-adv-x="774" 
d="M649 1364l-262 -696l-250 -668h-55v1434h43v-1348l199 532l307 816h61v-1434h-43v1364z" />
    <glyph glyph-name="uni0439" unicode="&#x439;" horiz-adv-x="774" 
d="M559 1679h37q-3 -71 -59 -113t-136 -42t-136.5 41.5t-57.5 113.5h37q1 -59 45.5 -88.5t111.5 -29.5q66 0 110.5 29.5t47.5 88.5zM649 1364l-231 -619l-281 -745h-55v1434h43v-1348l217 584l289 764h61v-1434h-43v1364z" />
    <glyph glyph-name="uni043A" unicode="&#x43a;" horiz-adv-x="821" 
d="M696 0l-460 713l-109 -164v-549h-45v1434h45v-809l532 809h50l-445 -678l481 -756h-49z" />
    <glyph glyph-name="uni043B" unicode="&#x43b;" horiz-adv-x="888" 
d="M760 1391h-408l-41 -1045q-2 -36 -3 -57t-4.5 -54.5t-8 -53.5t-13 -47.5t-19.5 -44t-27.5 -35.5t-37.5 -29.5t-49 -18t-61 -8.5h-14v43q30 0 55.5 6.5t43.5 15t32.5 26t24 31t16 40t10 42t6 48t3 47t1.5 49.5l43 1088h498v-1434h-47v1391z" />
    <glyph glyph-name="uni043C" unicode="&#x43c;" horiz-adv-x="1007" 
d="M881 1366l-353 -1362h-51l-354 1362v-1366h-41v1434h70l352 -1360l352 1360h70v-1434h-45v1366z" />
    <glyph glyph-name="uni043D" unicode="&#x43d;" horiz-adv-x="772" 
d="M645 696h-518v-696h-45v1434h45v-697h518v697h45v-1434h-45v696z" />
    <glyph glyph-name="uni043E" unicode="&#x43e;" 
d="M80 352v729q0 162 74.5 262.5t228.5 100.5q80 0 140.5 -28t96 -78.5t53 -114.5t17.5 -142v-729q0 -162 -75 -262t-232 -100q-154 0 -228.5 100t-74.5 262zM125 1083v-733q0 -144 62 -231.5t196 -87.5q136 0 199 87.5t63 231.5v733q0 144 -63 232t-199 88q-134 0 -196 -88
t-62 -232z" />
    <glyph glyph-name="uni043F" unicode="&#x43f;" horiz-adv-x="772" 
d="M645 1391h-518v-1391h-45v1434h608v-1434h-45v1391z" />
    <glyph glyph-name="uni0440" unicode="&#x440;" horiz-adv-x="735" 
d="M82 1434h283q297 0 297 -347v-143q0 -171 -80.5 -253.5t-249.5 -82.5h-205v-608h-45v1434zM127 651h205q150 0 217 69t67 222v148q0 143 -57 222t-194 79h-238v-740z" />
    <glyph glyph-name="uni0441" unicode="&#x441;" horiz-adv-x="757" 
d="M379 1444q80 0 139 -28.5t94 -79t51.5 -114.5t16.5 -141v-110h-45v112q0 143 -61 231.5t-193 88.5q-69 0 -120 -25t-80 -70t-42.5 -101t-13.5 -124v-733q0 -68 13.5 -123.5t42.5 -100t80 -69t120 -24.5q68 0 118.5 24.5t79.5 69t42.5 100t13.5 123.5v158h45v-156
q0 -77 -16.5 -141t-51.5 -114.5t-94 -78.5t-139 -28q-79 0 -138 28t-93.5 78.5t-51 114.5t-16.5 141v729q0 77 16.5 141t51 114.5t93.5 79t138 28.5z" />
    <glyph glyph-name="uni0442" unicode="&#x442;" horiz-adv-x="819" 
d="M432 0h-45v1391h-313v43h671v-43h-313v-1391z" />
    <glyph glyph-name="uni0443" unicode="&#x443;" horiz-adv-x="886" 
d="M813 1434l-420 -1205q-38 -121 -92 -175.5t-170 -53.5v41q49 0 84.5 12t60 39t40 57.5t32.5 79.5l82 234l-356 971h47l332 -912l137 404l174 508h49z" />
    <glyph glyph-name="uni0444" unicode="&#x444;" horiz-adv-x="1118" 
d="M580 1270h129q172 0 250.5 -93.5t78.5 -269.5v-391q0 -176 -78.5 -269t-250.5 -93h-129v-154h-43v154h-129q-173 0 -250.5 92.5t-77.5 269.5v391q0 177 77.5 270t250.5 93h129v164h43v-164zM537 1229h-129q-151 0 -217 -81.5t-66 -238.5v-395q0 -157 66 -238t217 -81h129
v1034zM580 195h129q151 0 217.5 81.5t66.5 237.5v395q0 157 -66 238.5t-218 81.5h-129v-1034z" />
    <glyph glyph-name="uni0445" unicode="&#x445;" horiz-adv-x="909" 
d="M784 0l-331 705l-330 -705h-47l350 745l-326 689h47l310 -650l309 650h45l-326 -689l349 -745h-50z" />
    <glyph glyph-name="uni0446" unicode="&#x446;" horiz-adv-x="931" 
d="M852 -193h-45v193h-688v1434h43v-1391h516v1391h47v-1391h127v-236z" />
    <glyph glyph-name="uni0447" unicode="&#x447;" horiz-adv-x="772" 
d="M645 0v727q-82 -162 -274 -162q-76 0 -133.5 29t-91 79.5t-50 113.5t-16.5 137v510h45v-508q0 -89 24 -158.5t83 -115.5t147 -46q199 0 266 201v627h45v-1434h-45z" />
    <glyph glyph-name="uni0448" unicode="&#x448;" horiz-adv-x="1126" 
d="M82 1434h45v-1391h414v1391h45v-1391h413v1391h45v-1434h-962v1434z" />
    <glyph glyph-name="uni0449" unicode="&#x449;" horiz-adv-x="1249" 
d="M1171 -193h-45v193h-1044v1434h45v-1391h412v1391h45v-1391h415l-2 1391h45v-1391h129v-236z" />
    <glyph glyph-name="uni044A" unicode="&#x44a;" horiz-adv-x="884" 
d="M272 825h205q169 0 249.5 -82.5t80.5 -253.5v-143q0 -346 -297 -346h-283v1391h-207v43h252v-609zM272 43h238q137 0 194.5 79t57.5 222v148q0 152 -68 221t-217 69h-205v-739z" />
    <glyph glyph-name="uni044B" unicode="&#x44b;" horiz-adv-x="925" 
d="M127 825h203q171 0 251.5 -82.5t80.5 -253.5v-143q0 -346 -300 -346h-280v1434h45v-609zM799 1434h45v-1434h-45v1434zM127 43h235q137 0 195.5 79t58.5 222v148q0 152 -67.5 221t-218.5 69h-203v-739z" />
    <glyph glyph-name="uni044C" unicode="&#x44c;" horiz-adv-x="739" 
d="M127 825h203q171 0 251.5 -82.5t80.5 -253.5v-143q0 -346 -300 -346h-280v1434h45v-609zM127 43h235q137 0 195.5 79t58.5 222v148q0 152 -67.5 221t-218.5 69h-203v-739z" />
    <glyph glyph-name="uni044D" unicode="&#x44d;" horiz-adv-x="755" 
d="M377 1444q79 0 138 -28.5t93.5 -79t51 -114.5t16.5 -141v-729q0 -77 -16.5 -141t-51 -114.5t-93.5 -78.5t-138 -28t-138 28t-93.5 78.5t-51 114.5t-16.5 141v129h45v-131q0 -143 60 -230t192 -87q70 0 121 24.5t80 69t42 100t13 123.5v371h-324v41h324v321
q0 68 -13.5 123.5t-42 101t-79.5 70.5t-121 25q-132 0 -192 -88.5t-60 -231.5v-82h-43v80q0 162 72 262.5t225 100.5z" />
    <glyph glyph-name="uni044E" unicode="&#x44e;" horiz-adv-x="1095" 
d="M709 1444q80 0 140 -28t96 -78.5t53.5 -114.5t17.5 -142v-729q0 -105 -30 -184t-101 -128.5t-176 -49.5q-155 0 -229 99.5t-74 262.5v344h-279v-696h-45v1434h45v-697h279v344q0 163 74 263t229 100zM709 1403q-134 0 -196 -88t-62 -232v-733q0 -144 62 -231.5t196 -87.5
q91 0 151.5 44t85.5 113.5t25 161.5v733q0 68 -14.5 124.5t-45 101t-82 69.5t-120.5 25z" />
    <glyph glyph-name="uni044F" unicode="&#x44f;" horiz-adv-x="778" 
d="M651 662h-176q-152 0 -232.5 -59t-80.5 -208v-225q0 -116 -35 -170h-49q39 53 39 170v225q0 252 227 287q-118 22 -172.5 95t-54.5 206v129q0 322 295 322h284v-1434h-45v662zM651 1391h-237q-133 0 -192.5 -73t-59.5 -210v-131q0 -81 20 -135.5t62.5 -84t97 -41
t133.5 -11.5h176v686z" />
    <glyph glyph-name="uni0451" unicode="&#x451;" horiz-adv-x="706" 
d="M258 1698h41v-166h-41v166zM414 1698h41v-166h-41v166zM127 748h422v-41h-422v-664h502v-43h-547v1434h547v-43h-502v-643z" />
    <glyph glyph-name="uni1E02" unicode="&#x1e02;" horiz-adv-x="751" 
d="M315 1688h41v-164h-41v164zM82 1434h287q151 0 213.5 -73t62.5 -224v-93q0 -127 -44.5 -194.5t-160.5 -85.5q234 -34 234 -307v-127q0 -330 -303 -330h-289v1434zM127 782h186q157 0 222 52.5t65 203.5v97q0 132 -50.5 194t-180.5 62h-242v-609zM127 43h244q136 0 197 73
t61 214v129q0 152 -71.5 217t-223.5 65h-207v-698z" />
    <glyph glyph-name="uni1E03" unicode="&#x1e03;" horiz-adv-x="751" 
d="M315 1688h41v-164h-41v164zM82 1434h287q151 0 213.5 -73t62.5 -224v-93q0 -127 -44.5 -194.5t-160.5 -85.5q234 -34 234 -307v-127q0 -330 -303 -330h-289v1434zM127 782h186q157 0 222 52.5t65 203.5v97q0 132 -50.5 194t-180.5 62h-242v-609zM127 43h244q136 0 197 73
t61 214v129q0 152 -71.5 217t-223.5 65h-207v-698z" />
    <glyph glyph-name="uni1E0A" unicode="&#x1e0a;" 
d="M326 1688h43v-164h-43v164zM82 1434h299q157 0 234 -98t77 -261v-719q0 -161 -76.5 -258.5t-232.5 -97.5h-301v1434zM127 43h254q138 0 202 84t64 227v723q0 144 -65 229t-201 85h-254v-1348z" />
    <glyph glyph-name="uni1E0B" unicode="&#x1e0b;" 
d="M326 1688h43v-164h-43v164zM82 1434h299q157 0 234 -98t77 -261v-719q0 -161 -76.5 -258.5t-232.5 -97.5h-301v1434zM127 43h254q138 0 202 84t64 227v723q0 144 -65 229t-201 85h-254v-1348z" />
    <glyph glyph-name="uni1E1E" unicode="&#x1e1e;" horiz-adv-x="681" 
d="M324 1686h41v-164h-41v164zM127 713h401v-43h-401v-670h-45v1434h526v-43h-481v-678z" />
    <glyph glyph-name="uni1E1F" unicode="&#x1e1f;" horiz-adv-x="681" 
d="M342 1688h41v-164h-41v164zM127 713h401v-43h-401v-670h-45v1434h526v-43h-481v-678z" />
    <glyph glyph-name="uni1E40" unicode="&#x1e40;" horiz-adv-x="1007" 
d="M481 1700h43v-168h-43v168zM881 1366l-353 -1362h-51l-354 1362v-1366h-41v1434h70l352 -1360l352 1360h70v-1434h-45v1366z" />
    <glyph glyph-name="uni1E41" unicode="&#x1e41;" horiz-adv-x="1007" 
d="M481 1702h43v-164h-43v164zM881 1366l-353 -1362h-51l-354 1362v-1366h-41v1434h70l352 -1360l352 1360h70v-1434h-45v1366z" />
    <glyph glyph-name="uni1E56" unicode="&#x1e56;" horiz-adv-x="735" 
d="M313 1688h43v-164h-43v164zM82 1434h283q297 0 297 -347v-143q0 -171 -80.5 -253.5t-249.5 -82.5h-205v-608h-45v1434zM127 651h205q150 0 217 69t67 222v148q0 143 -57 222t-194 79h-238v-740z" />
    <glyph glyph-name="uni1E57" unicode="&#x1e57;" horiz-adv-x="735" 
d="M328 1688h43v-164h-43v164zM82 1434h283q297 0 297 -347v-143q0 -171 -80.5 -253.5t-249.5 -82.5h-205v-608h-45v1434zM127 651h205q150 0 217 69t67 222v148q0 143 -57 222t-194 79h-238v-740z" />
    <glyph glyph-name="uni1E60" unicode="&#x1e60;" horiz-adv-x="755" 
d="M356 1690h43v-164h-43v164zM379 1444q79 0 137.5 -27.5t92.5 -77.5t50.5 -112.5t16.5 -139.5v-26h-45v29q0 67 -13.5 121.5t-41.5 98.5t-78 68.5t-117 24.5q-132 0 -192 -85.5t-60 -225.5q0 -74 30.5 -135.5t78.5 -105.5t106.5 -83.5t117.5 -80.5t107 -86.5t78.5 -110.5
t30.5 -144q0 -161 -73 -258.5t-228 -97.5q-154 0 -226.5 97.5t-72.5 258.5v70h43v-72q0 -141 61.5 -226t194.5 -85t194.5 85t61.5 226q0 73 -30.5 134t-78.5 104t-106.5 82.5t-117.5 80.5t-107 87t-78.5 112t-30.5 146q0 164 72.5 258.5t222.5 95.5z" />
    <glyph glyph-name="uni1E61" unicode="&#x1e61;" horiz-adv-x="755" 
d="M373 1706h41v-164h-41v164zM379 1444q79 0 137.5 -27.5t92.5 -77.5t50.5 -112.5t16.5 -139.5v-26h-45v29q0 67 -13.5 121.5t-41.5 98.5t-78 68.5t-117 24.5q-132 0 -192 -85.5t-60 -225.5q0 -74 30.5 -135.5t78.5 -105.5t106.5 -83.5t117.5 -80.5t107 -86.5t78.5 -110.5
t30.5 -144q0 -161 -73 -258.5t-228 -97.5q-154 0 -226.5 97.5t-72.5 258.5v70h43v-72q0 -141 61.5 -226t194.5 -85t194.5 85t61.5 226q0 73 -30.5 134t-78.5 104t-106.5 82.5t-117.5 80.5t-107 87t-78.5 112t-30.5 146q0 164 72.5 258.5t222.5 95.5z" />
    <glyph glyph-name="uni1E6A" unicode="&#x1e6a;" horiz-adv-x="819" 
d="M389 1692h41v-164h-41v164zM432 0h-45v1391h-313v43h671v-43h-313v-1391z" />
    <glyph glyph-name="uni1E6B" unicode="&#x1e6b;" horiz-adv-x="819" 
d="M381 1688h43v-164h-43v164zM424 0h-45v1391h-311v43h669v-43h-313v-1391z" />
    <glyph glyph-name="Wgrave" unicode="&#x1e80;" horiz-adv-x="1265" 
d="M522 1718h53l148 -182h-41zM645 1327l-246 -1327h-65l-258 1434h45l250 -1373l247 1364h56l233 -1355l242 1364h41l-254 -1434h-59z" />
    <glyph glyph-name="wgrave" unicode="&#x1e81;" horiz-adv-x="1265" 
d="M522 1718h53l148 -182h-41zM645 1327l-246 -1327h-65l-258 1434h45l250 -1373l247 1364h56l233 -1355l242 1364h41l-254 -1434h-59z" />
    <glyph glyph-name="Wacute" unicode="&#x1e82;" horiz-adv-x="1265" 
d="M719 1702h51l-158 -182h-43zM645 1327l-246 -1327h-65l-258 1434h45l250 -1373l247 1364h56l233 -1355l242 1364h41l-254 -1434h-59z" />
    <glyph glyph-name="wacute" unicode="&#x1e83;" horiz-adv-x="1265" 
d="M719 1702h51l-158 -182h-43zM645 1327l-246 -1327h-65l-258 1434h45l250 -1373l247 1364h56l233 -1355l242 1364h41l-254 -1434h-59z" />
    <glyph glyph-name="Wdieresis" unicode="&#x1e84;" horiz-adv-x="1265" 
d="M545 1698h41v-166h-41v166zM700 1698h43v-166h-43v166zM645 1327l-246 -1327h-65l-258 1434h45l250 -1373l247 1364h56l233 -1355l242 1364h41l-254 -1434h-59z" />
    <glyph glyph-name="wdieresis" unicode="&#x1e85;" horiz-adv-x="1265" 
d="M545 1698h41v-166h-41v166zM700 1698h43v-166h-43v166zM645 1327l-246 -1327h-65l-258 1434h45l250 -1373l247 1364h56l233 -1355l242 1364h41l-254 -1434h-59z" />
    <glyph glyph-name="Ygrave" unicode="&#x1ef2;" horiz-adv-x="864" 
d="M295 1718h51l150 -182h-43zM408 0v580l-334 854h45l313 -793l313 793h48l-340 -854v-580h-45z" />
    <glyph glyph-name="ygrave" unicode="&#x1ef3;" horiz-adv-x="864" 
d="M295 1718h51l150 -182h-43zM408 0v580l-334 854h45l313 -793l313 793h48l-340 -854v-580h-45z" />
    <glyph glyph-name="figuredash" unicode="&#x2012;" horiz-adv-x="970" 
d="M72 698v39h827v-39h-827z" />
    <glyph glyph-name="endash" unicode="&#x2013;" horiz-adv-x="790" 
d="M72 698v39h647v-39h-647z" />
    <glyph glyph-name="emdash" unicode="&#x2014;" horiz-adv-x="1120" 
d="M72 698v39h977v-39h-977z" />
    <glyph glyph-name="quoteleft" unicode="&#x2018;" horiz-adv-x="235" 
d="M82 1294l45 140h23l-23 -138v-166h-45v164z" />
    <glyph glyph-name="quoteright" unicode="&#x2019;" horiz-adv-x="235" 
d="M154 1270l-45 -140h-23l23 138v166h45v-164z" />
    <glyph glyph-name="quotesinglbase" unicode="&#x201a;" horiz-adv-x="235" 
d="M154 2l-45 -139h-23l23 137v166h45v-164z" />
    <glyph glyph-name="quotedblleft" unicode="&#x201c;" horiz-adv-x="342" 
d="M82 1294l45 140h23l-23 -138v-166h-45v164zM190 1294l43 140h25l-25 -138v-166h-43v164z" />
    <glyph glyph-name="quotedblright" unicode="&#x201d;" horiz-adv-x="342" 
d="M150 1270l-44 -140h-24l24 138v166h44v-164zM258 1270l-45 -140h-23l23 138v166h45v-164z" />
    <glyph glyph-name="quotedblbase" unicode="&#x201e;" horiz-adv-x="356" 
d="M154 2l-45 -139h-23l23 137v166h45v-164zM274 2l-43 -139h-24l24 137v166h43v-164z" />
    <glyph glyph-name="dagger" unicode="&#x2020;" horiz-adv-x="802" 
d="M422 1434v-426h301v-39h-301v-1102h-41v1102h-303v39h303v426h41z" />
    <glyph glyph-name="daggerdbl" unicode="&#x2021;" horiz-adv-x="802" 
d="M422 1434v-426h301v-39h-301v-633h301v-41h-301v-428h-41v428h-303v41h303v633h-303v39h303v426h41z" />
    <glyph glyph-name="bullet" unicode="&#x2022;" horiz-adv-x="436" 
d="M217 813q40 0 68 -28t28 -68t-28 -68t-68 -28q-38 0 -66 28t-28 68t28 68t66 28z" />
    <glyph glyph-name="ellipsis" unicode="&#x2026;" horiz-adv-x="430" 
d="M82 166h45v-166h-45v166zM193 166h43v-166h-43v166zM305 166h43v-166h-43v166z" />
    <glyph glyph-name="perthousand" unicode="&#x2030;" horiz-adv-x="1722" 
d="M264 1436q97 0 142 -66t45 -168v-422q0 -102 -45 -167.5t-142 -65.5q-96 0 -140 65.5t-44 167.5v422q0 102 44 168t140 66zM874 1436h35l-565 -1436h-35zM264 1403q-55 0 -90 -30t-47 -72.5t-12 -98.5v-424q0 -86 34 -142t115 -56t115.5 56t34.5 142v424q0 41 -7.5 75
t-23.5 63.5t-46.5 46t-72.5 16.5zM958 883q50 0 87 -19t58 -53t30.5 -74t9.5 -88v-416q0 -103 -44 -169t-141 -66t-141.5 66t-44.5 169v416q0 65 16.5 115t60 84.5t109.5 34.5zM1456 883q66 0 109 -34.5t59 -84.5t16 -115v-416q0 -103 -43.5 -169t-140.5 -66q-65 0 -108 34
t-59.5 84.5t-16.5 116.5v416q0 101 44 167.5t140 66.5zM958 848q-149 0 -149 -199v-418q0 -86 34 -142t115 -56t115.5 56t34.5 142v418q0 87 -34.5 143t-115.5 56zM1456 848q-80 0 -114.5 -56t-34.5 -143v-418q0 -40 7.5 -73.5t23.5 -62.5t46.5 -45.5t71.5 -16.5
q150 0 150 198v418q0 199 -150 199z" />
    <glyph glyph-name="guilsinglleft" unicode="&#x2039;" horiz-adv-x="331" 
d="M211 221l-135 496l135 493h45l-135 -493l135 -496h-45z" />
    <glyph glyph-name="guilsinglright" unicode="&#x203a;" horiz-adv-x="331" 
d="M76 223l135 496l-135 493h43l137 -493l-137 -496h-43z" />
    <glyph glyph-name="fraction" unicode="&#x2044;" horiz-adv-x="675" 
d="M604 1434h33l-565 -1434h-33z" />
    <glyph glyph-name="zerosuperior" unicode="&#x2070;" horiz-adv-x="555" 
d="M80 942v463q0 104 49.5 168.5t149.5 64.5t148 -64.5t48 -168.5v-463q0 -104 -48 -168.5t-148 -64.5t-149.5 64.5t-49.5 168.5zM115 1407v-467q0 -89 39.5 -144t124.5 -55q84 0 122.5 55t38.5 144v467q0 89 -38.5 144t-122.5 55q-85 0 -124.5 -55t-39.5 -144z" />
    <glyph glyph-name="foursuperior" unicode="&#x2074;" horiz-adv-x="591" 
d="M514 928h-76v-209h-35v209h-325v33l317 667h43v-667h76v-33zM403 1565l-290 -604h290v604z" />
    <glyph glyph-name="fivesuperior" unicode="&#x2075;" horiz-adv-x="548" 
d="M115 977v-41q0 -87 38.5 -142t120.5 -55q83 0 120.5 54.5t37.5 142.5v137q0 90 -37 144.5t-121 54.5q-49 0 -92 -29.5t-53 -77.5v-10h-35l23 473h329v-35h-299l-16 -368q49 82 150 82q96 0 141 -64.5t45 -167.5v-137q0 -103 -47.5 -168t-145.5 -65t-145 65t-47 168v39h33
z" />
    <glyph glyph-name="sixsuperior" unicode="&#x2076;" horiz-adv-x="555" 
d="M279 1638q100 0 146 -62.5t46 -166.5v-6h-33v8q0 195 -159 195q-84 0 -123 -55.5t-39 -145.5v-252q43 111 168 111q97 0 143.5 -64.5t46.5 -167.5v-90q0 -104 -48 -168.5t-148 -64.5t-148.5 64.5t-48.5 168.5v463q0 105 48 169t149 64zM279 1231q-84 0 -123 -55.5
t-39 -145.5v-90q0 -89 39 -144t123 -55t122.5 55t38.5 144v90q0 91 -38.5 146t-122.5 55z" />
    <glyph glyph-name="sevensuperior" unicode="&#x2077;" horiz-adv-x="546" 
d="M156 719l272 876h-348v33h385v-31l-272 -878h-37z" />
    <glyph glyph-name="eightsuperior" unicode="&#x2078;" horiz-adv-x="565" 
d="M283 1638q100 0 152 -60.5t52 -160.5v-28q0 -154 -118 -197q118 -36 118 -195v-63q0 -102 -51.5 -163.5t-152.5 -61.5t-152 61t-51 164v63q0 158 119 195q-119 43 -119 197v28q0 100 52.5 160.5t150.5 60.5zM283 1606q-83 0 -125.5 -51t-42.5 -138v-33q0 -176 168 -176
t168 176v33q0 88 -42 138.5t-126 50.5zM283 1176q-168 0 -168 -177v-65q0 -89 42 -141t126 -52t126 52t42 141v65q0 177 -168 177z" />
    <glyph glyph-name="ninesuperior" unicode="&#x2079;" horiz-adv-x="555" 
d="M276 1638q100 0 149.5 -64.5t49.5 -168.5v-463q0 -104 -48.5 -168.5t-150.5 -64.5q-99 0 -147.5 63t-48.5 166v8h35v-10q0 -89 38.5 -142t122.5 -53t123 55.5t39 145.5v250q-43 -109 -168 -109q-97 0 -143.5 63.5t-46.5 166.5v92q0 104 48 168.5t148 64.5zM276 1606
q-84 0 -122.5 -55t-38.5 -144v-92q0 -89 38.5 -144t122.5 -55t123 55t39 144v92q0 89 -39 144t-123 55z" />
    <glyph glyph-name="zeroinferior" unicode="&#x2080;" horiz-adv-x="555" 
d="M80 90v463q0 104 49.5 168.5t149.5 64.5t148 -64.5t48 -168.5v-463q0 -104 -48 -168.5t-148 -64.5t-149.5 64.5t-49.5 168.5zM115 555v-467q0 -89 39.5 -144t124.5 -55q84 0 122.5 55t38.5 144v467q0 89 -38.5 144t-122.5 55q-85 0 -124.5 -55t-39.5 -144z" />
    <glyph glyph-name="oneinferior" unicode="&#x2081;" horiz-adv-x="346" 
d="M227 -133v848q-53 -85 -147 -97l-2 31q110 8 149 127h35v-909h-35z" />
    <glyph glyph-name="twoinferior" unicode="&#x2082;" horiz-adv-x="548" 
d="M276 786q101 0 147 -64.5t46 -170.5q0 -52 -19 -99.5t-49.5 -86.5t-67.5 -77.5t-74 -79t-68.5 -83.5t-51.5 -99.5t-22 -119.5v-6h344v-33h-379v22q0 94 36.5 174t88 136.5t103 108t88 113t36.5 128.5q0 205 -160 205q-157 0 -157 -207v-49h-35v49q0 106 46.5 172.5
t147.5 66.5z" />
    <glyph glyph-name="threeinferior" unicode="&#x2083;" horiz-adv-x="548" 
d="M274 786q99 0 146 -64.5t47 -168.5v-23q0 -65 -31.5 -117t-89.5 -73q58 -17 89.5 -66t31.5 -114v-70q0 -104 -47 -168.5t-146 -64.5q-100 0 -146 64t-46 169v43h33v-45q0 -90 37.5 -144.5t121.5 -54.5q158 0 158 201v70q0 71 -39.5 117.5t-107.5 46.5h-66v32h66
q65 0 107 51.5t40 118.5v27q0 90 -37 145.5t-121 55.5q-83 0 -121 -55.5t-38 -143.5v-29h-33v27q0 105 46 169t146 64z" />
    <glyph glyph-name="fourinferior" unicode="&#x2084;" horiz-adv-x="591" 
d="M514 68h-76v-209h-35v209h-325v32l317 668h43v-668h76v-32zM403 702l-290 -602h290v602z" />
    <glyph glyph-name="fiveinferior" unicode="&#x2085;" horiz-adv-x="548" 
d="M115 135v-41q0 -89 38 -143.5t121 -54.5q158 0 158 198v137q0 88 -37.5 143.5t-120.5 55.5q-50 0 -92.5 -29t-52.5 -77v-11h-35l23 471h329v-32h-299l-16 -369q50 80 150 80q96 0 141 -64.5t45 -167.5v-137q0 -103 -47.5 -168t-145.5 -65t-145 65t-47 168v41h33z" />
    <glyph glyph-name="sixinferior" unicode="&#x2086;" horiz-adv-x="555" 
d="M279 786q100 0 146 -62.5t46 -166.5v-6h-33v8q0 195 -159 195q-84 0 -123 -55.5t-39 -145.5v-252q43 111 168 111q97 0 143.5 -64.5t46.5 -167.5v-90q0 -104 -48 -168.5t-148 -64.5t-148.5 64.5t-48.5 168.5v463q0 105 48 169t149 64zM279 379q-84 0 -123 -55.5
t-39 -145.5v-90q0 -89 39 -144t123 -55t122.5 55t38.5 144v90q0 91 -38.5 146t-122.5 55z" />
    <glyph glyph-name="seveninferior" unicode="&#x2087;" horiz-adv-x="546" 
d="M156 -125l272 877h-348v32h385v-30l-272 -879h-37z" />
    <glyph glyph-name="eightinferior" unicode="&#x2088;" horiz-adv-x="565" 
d="M283 786q100 0 152 -60.5t52 -160.5v-28q0 -154 -118 -197q118 -36 118 -195v-63q0 -102 -51.5 -163.5t-152.5 -61.5t-152 61t-51 164v63q0 158 119 195q-119 43 -119 197v28q0 100 52.5 160.5t150.5 60.5zM283 754q-83 0 -125.5 -51t-42.5 -138v-33q0 -176 168 -176
t168 176v33q0 88 -42 138.5t-126 50.5zM283 324q-168 0 -168 -177v-65q0 -89 42 -141t126 -52t126 52t42 141v65q0 177 -168 177z" />
    <glyph glyph-name="nineinferior" unicode="&#x2089;" horiz-adv-x="555" 
d="M276 786q100 0 149.5 -64.5t49.5 -168.5v-463q0 -104 -48.5 -168.5t-150.5 -64.5q-99 0 -147.5 63t-48.5 166v8h35v-10q0 -89 38.5 -142t122.5 -53t123 55.5t39 145.5v250q-43 -109 -168 -109q-97 0 -143.5 63.5t-46.5 166.5v92q0 104 48 168.5t148 64.5zM276 754
q-84 0 -122.5 -55t-38.5 -144v-92q0 -89 38.5 -144t122.5 -55t123 55t39 144v92q0 89 -39 144t-123 55z" />
    <glyph glyph-name="Euro" unicode="&#x20ac;" horiz-adv-x="815" 
d="M150 848v233q0 77 16 140.5t49.5 114.5t91.5 79.5t137 28.5q77 0 134.5 -28.5t91 -79.5t49.5 -114.5t16 -140.5v-67h-43v69q0 67 -13 122.5t-41 101t-77.5 71t-116.5 25.5q-54 0 -97 -17t-71 -46.5t-46.5 -70.5t-26.5 -87t-8 -99v-235h423v-33h-423v-188h423v-33h-423
v-244q0 -67 13 -122t40.5 -100t77.5 -70t118 -25q130 0 189 88t59 229v82h43v-80q0 -60 -9.5 -112.5t-31.5 -99t-55 -79.5t-83 -52t-112 -19q-79 0 -137 28.5t-91.5 80t-49.5 114.5t-16 139v242h-91v33h91v188h-91v33h91z" />
    <glyph glyph-name="uni20B9" unicode="&#x20b9;" horiz-adv-x="765" 
d="M688 1395h-330q68 -25 113.5 -80t64.5 -119.5t19 -138.5h133v-39h-133q-5 -147 -90 -235.5t-254 -88.5h-78l524 -694h-51l-528 698v35h127q153 0 227.5 77.5t79.5 207.5h-426v39h426q0 151 -79 244.5t-228 93.5h-119v39h602v-39z" />
    <glyph glyph-name="uni2117" unicode="&#x2117;" horiz-adv-x="1540" 
d="M770 1430q199 0 358 -94t246.5 -256t87.5 -361q0 -200 -87.5 -362.5t-246.5 -256.5t-358 -94t-358 94t-246.5 256.5t-87.5 362.5q0 199 87.5 361t246.5 256t358 94zM770 1395q-142 0 -265 -52.5t-208.5 -142.5t-134.5 -215t-49 -266q0 -189 83 -343.5t234 -244.5t340 -90
t340 90t234 244.5t83 343.5q0 141 -49 266t-134.5 215t-208.5 142.5t-265 52.5zM612 1139h199q207 0 207 -240v-55q0 -119 -55.5 -176.5t-174.5 -57.5h-139v-348h-37v877zM649 645h137q102 0 148.5 48t46.5 153v51q0 99 -38.5 153t-131.5 54h-162v-459z" />
    <glyph glyph-name="trademark" unicode="&#x2122;" horiz-adv-x="1181" 
d="M264 705h-35v696h-196v33h426v-33h-195v-696zM1069 1376l-219 -659h-37l-219 659v-671h-33v729h49l221 -666l224 666h49v-729h-35v671z" />
    <glyph glyph-name="uni2153" unicode="&#x2153;" horiz-adv-x="1112" 
d="M236 524v848q-49 -84 -146 -96l-2 31q111 9 150 127h34v-910h-36zM752 1434h34l-565 -1434h-35zM840 920q99 0 145.5 -64.5t46.5 -169.5v-22q0 -65 -31.5 -116.5t-89.5 -72.5q60 -20 90.5 -68.5t30.5 -113.5v-70q0 -105 -46.5 -169t-145.5 -64q-100 0 -147.5 64.5
t-47.5 168.5v43h35v-45q0 -198 158 -198q84 0 121.5 54.5t37.5 145.5v70q0 71 -40 117.5t-109 46.5h-66v32h68q64 0 106.5 51.5t40.5 118.5v27q0 90 -37.5 145.5t-121.5 55.5q-83 0 -120.5 -55.5t-37.5 -143.5v-29h-35v27q0 105 47.5 169.5t147.5 64.5z" />
    <glyph glyph-name="uni2154" unicode="&#x2154;" horiz-adv-x="1234" 
d="M276 1444q101 0 147 -65t46 -171q0 -52 -19 -100t-49.5 -87t-67.5 -77.5t-74 -79t-68.5 -83.5t-51.5 -99.5t-22 -118.5v-6h344v-33h-379v23q0 94 36.5 174t88 136t103 108t88 113t36.5 128q0 205 -160 205q-84 0 -120.5 -57.5t-36.5 -149.5v-49h-35v49q0 106 46.5 173
t147.5 67zM913 1434l-565 -1434h-33l566 1434h32zM961 920q100 0 147 -64.5t47 -169.5v-22q0 -65 -32 -116.5t-89 -72.5q60 -20 90.5 -68.5t30.5 -113.5v-70q0 -105 -47 -169t-147 -64t-146.5 64t-46.5 169v43h35v-45q0 -198 158 -198q84 0 121.5 54.5t37.5 145.5v70
q0 71 -40 117.5t-109 46.5h-66v32h68q64 0 105.5 51.5t41.5 118.5v27q0 90 -37.5 145.5t-121.5 55.5q-83 0 -120.5 -55.5t-37.5 -143.5v-29h-35v27q0 105 46.5 169.5t146.5 64.5z" />
    <glyph glyph-name="oneeighth" unicode="&#x215b;" horiz-adv-x="1140" 
d="M236 524v848q-49 -84 -146 -96l-2 31q111 9 150 127h34v-910h-36zM221 0h-35l566 1434h34zM856 920q100 0 152.5 -61t52.5 -161v-28q0 -154 -119 -197q119 -37 119 -194v-64q0 -103 -51.5 -164t-153.5 -61q-101 0 -152 61t-51 164v64q0 157 119 194q-119 43 -119 197v28
q0 100 52.5 161t150.5 61zM856 887q-83 0 -125.5 -51t-42.5 -138v-32q0 -86 42 -131.5t126 -45.5t126 45.5t42 131.5v32q0 88 -42 138.5t-126 50.5zM856 457q-168 0 -168 -176v-66q0 -89 41.5 -140.5t126.5 -51.5q86 0 127 51.5t41 140.5v66q0 176 -168 176z" />
    <glyph glyph-name="threeeighths" unicode="&#x215c;" horiz-adv-x="1280" 
d="M274 1444q99 0 146 -65t47 -169v-22q0 -65 -31.5 -116.5t-89.5 -72.5q61 -20 91 -68t30 -114v-69q0 -104 -47 -169t-146 -65q-100 0 -146 64.5t-46 169.5v43h33v-46q0 -90 37.5 -144t121.5 -54q158 0 158 201v69q0 71 -39.5 117.5t-107.5 46.5h-66v33h66q65 0 107 51.5
t40 118.5v26q0 90 -37 145.5t-121 55.5q-83 0 -121 -55.5t-38 -143.5v-28h-33v26q0 105 46 169.5t146 64.5zM895 1434h35l-565 -1434h-35zM997 920q98 0 150.5 -61t52.5 -161v-28q0 -155 -119 -197q119 -36 119 -194v-64q0 -103 -51 -164t-152 -61q-100 0 -151 61t-51 164
v64q0 159 118 194q-118 42 -118 197v28q0 100 52 161t150 61zM997 887q-83 0 -125.5 -51t-42.5 -138v-32q0 -177 168 -177q84 0 126 45.5t42 131.5v32q0 87 -42.5 138t-125.5 51zM997 457q-168 0 -168 -176v-66q0 -89 41.5 -140.5t126.5 -51.5t126.5 51.5t41.5 140.5v66
q0 176 -168 176z" />
    <glyph glyph-name="fiveeighths" unicode="&#x215d;" horiz-adv-x="1275" 
d="M147 1399l-16 -369q49 82 150 82q96 0 141 -64t45 -167v-138q0 -103 -47.5 -168t-145.5 -65t-145 65t-47 168v39h33v-41q0 -87 38.5 -141.5t120.5 -54.5q84 0 121 54t37 142v138q0 198 -158 198q-50 0 -92.5 -29t-52.5 -77v-10h-35l23 473h329v-35h-299zM328 0l565 1434
h33l-566 -1434h-32zM993 920q100 0 152.5 -61t52.5 -161v-28q0 -154 -119 -197q119 -37 119 -194v-64q0 -102 -52 -163.5t-153 -61.5q-100 0 -151 61t-51 164v64q0 158 118 194q-118 43 -118 197v28q0 100 52 161t150 61zM993 887q-83 0 -125.5 -51t-42.5 -138v-32
q0 -86 42 -131.5t126 -45.5t126 45.5t42 131.5v32q0 88 -42 138.5t-126 50.5zM993 457q-168 0 -168 -176v-66q0 -89 41.5 -140.5t126.5 -51.5t126.5 51.5t41.5 140.5v66q0 176 -168 176z" />
    <glyph glyph-name="seveneighths" unicode="&#x215e;" horiz-adv-x="1097" 
d="M156 524l272 877h-348v33h385v-31l-272 -879h-37zM741 1434l-565 -1434h-35l566 1434h34zM815 920q99 0 151 -60.5t52 -161.5v-28q0 -155 -119 -197q119 -36 119 -194v-64q0 -103 -51 -164t-152 -61t-152 61t-51 164v64q0 157 119 194q-119 43 -119 197v28
q0 100 52.5 161t150.5 61zM815 887q-83 0 -125.5 -51t-42.5 -138v-32q0 -86 42 -131.5t126 -45.5t126 45.5t42 131.5v32q0 88 -42 138.5t-126 50.5zM815 457q-168 0 -168 -176v-66q0 -89 41.5 -140.5t126.5 -51.5t126.5 51.5t41.5 140.5v66q0 176 -168 176z" />
    <glyph glyph-name="minus" unicode="&#x2212;" horiz-adv-x="788" 
d="M78 735h633v-37h-633v37z" />
    <glyph glyph-name="infinity" unicode="&#x221e;" horiz-adv-x="1132" 
d="M782 983h31q109 0 175.5 -57t66.5 -164q0 -109 -66 -165t-176 -56h-31q-174 0 -213 131q-41 -131 -217 -131h-28q-111 0 -176.5 56t-65.5 165q0 107 65.5 164t176.5 57h28q175 0 217 -131q40 131 213 131zM356 948h-32q-96 0 -150.5 -47t-54.5 -139q0 -91 54.5 -138
t150.5 -49h32q95 0 145 47.5t50 139.5t-49.5 139t-145.5 47zM811 948h-33q-194 0 -194 -186q0 -184 194 -187h33q95 0 151 48t56 139t-56 138.5t-151 47.5z" />
    <glyph glyph-name="approxequal" unicode="&#x2248;" horiz-adv-x="813" 
d="M252 961q42 1 90 -19t83 -45t79 -45t80 -18q40 3 70 31t57 77l28 -20q-64 -122 -153 -127q-40 -1 -86.5 19t-82 44.5t-81 44.5t-84.5 19q-82 -2 -150 -107l-28 21q38 60 80.5 92t97.5 33zM252 635q42 1 90 -19.5t83 -45.5t79 -44.5t80 -17.5q40 1 69.5 29.5t57.5 78.5
l28 -20q-66 -122 -153 -127q-51 -2 -110 30.5t-117 65t-107 31.5q-85 -3 -150 -107l-28 21q39 59 81 91.5t97 33.5z" />
    <glyph glyph-name="commaaccentcomb" unicode="&#xf6c3;" horiz-adv-x="0" 
d="M160 -229l-43 -129h-23l35 125h-10v163h41v-159z" />
    <glyph glyph-name="NULL" horiz-adv-x="0" 
 />
    <glyph glyph-name="CR" horiz-adv-x="317" 
 />
    <glyph glyph-name="zero.alt" 
d="M80 352v729q0 163 74.5 263t230.5 100t230.5 -100t74.5 -263v-729q0 -105 -29.5 -184t-100 -128.5t-175.5 -49.5t-175.5 49.5t-100 128.5t-29.5 184zM125 1083v-731q0 -69 14.5 -125.5t44 -101.5t81 -69.5t120.5 -24.5t120.5 24.5t81 69.5t44 101.5t14.5 125.5v731
q0 143 -63 231.5t-197 88.5t-197 -88.5t-63 -231.5z" />
    <glyph glyph-name="one.alt" horiz-adv-x="442" 
d="M76 1184v37q90 9 149.5 67t89.5 148h45v-1436h-45v1350q-74 -148 -239 -166z" />
    <glyph glyph-name="two.alt" horiz-adv-x="751" 
d="M377 1444q66 0 117.5 -19t85 -51.5t55.5 -79.5t31.5 -100.5t9.5 -116.5q0 -81 -30 -156t-78 -136.5t-106.5 -122.5t-117 -126t-107.5 -134.5t-80.5 -160t-33.5 -190.5v-8h545v-43h-590v31q0 109 30.5 206t79.5 169.5t107.5 139t117.5 127t108 120.5t79.5 132t30.5 150
q0 328 -256 328q-55 0 -99 -18t-72 -48t-46.5 -72.5t-26.5 -89t-8 -100.5v-78h-45v76q0 78 16 142.5t50 117t93.5 82t139.5 29.5z" />
    <glyph glyph-name="three.alt" horiz-adv-x="757" 
d="M379 1444q80 0 139 -28t93 -78.5t50.5 -114.5t16.5 -142v-34q0 -104 -55 -185.5t-150 -111.5q100 -26 152.5 -102.5t52.5 -184.5v-111q0 -163 -72 -262.5t-227 -99.5t-228 99.5t-73 262.5v68h45v-68q0 -69 13.5 -125t42 -101t79 -70t119.5 -25q70 0 121 25t80 70.5
t42 101.5t13 126v109q0 118 -62 188t-176 76h-104v41h106q107 9 171.5 85t64.5 187v41q0 70 -13 126t-42 101t-80 70t-121 25q-69 0 -119.5 -25t-79 -69.5t-42 -100.5t-13.5 -125v-43h-45v41q0 163 73 263t228 100z" />
    <glyph glyph-name="four.alt" horiz-adv-x="831" 
d="M756 338h-125v-338h-45v338h-510v45l499 1053h56v-1055h125v-43zM586 1356l-467 -975h467v975z" />
    <glyph glyph-name="five.alt" horiz-adv-x="757" 
d="M174 1393l-29 -590q45 68 102 96.5t142 28.5q77 0 134 -28t90 -78.5t49 -113.5t16 -139v-217q0 -77 -16.5 -141t-51 -114.5t-93.5 -78.5t-138 -28t-138 28t-93.5 78.5t-51 114.5t-16.5 141v62h43v-62q0 -68 13.5 -123.5t42.5 -100.5t80 -70t120 -25q68 0 118.5 25
t79.5 70t42.5 100.5t13.5 123.5v215q0 67 -13.5 122.5t-42.5 100.5t-79.5 70t-118.5 25q-87 0 -148.5 -45t-89.5 -127v-17h-45l39 740h516v-43h-477z" />
    <glyph glyph-name="six.alt" horiz-adv-x="772" 
d="M387 1444q105 0 173.5 -47.5t97 -124.5t28.5 -182v-11h-43v13q0 142 -61 226.5t-195 84.5q-93 0 -153 -44.5t-84.5 -114.5t-24.5 -165v-395q43 91 105.5 130.5t166.5 39.5q151 0 223 -98.5t72 -259.5v-144q0 -105 -29.5 -184t-100 -128.5t-175.5 -49.5q-157 0 -232 100
t-75 262v729q0 164 75 263.5t232 99.5zM387 811q-70 0 -122 -25.5t-82 -70.5t-44 -100t-14 -121v-142q0 -69 14 -125t44 -100.5t82 -69t122 -24.5q135 0 197.5 87.5t62.5 231.5v142q0 142 -63 229.5t-197 87.5z" />
    <glyph glyph-name="seven.alt" horiz-adv-x="747" 
d="M199 0l426 1393h-551v43h598v-43l-426 -1393h-47z" />
    <glyph glyph-name="eight.alt" horiz-adv-x="788" 
d="M393 1444q156 0 236 -91.5t80 -250.5v-47q0 -120 -50 -200.5t-157 -104.5q207 -47 207 -312v-96q0 -161 -79 -256.5t-237 -95.5q-157 0 -236 95.5t-79 256.5v96q0 127 50 206t163 106q-213 48 -213 305v47q0 158 80.5 250t234.5 92zM393 1403q-133 0 -201.5 -81
t-68.5 -220v-51q0 -138 68 -210.5t202 -72.5q135 0 203 72.5t68 210.5v51q0 140 -68.5 220.5t-202.5 80.5zM393 727q-270 0 -270 -285v-100q0 -143 67.5 -227t202.5 -84q136 0 203.5 84t67.5 227v100q0 285 -271 285z" />
    <glyph glyph-name="nine.alt" horiz-adv-x="772" 
d="M385 1446q80 0 140 -28t95 -78.5t52.5 -115.5t17.5 -143v-727q0 -79 -17 -143t-52 -114.5t-95.5 -78.5t-140.5 -28q-155 0 -230 98t-75 260v10h43v-12q0 -142 63.5 -228.5t198.5 -86.5t197.5 89t62.5 236v400q-58 -174 -270 -174q-151 0 -223 98.5t-72 259.5v141
q0 78 17.5 143t52.5 115.5t95 78.5t140 28zM385 1403q-134 0 -197 -88.5t-63 -231.5v-141q0 -143 63 -231t197 -88t197 88t63 231v141q0 143 -63 231.5t-197 88.5z" />
    <glyph glyph-name="Edotaaccent" horiz-adv-x="147" 
 />
    <glyph glyph-name="edotaaccent" horiz-adv-x="147" 
 />
    <glyph glyph-name="lcute" horiz-adv-x="147" 
 />
    </font>
</defs>
</svg>
