<?xml version="1.0" standalone="no"?>
<!DOCTYPE svg PUBLIC "-//W3C//DTD SVG 1.1//EN" "http://www.w3.org/Graphics/SVG/1.1/DTD/svg11.dtd" >
<svg xmlns="http://www.w3.org/2000/svg" xmlns:xlink="http://www.w3.org/1999/xlink" version="1.1">
<metadata>
Created by FontForge 20170731 at Sat Apr 29 09:59:16 2023
 By Aleksey,,,
Copyright  2010 by Ryoichi Tsunekawa. All rights reserved.
</metadata>
<defs>
<font id="BebasNeueRegular" horiz-adv-x="792" >
  <font-face 
    font-family="Bebas Neue Regular"
    font-weight="400"
    font-stretch="normal"
    units-per-em="2048"
    panose-1="0 0 5 0 0 0 0 0 0 0"
    ascent="1536"
    descent="-512"
    x-height="1434"
    cap-height="1434"
    bbox="-162 -367 1702 1817"
    underline-thickness="102"
    underline-position="-327"
    unicode-range="U+0020-F6C3"
  />
<missing-glyph horiz-adv-x="1122" 
d="M102 0v1434h918v-1434h-918zM264 1274l211 -541l-225 -575h112l189 483l188 -483h127l-225 575l211 541h-113l-176 -447l-174 447h-125z" />
    <glyph glyph-name=".notdef" horiz-adv-x="1122" 
d="M102 0v1434h918v-1434h-918zM264 1274l211 -541l-225 -575h112l189 483l188 -483h127l-225 575l211 541h-113l-176 -447l-174 447h-125z" />
    <glyph glyph-name=".null" horiz-adv-x="0" 
 />
    <glyph glyph-name="nonmarkingreturn" horiz-adv-x="682" 
 />
    <glyph glyph-name="space" unicode=" " horiz-adv-x="317" 
 />
    <glyph glyph-name="exclam" unicode="!" horiz-adv-x="323" 
d="M102 317l-20 443v674h160v-674l-21 -443h-119zM84 199h154v-199h-154v199z" />
    <glyph glyph-name="quotedbl" unicode="&#x22;" horiz-adv-x="542" 
d="M82 1434h154l-23 -387h-111zM307 1434h154l-23 -387h-110z" />
    <glyph glyph-name="numbersign" unicode="#" horiz-adv-x="843" 
d="M784 967h-114l-43 -420h114l-12 -115h-115l-45 -432h-131l45 432h-186l-47 -432h-131l47 432h-119l12 115h117l45 420h-121l13 114h118l37 353h131l-37 -353h189l37 353h131l-37 -353h115zM496 547l43 420h-187l-45 -420h189z" />
    <glyph glyph-name="dollar" unicode="$" 
d="M463 1542v-115q127 -18 190.5 -110.5t63.5 -241.5v-39h-150v49q0 205 -166 205q-163 0 -163 -205q0 -65 26.5 -120t69 -95t93.5 -78.5t102.5 -80t94 -88.5t69 -115t26.5 -150q0 -149 -64.5 -242.5t-191.5 -111.5v-108h-131v108q-130 18 -194 110.5t-64 243.5v88h149v-98
q0 -203 168 -203t168 203q0 64 -26.5 118.5t-68.5 95t-93.5 79t-102.5 80t-93 89t-68.5 115.5t-26.5 150q0 151 62.5 241.5t189.5 110.5v115h131z" />
    <glyph glyph-name="percent" unicode="%" horiz-adv-x="1261" 
d="M279 1442q101 0 152.5 -62.5t51.5 -169.5v-452q0 -108 -51.5 -170t-152.5 -62t-153 62t-52 170v452q0 107 52 169.5t153 62.5zM860 1434h96l-565 -1434h-96zM279 1348q-103 0 -103 -131v-467q0 -129 103 -129q102 0 102 129v467q0 131 -102 131zM983 905q102 0 153.5 -61
t51.5 -168v-451q0 -108 -51 -169.5t-154 -61.5q-101 0 -153 61.5t-52 169.5v451q0 106 52 167.5t153 61.5zM983 811q-102 0 -102 -129v-465q0 -131 102 -131t102 131v465q0 129 -102 129z" />
    <glyph glyph-name="ampersand" unicode="&#x26;" horiz-adv-x="835" 
d="M653 1288h-227q-184 0 -184 -203v-71q0 -91 43.5 -141.5t122.5 -53.5h161v160h158v-160h70v-143h-70v-494q0 -64 5.5 -104t25.5 -78h-162q-25 54 -27 125q-62 -139 -225 -139q-130 0 -195 86.5t-65 242.5v140q0 110 42 188t128 111q-85 30 -127.5 106t-42.5 187v32
q0 172 85 263.5t253 91.5h231v-146zM569 676h-149q-178 -6 -178 -217v-131q0 -197 166 -197q71 0 114.5 41.5t46.5 122.5v381z" />
    <glyph glyph-name="quotesingle" unicode="'" horiz-adv-x="309" 
d="M78 1434h153l-22 -387h-111z" />
    <glyph glyph-name="parenleft" unicode="(" horiz-adv-x="493" 
d="M444 1303h-47q-81 0 -114 -44t-33 -141v-803q0 -97 32.5 -140.5t114.5 -43.5h47v-131h-57q-161 0 -228 75t-67 240v803q0 165 67 240.5t228 75.5h57v-131z" />
    <glyph glyph-name="parenright" unicode=")" horiz-adv-x="493" 
d="M49 1434h57q161 0 228 -75.5t67 -240.5v-803q0 -165 -67 -240t-228 -75h-57v131h47q82 0 115 43.5t33 140.5v803q0 96 -33.5 140.5t-114.5 44.5h-47v131z" />
    <glyph glyph-name="asterisk" unicode="*" horiz-adv-x="808" 
d="M772 1108l-319 -64l217 -239l-105 -78l-162 285l-159 -285l-105 78l215 239l-317 66l39 125l299 -131l-37 323h131l-35 -323l299 129z" />
    <glyph glyph-name="plus" unicode="+" horiz-adv-x="802" 
d="M741 659h-282v-288h-115v288h-283v115h283v285h115v-285h282v-115z" />
    <glyph glyph-name="comma" unicode="," horiz-adv-x="327" 
d="M100 -180l52 180h-60v199h154v-185l-80 -194h-66z" />
    <glyph glyph-name="hyphen" unicode="-" horiz-adv-x="542" 
d="M76 645v143h391v-143h-391z" />
    <glyph glyph-name="period" unicode="." horiz-adv-x="317" 
d="M82 199h154v-199h-154v199z" />
    <glyph glyph-name="slash" unicode="/" horiz-adv-x="770" 
d="M598 1434h139l-565 -1434h-139z" />
    <glyph glyph-name="zero" unicode="0" horiz-adv-x="796" 
d="M70 348v739q0 169 83 265t244 96q162 0 246 -96t84 -265v-739q0 -169 -84 -265.5t-246 -96.5q-160 0 -243.5 96.5t-83.5 265.5zM227 1096v-758q0 -99 42.5 -153t127.5 -54q86 0 128 54t42 153v758q0 209 -170 209q-85 0 -127.5 -54.5t-42.5 -154.5z" />
    <glyph glyph-name="one" unicode="1" horiz-adv-x="692" 
d="M375 0v1174q-90 -56 -199 -62v131q56 2 98 17.5t70 43.5t45 58t33 72h110v-1434h-157z" />
    <glyph glyph-name="two" unicode="2" 
d="M403 1448q162 0 243 -96.5t81 -266.5q0 -88 -27 -169t-69.5 -144.5t-94.5 -124t-103.5 -117t-94.5 -111.5t-70.5 -119.5t-27.5 -131.5v-23h471v-145h-629v123q0 94 26.5 177t69.5 145.5t94.5 120.5t103.5 114t95 113.5t69.5 131t26.5 154.5q0 113 -40.5 169.5
t-127.5 56.5q-85 0 -126.5 -56t-41.5 -155v-127h-149v116q0 170 80 267.5t241 97.5z" />
    <glyph glyph-name="three" unicode="3" 
d="M395 1448q161 0 242.5 -96t81.5 -265v-36q0 -111 -44 -187t-130 -108q174 -65 174 -297v-111q0 -170 -81.5 -266t-242.5 -96q-160 0 -240.5 96t-80.5 266v98h149v-108q0 -99 42 -153t126 -54q168 0 168 221v111q0 105 -44.5 157.5t-135.5 55.5h-86v143h94q81 3 126.5 54
t45.5 143v65q0 224 -168 224q-84 0 -126 -55t-42 -154v-74h-149v65q0 169 80.5 265t240.5 96z" />
    <glyph glyph-name="four" unicode="4" horiz-adv-x="819" 
d="M778 289h-114v-289h-156v289h-463v145l444 1000h175v-1000h114v-145zM508 1135l-315 -701h315v701z" />
    <glyph glyph-name="five" unicode="5" 
d="M264 1290l-22 -440q69 119 213 119q134 0 200 -90t66 -250v-281q0 -169 -82 -265.5t-242 -96.5t-240.5 96t-80.5 266v96h149v-106q0 -99 42 -153t126 -54t126 54t42 153v278q0 99 -42 153t-126 54q-141 0 -162 -153v-33h-149l39 797h565v-144h-422z" />
    <glyph glyph-name="six" unicode="6" horiz-adv-x="796" 
d="M401 1448q162 0 243 -94.5t81 -263.5v-27h-150v37q0 205 -169 205q-90 0 -132.5 -57.5t-42.5 -174.5v-321q61 153 232 153q134 0 200 -89.5t66 -250.5v-217q0 -169 -83.5 -265.5t-244.5 -96.5q-162 0 -245.5 96.5t-83.5 265.5v731q0 176 81.5 272.5t247.5 96.5zM401 760
q-86 0 -128 -54t-42 -153v-215q0 -99 42 -153t128 -54q85 0 127.5 54t42.5 153v215q0 99 -42.5 153t-127.5 54z" />
    <glyph glyph-name="seven" unicode="7" 
d="M193 0l366 1290h-487v144h649v-140l-369 -1294h-159z" />
    <glyph glyph-name="eight" unicode="8" horiz-adv-x="802" 
d="M401 1448q164 0 251 -93t87 -261v-45q0 -233 -164 -295q164 -65 164 -303v-107q0 -169 -86.5 -263.5t-251.5 -94.5t-251.5 94.5t-86.5 263.5v107q0 236 166 303q-166 64 -166 295v45q0 168 87 261t251 93zM401 1305q-87 0 -133.5 -53.5t-46.5 -161.5v-70q0 -201 180 -201
q181 0 181 201v70q0 108 -47 161.5t-134 53.5zM401 676q-180 0 -180 -207v-121q0 -217 180 -217q178 0 181 217v121q0 207 -181 207z" />
    <glyph glyph-name="nine" unicode="9" horiz-adv-x="796" 
d="M395 1448q162 0 246 -96t84 -265v-731q0 -176 -82.5 -273t-249.5 -97q-160 0 -241.5 95.5t-81.5 264.5v27h149v-37q0 -99 42.5 -152t127.5 -53q91 0 133.5 56.5t42.5 172.5v322q-60 -152 -231 -152q-134 0 -200 89t-66 249v219q0 169 82.5 265t244.5 96zM395 1303
q-85 0 -127.5 -53.5t-42.5 -153.5v-215q0 -99 42.5 -153t127.5 -54q86 0 128 54t42 153v215q0 207 -170 207z" />
    <glyph glyph-name="colon" unicode=":" horiz-adv-x="317" 
d="M82 979h154v-199h-154v199zM82 199h154v-199h-154v199z" />
    <glyph glyph-name="semicolon" unicode=";" horiz-adv-x="327" 
d="M92 979h154v-199h-154v199zM100 -180l52 180h-60v199h154v-185l-80 -194h-66z" />
    <glyph glyph-name="less" unicode="&#x3c;" horiz-adv-x="784" 
d="M702 516v-117l-634 260v115l634 260v-116l-485 -201z" />
    <glyph glyph-name="equal" unicode="=" horiz-adv-x="716" 
d="M76 934h565v-115h-565v115zM76 643h565v-115h-565v115z" />
    <glyph glyph-name="greater" unicode="&#x3e;" horiz-adv-x="784" 
d="M82 399v117l485 201l-485 201v116l635 -260v-115z" />
    <glyph glyph-name="question" unicode="?" horiz-adv-x="739" 
d="M373 1448q161 0 240 -96.5t79 -266.5q0 -96 -29.5 -176.5t-71 -138t-83 -111t-71 -120.5t-29.5 -142q0 -36 10 -78h-144q-10 42 -10 82q0 86 27.5 158.5t67 126.5t79 109t67 131.5t27.5 167.5q0 211 -163 211q-164 0 -164 -211v-127h-150v116q0 169 79.5 267t238.5 98z
M268 199h152v-199h-152v199z" />
    <glyph glyph-name="at" unicode="@" horiz-adv-x="1411" 
d="M801 1505q121 0 216 -29t159 -81t105.5 -126.5t60 -162t18.5 -191.5q0 -147 -32 -270t-84.5 -202.5t-119.5 -123t-139 -43.5q-74 0 -116 36.5t-46 103.5q-65 -143 -211 -140q-111 1 -156.5 85.5t-31.5 228.5l22 205q14 143 78.5 222.5t175.5 76.5q137 0 177 -136l14 127
h139l-61 -587q-5 -39 9 -63.5t50 -24.5q56 0 99 49t66 127t34 161t10 164q0 222 -108.5 345.5t-331.5 123.5q-121 0 -219.5 -39t-169 -109.5t-118 -170.5t-70.5 -220t-23 -259q0 -272 128.5 -420t389.5 -148q237 0 403 129l-12 -141q-161 -111 -399 -111q-166 0 -291 49.5
t-202.5 142t-116 219.5t-38.5 288q0 148 28 282t87.5 250.5t145.5 201t209.5 133t271.5 48.5zM741 954q-69 1 -108.5 -44t-48.5 -130l-19 -184q-9 -83 19.5 -133t97.5 -51t109 47.5t49 134.5l20 197q8 74 -22.5 118.5t-96.5 44.5z" />
    <glyph glyph-name="A" unicode="A" horiz-adv-x="864" 
d="M606 289h-362l-56 -289h-147l274 1434h232l274 -1434h-159zM422 1253l-158 -827h320z" />
    <glyph glyph-name="B" unicode="B" horiz-adv-x="802" 
d="M82 1434h321q164 0 238 -78.5t74 -239.5v-67q0 -118 -38.5 -187.5t-129.5 -97.5q192 -54 192 -307v-121q0 -164 -81 -250t-246 -86h-330v1434zM242 825h123q100 0 146 41.5t46 149.5v84q0 97 -36.5 142.5t-121.5 45.5h-157v-463zM242 145h170q88 0 129 47.5t41 147.5v127
q0 117 -47.5 165t-153.5 48h-139v-535z" />
    <glyph glyph-name="C" unicode="C" horiz-adv-x="778" 
d="M391 1448q161 0 242.5 -96.5t81.5 -264.5v-129h-152v138q0 207 -168 207q-84 0 -126 -54t-42 -153v-758q0 -99 42 -153t126 -54q168 0 168 207v186h152v-178q0 -168 -81.5 -264t-242.5 -96q-160 0 -240.5 96t-80.5 264v741q0 168 80.5 264.5t240.5 96.5z" />
    <glyph glyph-name="D" unicode="D" horiz-adv-x="811" 
d="M82 1434h336q163 0 244 -93.5t81 -263.5v-723q0 -169 -81 -261.5t-244 -92.5h-336v1434zM242 145h174q170 0 170 203v737q0 203 -172 203h-172v-1143z" />
    <glyph glyph-name="E" unicode="E" horiz-adv-x="737" 
d="M242 799h350v-144h-350v-510h430v-145h-590v1434h590v-146h-430v-489z" />
    <glyph glyph-name="F" unicode="F" horiz-adv-x="696" 
d="M242 766h329v-145h-329v-621h-160v1434h569v-146h-409v-522z" />
    <glyph glyph-name="G" unicode="G" horiz-adv-x="784" 
d="M391 1448q161 0 242.5 -96.5t81.5 -264.5v-122h-152v131q0 207 -168 207q-84 0 -126 -54t-42 -153v-758q0 -99 42 -153t126 -54q168 0 168 207v287h-147v143h299v-422q0 -168 -81.5 -264t-242.5 -96q-160 0 -240.5 96t-80.5 264v741q0 168 80.5 264.5t240.5 96.5z" />
    <glyph glyph-name="H" unicode="H" horiz-adv-x="835" 
d="M594 645h-352v-645h-160v1434h160v-646h352v646h160v-1434h-160v645z" />
    <glyph glyph-name="I" unicode="I" horiz-adv-x="323" 
d="M82 1434h160v-1434h-160v1434z" />
    <glyph glyph-name="J" unicode="J" horiz-adv-x="522" 
d="M41 0v145q27 -2 80 -2q83 5 125.5 51t42.5 150v1090h157v-1080q0 -349 -305 -356q-82 0 -100 2z" />
    <glyph glyph-name="K" unicode="K" horiz-adv-x="837" 
d="M633 0l-307 623l-84 -142v-481h-160v1434h160v-693l381 693h161l-362 -654l375 -780h-164z" />
    <glyph glyph-name="L" unicode="L" horiz-adv-x="690" 
d="M651 0h-569v1434h160v-1289h409v-145z" />
    <glyph glyph-name="M" unicode="M" horiz-adv-x="1071" 
d="M838 1153l-228 -1151h-153l-238 1141v-1143h-139v1434h223l236 -1145l227 1145h223v-1434h-151v1153z" />
    <glyph glyph-name="N" unicode="N" horiz-adv-x="837" 
d="M223 1159v-1159h-143v1434h203l331 -1037v1037h142v-1434h-166z" />
    <glyph glyph-name="O" unicode="O" horiz-adv-x="796" 
d="M70 346v741q0 169 83 265t244 96q162 0 246 -96t84 -265v-741q0 -167 -84 -263.5t-246 -96.5q-160 0 -243.5 96.5t-83.5 263.5zM227 1096v-758q0 -100 42.5 -153.5t127.5 -53.5q170 0 170 207v758q0 99 -42 153t-128 54q-85 0 -127.5 -54t-42.5 -153z" />
    <glyph glyph-name="P" unicode="P" horiz-adv-x="765" 
d="M82 1434h313q164 0 243 -91.5t79 -259.5v-172q0 -346 -334 -346h-141v-565h-160v1434zM242 709h141q91 0 133.5 45.5t42.5 146.5v191q0 100 -39 148t-125 48h-153v-579z" />
    <glyph glyph-name="Q" unicode="Q" horiz-adv-x="823" 
d="M397 1448q162 0 246 -96t84 -265v-741q0 -138 -55 -223q12 -25 32.5 -35t55.5 -10h20v-141h-26q-132 0 -183 92q-72 -43 -174 -43q-160 0 -243.5 96.5t-83.5 263.5v741q0 169 83 265t244 96zM397 1303q-85 0 -127.5 -54t-42.5 -153v-758q0 -100 42.5 -153.5t127.5 -53.5
q170 0 170 207v758q0 99 -42 153t-128 54z" />
    <glyph glyph-name="R" unicode="R" horiz-adv-x="806" 
d="M82 1434h319q166 0 243 -82.5t77 -245.5v-117q0 -239 -178 -295q95 -28 137.5 -103.5t42.5 -195.5v-223q0 -119 29 -172h-162q-27 62 -27 174v225q0 117 -52 165t-157 48h-112v-612h-160v1434zM242 758h118q102 0 152.5 42.5t50.5 153.5v138q0 99 -39.5 147.5
t-126.5 48.5h-155v-530z" />
    <glyph glyph-name="S" unicode="S" horiz-adv-x="761" 
d="M383 1448q159 0 239 -95t80 -263v-39h-151v47q0 205 -164 205t-164 -203q0 -65 26.5 -121.5t69 -99.5t94 -84.5t103 -86t94 -94t69 -119t26.5 -151.5q0 -167 -82 -262.5t-242 -95.5t-241 95t-81 263v82h150v-90q0 -205 168 -205t168 205q0 64 -26.5 120t-68.5 99
t-93.5 84.5t-102.5 86t-93 94t-68.5 119t-26.5 151.5q0 170 79.5 264t237.5 94z" />
    <glyph glyph-name="T" unicode="T" horiz-adv-x="743" 
d="M451 0h-160v1288h-264v146h688v-146h-264v-1288z" />
    <glyph glyph-name="U" unicode="U" 
d="M233 1434v-1096q0 -207 168 -207q166 0 166 207v1096h150v-1088q0 -169 -80.5 -265.5t-241.5 -96.5q-159 0 -239 96.5t-80 265.5v1088h157z" />
    <glyph glyph-name="V" unicode="V" horiz-adv-x="856" 
d="M41 1434h162l233 -1248l232 1248h147l-268 -1434h-236z" />
    <glyph glyph-name="W" unicode="W" horiz-adv-x="1193" 
d="M604 973l-141 -973h-219l-197 1434h156l168 -1221l159 1219h158l158 -1221l162 1223h139l-195 -1434h-211z" />
    <glyph glyph-name="X" unicode="X" horiz-adv-x="890" 
d="M676 0l-238 618l-239 -618h-152l289 739l-270 695h165l222 -574l223 574h149l-268 -695l287 -739h-168z" />
    <glyph glyph-name="Y" unicode="Y" horiz-adv-x="831" 
d="M336 0v514l-303 920h166l223 -705l225 705h152l-305 -920v-514h-158z" />
    <glyph glyph-name="Z" unicode="Z" horiz-adv-x="776" 
d="M711 145v-145h-652v143l492 1145h-469v146h633v-144l-494 -1145h490z" />
    <glyph glyph-name="bracketleft" unicode="[" horiz-adv-x="495" 
d="M250 131h188v-131h-346v1434h346v-131h-188v-1172z" />
    <glyph glyph-name="backslash" unicode="\" horiz-adv-x="770" 
d="M33 1434h139l565 -1434h-139z" />
    <glyph glyph-name="bracketright" unicode="]" horiz-adv-x="495" 
d="M57 131h187v1172h-187v131h346v-1434h-346v131z" />
    <glyph glyph-name="asciicircum" unicode="^" horiz-adv-x="825" 
d="M412 1288l-228 -489h-129l299 635h117l299 -635h-129z" />
    <glyph glyph-name="underscore" unicode="_" horiz-adv-x="1038" 
d="M27 -20h977v-117h-977v117z" />
    <glyph glyph-name="grave" unicode="`" horiz-adv-x="456" 
d="M88 1737h166l141 -211h-116z" />
    <glyph glyph-name="a" unicode="a" horiz-adv-x="864" 
d="M606 289h-362l-56 -289h-147l274 1434h232l274 -1434h-159zM422 1253l-158 -827h320z" />
    <glyph glyph-name="b" unicode="b" horiz-adv-x="802" 
d="M82 1434h321q164 0 238 -78.5t74 -239.5v-67q0 -118 -38.5 -187.5t-129.5 -97.5q192 -54 192 -307v-121q0 -164 -81 -250t-246 -86h-330v1434zM242 825h123q100 0 146 41.5t46 149.5v84q0 97 -36.5 142.5t-121.5 45.5h-157v-463zM242 145h170q88 0 129 47.5t41 147.5v127
q0 117 -47.5 165t-153.5 48h-139v-535z" />
    <glyph glyph-name="c" unicode="c" horiz-adv-x="778" 
d="M391 1448q161 0 242.5 -96.5t81.5 -264.5v-129h-152v138q0 207 -168 207q-84 0 -126 -54t-42 -153v-758q0 -99 42 -153t126 -54q168 0 168 207v186h152v-178q0 -168 -81.5 -264t-242.5 -96q-160 0 -240.5 96t-80.5 264v741q0 168 80.5 264.5t240.5 96.5z" />
    <glyph glyph-name="d" unicode="d" horiz-adv-x="811" 
d="M82 1434h336q163 0 244 -93.5t81 -263.5v-723q0 -169 -81 -261.5t-244 -92.5h-336v1434zM242 145h174q170 0 170 203v737q0 203 -172 203h-172v-1143z" />
    <glyph glyph-name="e" unicode="e" horiz-adv-x="737" 
d="M242 799h350v-144h-350v-510h430v-145h-590v1434h590v-146h-430v-489z" />
    <glyph glyph-name="f" unicode="f" horiz-adv-x="696" 
d="M242 766h329v-145h-329v-621h-160v1434h569v-146h-409v-522z" />
    <glyph glyph-name="g" unicode="g" horiz-adv-x="784" 
d="M391 1448q161 0 242.5 -96.5t81.5 -264.5v-122h-152v131q0 207 -168 207q-84 0 -126 -54t-42 -153v-758q0 -99 42 -153t126 -54q168 0 168 207v287h-147v143h299v-422q0 -168 -81.5 -264t-242.5 -96q-160 0 -240.5 96t-80.5 264v741q0 168 80.5 264.5t240.5 96.5z" />
    <glyph glyph-name="h" unicode="h" horiz-adv-x="835" 
d="M594 645h-352v-645h-160v1434h160v-646h352v646h160v-1434h-160v645z" />
    <glyph glyph-name="i" unicode="i" horiz-adv-x="323" 
d="M82 1434h160v-1434h-160v1434z" />
    <glyph glyph-name="j" unicode="j" horiz-adv-x="522" 
d="M41 0v145q27 -2 80 -2q83 5 125.5 51t42.5 150v1090h157v-1080q0 -349 -305 -356q-82 0 -100 2z" />
    <glyph glyph-name="k" unicode="k" horiz-adv-x="837" 
d="M633 0l-307 623l-84 -142v-481h-160v1434h160v-693l381 693h161l-362 -654l375 -780h-164z" />
    <glyph glyph-name="l" unicode="l" horiz-adv-x="690" 
d="M651 0h-569v1434h160v-1289h409v-145z" />
    <glyph glyph-name="m" unicode="m" horiz-adv-x="1071" 
d="M838 1153l-228 -1151h-153l-238 1141v-1143h-139v1434h223l236 -1145l227 1145h223v-1434h-151v1153z" />
    <glyph glyph-name="n" unicode="n" horiz-adv-x="837" 
d="M223 1159v-1159h-143v1434h203l331 -1037v1037h142v-1434h-166z" />
    <glyph glyph-name="o" unicode="o" horiz-adv-x="796" 
d="M70 346v741q0 169 83 265t244 96q162 0 246 -96t84 -265v-741q0 -167 -84 -263.5t-246 -96.5q-160 0 -243.5 96.5t-83.5 263.5zM227 1096v-758q0 -100 42.5 -153.5t127.5 -53.5q170 0 170 207v758q0 99 -42 153t-128 54q-85 0 -127.5 -54t-42.5 -153z" />
    <glyph glyph-name="p" unicode="p" horiz-adv-x="759" 
d="M82 1434h313q164 0 243 -91.5t79 -259.5v-172q0 -346 -334 -346h-141v-565h-160v1434zM242 709h141q91 0 133.5 45.5t42.5 146.5v191q0 100 -39 148t-125 48h-153v-579z" />
    <glyph glyph-name="q" unicode="q" horiz-adv-x="802" 
d="M397 1448q162 0 246 -96t84 -265v-741q0 -138 -55 -223q12 -25 32.5 -35t55.5 -10h20v-141h-26q-132 0 -183 92q-72 -43 -174 -43q-160 0 -243.5 96.5t-83.5 263.5v741q0 169 83 265t244 96zM397 1303q-85 0 -127.5 -54t-42.5 -153v-758q0 -100 42.5 -153.5t127.5 -53.5
q170 0 170 207v758q0 99 -42 153t-128 54z" />
    <glyph glyph-name="r" unicode="r" horiz-adv-x="806" 
d="M82 1434h319q166 0 243 -82.5t77 -245.5v-117q0 -239 -178 -295q95 -28 137.5 -103.5t42.5 -195.5v-223q0 -119 29 -172h-162q-27 62 -27 174v225q0 117 -52 165t-157 48h-112v-612h-160v1434zM242 758h118q102 0 152.5 42.5t50.5 153.5v138q0 99 -39.5 147.5
t-126.5 48.5h-155v-530z" />
    <glyph glyph-name="s" unicode="s" horiz-adv-x="761" 
d="M383 1448q159 0 239 -95t80 -263v-39h-151v47q0 205 -164 205t-164 -203q0 -65 26.5 -121.5t69 -99.5t94 -84.5t103 -86t94 -94t69 -119t26.5 -151.5q0 -167 -82 -262.5t-242 -95.5t-241 95t-81 263v82h150v-90q0 -205 168 -205t168 205q0 64 -26.5 120t-68.5 99
t-93.5 84.5t-102.5 86t-93 94t-68.5 119t-26.5 151.5q0 170 79.5 264t237.5 94z" />
    <glyph glyph-name="t" unicode="t" horiz-adv-x="737" 
d="M446 0h-157v1288h-264v146h686v-146h-265v-1288z" />
    <glyph glyph-name="u" unicode="u" 
d="M233 1434v-1096q0 -207 168 -207q166 0 166 207v1096h150v-1088q0 -169 -80.5 -265.5t-241.5 -96.5q-159 0 -239 96.5t-80 265.5v1088h157z" />
    <glyph glyph-name="v" unicode="v" horiz-adv-x="856" 
d="M41 1434h162l233 -1248l232 1248h147l-268 -1434h-236z" />
    <glyph glyph-name="w" unicode="w" horiz-adv-x="1193" 
d="M604 973l-141 -973h-219l-197 1434h156l168 -1221l159 1219h158l158 -1221l162 1223h139l-195 -1434h-211z" />
    <glyph glyph-name="x" unicode="x" horiz-adv-x="890" 
d="M676 0l-238 618l-239 -618h-152l289 739l-270 695h165l222 -574l223 574h149l-268 -695l287 -739h-168z" />
    <glyph glyph-name="y" unicode="y" horiz-adv-x="831" 
d="M336 0v514l-303 920h166l223 -705l225 705h152l-305 -920v-514h-158z" />
    <glyph glyph-name="z" unicode="z" horiz-adv-x="776" 
d="M711 145v-145h-652v143l492 1145h-469v146h633v-144l-494 -1145h490z" />
    <glyph glyph-name="braceleft" unicode="{" horiz-adv-x="526" 
d="M477 1303h-39q-62 0 -86.5 -36.5t-29.5 -121.5l-13 -232q-2 -36 -7.5 -63.5t-19 -55t-40.5 -47.5t-66 -30q74 -20 101.5 -70t31.5 -127l13 -231q5 -85 29.5 -121.5t86.5 -36.5h39v-131h-94q-189 0 -205 219l-14 279q-5 80 -28.5 112.5t-94.5 38.5v135q71 6 94.5 38.5
t28.5 113.5l14 278q16 220 205 220h94v-131z" />
    <glyph glyph-name="bar" unicode="|" horiz-adv-x="763" 
d="M324 1524h131v-1614h-131v1614z" />
    <glyph glyph-name="braceright" unicode="}" horiz-adv-x="526" 
d="M49 1434h94q94 0 145.5 -57t57.5 -163l16 -278q5 -81 27.5 -113.5t93.5 -38.5v-135q-71 -6 -93.5 -38t-27.5 -113l-16 -279q-6 -106 -57.5 -162.5t-145.5 -56.5h-94v131h39q62 0 87 36.5t30 121.5l12 231q2 37 7.5 64t18.5 55t40 48t67 30q-32 8 -56 23.5t-38 33
t-22.5 42t-12 46.5t-4.5 51l-12 232q-5 85 -30 121.5t-87 36.5h-39v131z" />
    <glyph glyph-name="asciitilde" unicode="~" horiz-adv-x="811" 
d="M256 840q39 1 84 -19t78.5 -43.5t73.5 -43.5t71 -19q36 0 63.5 25t69.5 87l78 -77q-56 -86 -104.5 -121t-106.5 -37q-39 -1 -83 19t-77.5 44t-74 44t-72.5 20q-39 0 -68.5 -25.5t-72.5 -89.5l-78 74q59 88 109.5 125t109.5 37z" />
    <glyph glyph-name="uni00A0" unicode="&#xa0;" horiz-adv-x="317" 
 />
    <glyph glyph-name="exclamdown" unicode="&#xa1;" horiz-adv-x="323" 
d="M84 1434h154v-197h-154v197zM82 0v633l20 483h119l21 -483v-633h-160z" />
    <glyph glyph-name="cent" unicode="&#xa2;" 
d="M461 1454v-100q130 -17 195 -108.5t65 -241.5v-82h-150v90q0 202 -168 202q-167 0 -167 -206v-582q0 -205 167 -205q168 0 168 205v137h150v-127q0 -152 -65 -244.5t-195 -109.5v-102h-131v102q-127 18 -190.5 111.5t-63.5 242.5v561q0 150 63.5 243.5t190.5 111.5v102
h131z" />
    <glyph glyph-name="sterling" unicode="&#xa3;" horiz-adv-x="800" 
d="M410 1448q159 0 238 -98t79 -267v-114h-152v123q0 211 -161 211q-164 0 -164 -209q0 -86 17.5 -162t39.5 -122t50 -109.5t42 -114.5h275v-125h-264q2 -85 -31.5 -160t-110.5 -156h453v-145h-653v139q90 36 147.5 121.5t50.5 200.5h-170v125h150q-15 48 -45 110
t-52.5 107.5t-40.5 120.5t-18 161q0 170 79.5 266.5t240.5 96.5z" />
    <glyph glyph-name="currency" unicode="&#xa4;" horiz-adv-x="761" 
d="M692 963l-106 -107q45 -61 45 -139q0 -81 -45 -142l106 -104l-65 -63l-105 102q-62 -43 -141 -43q-76 0 -141 43l-105 -102l-63 63l104 104q-45 61 -45 142q0 82 45 139l-104 107l63 63l107 -104q61 45 139 45q77 0 141 -45l105 104zM381 868q-63 0 -107.5 -44
t-44.5 -107t44.5 -107.5t107.5 -44.5t108.5 44.5t45.5 107.5t-45.5 107t-108.5 44z" />
    <glyph glyph-name="yen" unicode="&#xa5;" horiz-adv-x="847" 
d="M709 475h-205v-121h205v-82h-205v-272h-160v272h-205v82h205v121h-205v84h193l-295 875h166l227 -701l229 701h152l-297 -875h195v-84z" />
    <glyph glyph-name="brokenbar" unicode="&#xa6;" horiz-adv-x="765" 
d="M324 840v684h131v-684h-131zM324 -90v684h131v-684h-131z" />
    <glyph glyph-name="section" unicode="&#xa7;" 
d="M397 1448q146 0 231 -73.5t85 -196.5v-56h-152v35q0 71 -44.5 114.5t-115.5 43.5q-73 0 -119 -37.5t-46 -108.5q-1 -42 25 -75t68.5 -56t93.5 -45.5t102.5 -51t94 -64.5t69 -94t26.5 -132q0 -86 -45.5 -153.5t-124.5 -106.5q81 -44 127 -106t45 -158q-2 -120 -90 -195
t-230 -75q-149 0 -235 72.5t-86 197.5v84h151v-64q0 -73 46.5 -115t119.5 -42q69 0 116 37.5t48 105.5q1 43 -25 76t-68.5 56.5t-94 45.5t-103 50.5t-94 64t-68.5 92.5t-26 131q0 87 48.5 154t129.5 104q-85 49 -132.5 110t-47.5 159q2 124 88 198t233 74zM391 844
q-68 -11 -115 -64t-47 -125q-1 -40 13.5 -71.5t45 -55.5t56.5 -39t68 -34q66 15 108.5 67.5t42.5 124.5q0 70 -45 114.5t-127 82.5z" />
    <glyph glyph-name="dieresis" unicode="&#xa8;" horiz-adv-x="448" 
d="M72 1702h139v-184h-139v184zM238 1702h139v-184h-139v184z" />
    <glyph glyph-name="copyright" unicode="&#xa9;" horiz-adv-x="1519" 
d="M760 1442q150 0 281 -55t223.5 -150.5t146 -230.5t53.5 -289t-53.5 -289t-146 -230.5t-223.5 -150.5t-281 -55q-200 0 -361.5 93.5t-252.5 259.5t-91 372t91 372t252.5 259.5t361.5 93.5zM760 1339q-170 0 -307.5 -81t-215 -223t-77.5 -318t77.5 -318.5t215 -223.5
t307.5 -81t307.5 81t215 223.5t77.5 318.5t-77.5 318t-215 223t-307.5 81zM752 1167q111 0 167 -67.5t56 -186.5v-61h-107v70q0 141 -114 141q-57 0 -86 -37t-29 -104v-410q0 -67 29 -104t86 -37q114 0 114 141v100h107v-94q0 -118 -56 -185t-167 -67q-112 0 -168 67
t-56 185v395q0 119 56 186.5t168 67.5z" />
    <glyph glyph-name="ordfeminine" unicode="&#xaa;" horiz-adv-x="563" 
d="M301 1444q186 0 186 -225v-535h-88l-6 113q-40 -123 -160 -123q-82 0 -123.5 52.5t-41.5 150.5v8q0 57 17.5 100t46 69.5t70.5 43.5t85.5 24t97.5 8v103q0 117 -88 117q-102 0 -102 -125v-37h-97v31q0 106 50 165.5t153 59.5zM385 891v162q-101 -5 -157 -44t-56 -110v-14
q0 -115 100 -115q51 0 79 32t34 89zM70 567h417v-102h-417v102z" />
    <glyph glyph-name="guillemotleft" unicode="&#xab;" horiz-adv-x="655" 
d="M178 184l-129 535l129 514h146l-129 -514l129 -535h-146zM463 184l-131 535l131 514h143l-129 -514l129 -535h-143z" />
    <glyph glyph-name="logicalnot" unicode="&#xac;" horiz-adv-x="794" 
d="M618 659h-557v115h672v-391h-115v276z" />
    <glyph glyph-name="uni00AD" unicode="&#xad;" horiz-adv-x="542" 
d="M76 645v143h391v-143h-391z" />
    <glyph glyph-name="registered" unicode="&#xae;" horiz-adv-x="1519" 
d="M760 1442q150 0 281 -55t223.5 -150.5t146 -230.5t53.5 -289t-53.5 -289t-146 -230.5t-223.5 -150.5t-281 -55q-200 0 -361.5 93.5t-252.5 259.5t-91 372t91 372t252.5 259.5t361.5 93.5zM760 1339q-170 0 -307.5 -81t-215 -223t-77.5 -318t77.5 -318.5t215 -223.5
t307.5 -81t307.5 81t215 223.5t77.5 318.5t-77.5 318t-215 223t-307.5 81zM547 1155h223q115 0 169 -57.5t54 -171.5v-21q0 -163 -119 -207q119 -40 119 -204v-95q0 -80 23 -120h-117q-16 39 -16 120v95q0 82 -37.5 114.5t-112.5 32.5h-76v-362h-110v876zM657 745h93
q66 0 98.5 31t32.5 105v32q0 70 -27 105t-90 35h-107v-308z" />
    <glyph glyph-name="macron" unicode="&#xaf;" horiz-adv-x="514" 
d="M41 1638h434v-114h-434v114z" />
    <glyph glyph-name="degree" unicode="&#xb0;" horiz-adv-x="448" 
d="M223 1450q74 0 126 -51.5t52 -124.5t-52 -124.5t-126 -51.5q-72 0 -124 51.5t-52 124.5t52 124.5t124 51.5zM223 1374q-42 0 -71 -29t-29 -71q0 -41 29.5 -70.5t70.5 -29.5q42 0 72.5 29.5t30.5 70.5q0 42 -30.5 71t-72.5 29z" />
    <glyph glyph-name="plusminus" unicode="&#xb1;" horiz-adv-x="802" 
d="M76 485h268v203h-268v115h268v256h115v-256h268v-115h-268v-203h268v-114h-651v114z" />
    <glyph glyph-name="twosuperior" unicode="&#xb2;" horiz-adv-x="563" 
d="M291 1640q103 0 154 -61.5t51 -169.5q0 -65 -22.5 -124.5t-57 -102.5t-74 -88.5t-74 -83.5t-58 -87t-24.5 -98v-12h299v-94h-401v78q0 68 23 128.5t57 102.5t74.5 87t74.5 84t57 93.5t23 114.5q0 139 -106 139q-105 0 -105 -133v-78h-98v72q0 108 51.5 170.5t155.5 62.5z
" />
    <glyph glyph-name="threesuperior" unicode="&#xb3;" horiz-adv-x="563" 
d="M283 1638q102 0 153 -61t51 -170v-23q0 -143 -106 -186q106 -40 106 -188v-70q0 -109 -51 -170t-153 -61q-103 0 -155 61t-52 170v61h98v-69q0 -129 105 -129q106 0 106 139v70q0 133 -113 133h-55v94h59q50 0 79.5 33.5t29.5 91.5v41q0 139 -106 139q-105 0 -105 -129
v-47h-98v39q0 109 52 170t155 61z" />
    <glyph glyph-name="acute" unicode="&#xb4;" horiz-adv-x="456" 
d="M207 1737h158l-191 -211h-111z" />
    <glyph glyph-name="uni00B5" unicode="&#xb5;" horiz-adv-x="815" 
d="M586 0v147q-28 -74 -84 -117.5t-123 -43.5q-52 0 -87.5 25.5t-51.5 68.5v-268h-160v1212h160v-684q0 -99 41.5 -153t124.5 -54t124 54t41 153v684h160v-1024h-145z" />
    <glyph glyph-name="paragraph" unicode="&#xb6;" horiz-adv-x="811" 
d="M600 1317h-184v-1446h-117l2 696q-131 3 -196.5 93.5t-65.5 250.5v176q0 347 309 347h369v-1563h-117v1446z" />
    <glyph glyph-name="periodcentered" unicode="&#xb7;" horiz-adv-x="317" 
d="M82 825h154v-198h-154v198z" />
    <glyph glyph-name="cedilla" unicode="&#xb8;" horiz-adv-x="509" 
d="M293 18v-98q74 0 112.5 -22.5t38.5 -77.5q0 -38 -15 -63.5t-43 -38.5t-59.5 -18t-74.5 -5q-84 0 -136.5 28.5t-52.5 92.5v16h109v-14q0 -31 23.5 -45.5t56.5 -16.5q35 0 58.5 17t23.5 51q0 65 -96 65h-17v129h72z" />
    <glyph glyph-name="onesuperior" unicode="&#xb9;" horiz-adv-x="387" 
d="M61 1434v75q67 1 100.5 31.5t55.5 87.5h72v-909h-103v751q-52 -30 -125 -36z" />
    <glyph glyph-name="ordmasculine" unicode="&#xba;" horiz-adv-x="567" 
d="M283 1444q103 0 157 -62t54 -168v-313q0 -106 -54 -167.5t-157 -61.5t-156 61.5t-53 167.5v313q0 106 53 168t156 62zM283 1350q-107 0 -107 -129v-326q0 -129 107 -129q106 0 106 129v326q0 129 -106 129zM76 569h418v-102h-418v102z" />
    <glyph glyph-name="guillemotright" unicode="&#xbb;" horiz-adv-x="655" 
d="M49 184l129 535l-129 514h144l131 -514l-131 -535h-144zM332 184l129 535l-129 514h143l131 -514l-131 -535h-143z" />
    <glyph glyph-name="onequarter" unicode="&#xbc;" horiz-adv-x="1181" 
d="M242 524v752q-54 -31 -125 -37v76q67 1 99.5 31.5t55.5 87.5h72v-910h-102zM940 1434l-565 -1434h-96l565 1434h96zM1057 180v-180h-103v180h-292v96l280 633h115v-633h69v-96h-69zM756 276h198v435z" />
    <glyph glyph-name="onehalf" unicode="&#xbd;" horiz-adv-x="1226" 
d="M242 524v752q-54 -31 -125 -37v76q67 1 99.5 31.5t55.5 87.5h72v-910h-102zM803 1434h96l-565 -1434h-96zM954 922q103 0 154 -62t51 -170q0 -76 -31.5 -144t-76.5 -119t-90 -99t-77.5 -104.5t-33.5 -114.5v-15h299v-94h-401v78q0 68 23 128.5t57 102.5t74.5 87t74.5 84
t57 93.5t23 114.5q0 139 -107 139q-104 0 -104 -133v-78h-98v72q0 109 51 171.5t155 62.5z" />
    <glyph glyph-name="threequarters" unicode="&#xbe;" horiz-adv-x="1232" 
d="M283 1444q102 0 153 -61.5t51 -170.5v-22q0 -143 -106 -186q106 -40 106 -189v-70q0 -109 -51 -170t-153 -61q-103 0 -155 61t-52 170v62h98v-70q0 -129 105 -129q106 0 106 140v69q0 133 -113 133h-55v94h59q50 0 79.5 33.5t29.5 91.5v41q0 140 -106 140
q-105 0 -105 -129v-47h-98v38q0 109 52 170.5t155 61.5zM344 0l565 1434h97l-566 -1434h-96zM1006 0v180h-293v96l280 633h115v-633h70v-96h-70v-180h-102zM1006 711l-199 -435h199v435z" />
    <glyph glyph-name="questiondown" unicode="&#xbf;" horiz-adv-x="739" 
d="M319 1434h154v-199h-154v199zM324 1114h141q12 -38 12 -82q0 -73 -20.5 -137t-50.5 -108t-65 -94t-64.5 -95.5t-49.5 -112.5t-20 -145q0 -211 164 -211t164 211v127h151v-117q0 -169 -79.5 -266.5t-239.5 -97.5q-161 0 -239.5 96t-78.5 266q0 81 21 152t52.5 119.5
t68 99.5t68 93.5t52.5 101t21 122.5q0 45 -8 78z" />
    <glyph glyph-name="Agrave" unicode="&#xc0;" horiz-adv-x="864" 
d="M225 1720h164l143 -211h-116zM606 289h-362l-56 -289h-147l274 1434h232l274 -1434h-159zM422 1253l-158 -827h320z" />
    <glyph glyph-name="Aacute" unicode="&#xc1;" horiz-adv-x="864" 
d="M467 1720h158l-189 -211h-112zM606 289h-362l-56 -289h-147l274 1434h232l274 -1434h-159zM422 1253l-158 -827h320z" />
    <glyph glyph-name="Acircumflex" unicode="&#xc2;" horiz-adv-x="864" 
d="M430 1630l-108 -121h-140l176 205h144l176 -205h-139zM606 289h-362l-56 -289h-147l274 1434h232l274 -1434h-159zM422 1253l-158 -827h320z" />
    <glyph glyph-name="Atilde" unicode="&#xc3;" horiz-adv-x="864" 
d="M330 1692q45 0 102.5 -31t85.5 -31q55 3 82 62l80 -56q-48 -116 -145 -116q-44 -1 -102 29t-87 30t-49 -13.5t-37 -47.5l-80 55q45 116 150 119zM606 289h-362l-56 -289h-147l274 1434h232l274 -1434h-159zM422 1253l-158 -827h320z" />
    <glyph glyph-name="Adieresis" unicode="&#xc4;" horiz-adv-x="864" 
d="M233 1694h140v-185h-140v185zM487 1694h140v-185h-140v185zM606 289h-362l-56 -289h-147l274 1434h232l274 -1434h-159zM422 1253l-158 -827h320z" />
    <glyph glyph-name="Aring" unicode="&#xc5;" horiz-adv-x="864" 
d="M430 1808q63 0 106.5 -43t43.5 -106q0 -64 -43.5 -107t-106.5 -43q-65 0 -108 43t-43 107q0 63 43.5 106t107.5 43zM430 1733q-32 0 -54 -21.5t-22 -52.5q0 -32 22 -53t54 -21q31 0 52.5 21t21.5 53q0 31 -21.5 52.5t-52.5 21.5zM606 289h-362l-56 -289h-147l274 1434
h232l274 -1434h-159zM422 1253l-158 -827h320z" />
    <glyph glyph-name="AE" unicode="&#xc6;" horiz-adv-x="1198" 
d="M727 799h330v-144h-330v-510h406v-145h-564v291h-293l-92 -291h-151l446 1434h654v-146h-406v-489zM569 1233l-256 -803h256v803z" />
    <glyph glyph-name="Ccedilla" unicode="&#xc7;" horiz-adv-x="778" 
d="M391 1448q161 0 242.5 -96.5t81.5 -264.5v-129h-152v138q0 207 -168 207q-84 0 -126 -54t-42 -153v-758q0 -99 42 -153t126 -54q168 0 168 207v186h152v-178q0 -159 -72.5 -254t-216.5 -104v-64q72 0 112 -27.5t40 -76.5q0 -62 -51.5 -96.5t-143.5 -34.5
q-89 0 -138.5 33.5t-49.5 93.5v16h104v-14q0 -25 22 -41t62 -19q41 0 64.5 17.5t23.5 48.5q0 29 -26.5 45t-73.5 16h-19v103q-141 10 -211.5 105t-70.5 253v741q0 168 80.5 264.5t240.5 96.5z" />
    <glyph glyph-name="Egrave" unicode="&#xc8;" horiz-adv-x="737" 
d="M176 1731h166l141 -211h-116zM242 799h350v-144h-350v-510h430v-145h-590v1434h590v-146h-430v-489z" />
    <glyph glyph-name="Eacute" unicode="&#xc9;" horiz-adv-x="737" 
d="M422 1724h158l-191 -211h-110zM242 799h350v-144h-350v-510h430v-145h-590v1434h590v-146h-430v-489z" />
    <glyph glyph-name="Ecircumflex" unicode="&#xca;" horiz-adv-x="737" 
d="M373 1636l-107 -123h-139l176 207h141l179 -207h-140zM242 799h350v-144h-350v-510h430v-145h-590v1434h590v-146h-430v-489z" />
    <glyph glyph-name="Edieresis" unicode="&#xcb;" horiz-adv-x="737" 
d="M178 1698h139v-185h-139v185zM432 1698h139v-185h-139v185zM242 799h350v-144h-350v-510h430v-145h-590v1434h590v-146h-430v-489z" />
    <glyph glyph-name="Igrave" unicode="&#xcc;" horiz-adv-x="323" 
d="M139 1513l-190 211h166l143 -211h-119zM82 0v1434h160v-1434h-160z" />
    <glyph glyph-name="Iacute" unicode="&#xcd;" horiz-adv-x="323" 
d="M63 1513l142 211h160l-191 -211h-111zM82 0v1434h160v-1434h-160z" />
    <glyph glyph-name="Icircumflex" unicode="&#xce;" horiz-adv-x="323" 
d="M90 1718h141l179 -205h-140l-108 121l-109 -121h-139zM82 0v1434h160v-1434h-160z" />
    <glyph glyph-name="Idieresis" unicode="&#xcf;" horiz-adv-x="323" 
d="M-35 1698h139v-185h-139v185zM219 1698h139v-185h-139v185zM82 1434h160v-1434h-160v1434z" />
    <glyph glyph-name="Eth" unicode="&#xd0;" horiz-adv-x="811" 
d="M82 1434h336q163 0 244 -93.5t81 -263.5v-723q0 -169 -81 -261.5t-244 -92.5h-336v651h-84v131h84v652zM401 782v-131h-159v-506h174q170 0 170 203v737q0 203 -172 203h-172v-506h159z" />
    <glyph glyph-name="Ntilde" unicode="&#xd1;" horiz-adv-x="837" 
d="M590 1700l80 -53q-48 -119 -146 -119q-43 -1 -101 29.5t-87 29.5q-56 0 -86 -59l-80 53q47 119 152 119q43 0 100.5 -30.5t85.5 -29.5q54 0 82 60zM223 1159v-1159h-143v1434h203l331 -1037v1037h142v-1434h-166z" />
    <glyph glyph-name="Ograve" unicode="&#xd2;" horiz-adv-x="796" 
d="M190 1731h166l142 -211h-117zM397 1448q162 0 246 -96t84 -265v-741q0 -167 -84 -263.5t-246 -96.5q-160 0 -243.5 96.5t-83.5 263.5v741q0 169 83 265t244 96zM397 1303q-85 0 -127.5 -54t-42.5 -153v-758q0 -100 42.5 -153.5t127.5 -53.5q170 0 170 207v758
q0 99 -42 153t-128 54z" />
    <glyph glyph-name="Oacute" unicode="&#xd3;" horiz-adv-x="796" 
d="M442 1731h158l-190 -211h-111zM397 1448q162 0 246 -96t84 -265v-741q0 -167 -84 -263.5t-246 -96.5q-160 0 -243.5 96.5t-83.5 263.5v741q0 169 83 265t244 96zM397 1303q-85 0 -127.5 -54t-42.5 -153v-758q0 -100 42.5 -153.5t127.5 -53.5q170 0 170 207v758
q0 99 -42 153t-128 54z" />
    <glyph glyph-name="Ocircumflex" unicode="&#xd4;" horiz-adv-x="796" 
d="M395 1638l-106 -120h-139l176 206h141l178 -206h-139zM397 1448q162 0 246 -96t84 -265v-741q0 -167 -84 -263.5t-246 -96.5q-160 0 -243.5 96.5t-83.5 263.5v741q0 169 83 265t244 96zM397 1303q-85 0 -127.5 -54t-42.5 -153v-758q0 -100 42.5 -153.5t127.5 -53.5
q170 0 170 207v758q0 99 -42 153t-128 54z" />
    <glyph glyph-name="Otilde" unicode="&#xd5;" horiz-adv-x="796" 
d="M573 1698l78 -56q-44 -116 -145 -116q-42 -1 -101 29t-88 30q-55 0 -86 -61l-79 55q48 116 151 119q44 0 102.5 -31t86.5 -31q26 2 45 16t36 46zM397 1448q162 0 246 -96t84 -265v-741q0 -167 -84 -263.5t-246 -96.5q-160 0 -243.5 96.5t-83.5 263.5v741q0 169 83 265
t244 96zM397 1303q-85 0 -127.5 -54t-42.5 -153v-758q0 -100 42.5 -153.5t127.5 -53.5q170 0 170 207v758q0 99 -42 153t-128 54z" />
    <glyph glyph-name="Odieresis" unicode="&#xd6;" horiz-adv-x="796" 
d="M201 1702h139v-184h-139v184zM455 1702h139v-184h-139v184zM397 1448q162 0 246 -96t84 -265v-741q0 -167 -84 -263.5t-246 -96.5q-160 0 -243.5 96.5t-83.5 263.5v741q0 169 83 265t244 96zM397 1303q-85 0 -127.5 -54t-42.5 -153v-758q0 -100 42.5 -153.5t127.5 -53.5
q170 0 170 207v758q0 99 -42 153t-128 54z" />
    <glyph glyph-name="multiply" unicode="&#xd7;" horiz-adv-x="749" 
d="M670 500l-78 -78l-217 217l-217 -217l-78 78l215 217l-215 215l78 78l217 -215l217 215l78 -78l-217 -215z" />
    <glyph glyph-name="Oslash" unicode="&#xd8;" horiz-adv-x="796" 
d="M717 1458l-51 -135q61 -91 61 -236v-741q0 -167 -84 -263.5t-246 -96.5q-131 0 -209 63l-38 -102l-70 26l51 138q-61 91 -61 235v741q0 169 83 265t244 96q128 0 211 -64l37 101zM227 369l318 848q-42 86 -148 86q-85 0 -127.5 -54t-42.5 -153v-727zM397 131
q170 0 170 207v723l-317 -846q43 -84 147 -84z" />
    <glyph glyph-name="Ugrave" unicode="&#xd9;" 
d="M188 1724h166l144 -211h-119zM717 1434v-1088q0 -169 -80.5 -265.5t-241.5 -96.5q-159 0 -239 96.5t-80 265.5v1088h157v-1096q0 -207 168 -207q166 0 166 207v1096h150z" />
    <glyph glyph-name="Uacute" unicode="&#xda;" 
d="M449 1731h157l-190 -211h-111zM717 1434v-1088q0 -169 -80.5 -265.5t-241.5 -96.5q-159 0 -239 96.5t-80 265.5v1088h157v-1096q0 -207 168 -207q166 0 166 207v1096h150z" />
    <glyph glyph-name="Ucircumflex" unicode="&#xdb;" 
d="M397 1638l-106 -120h-139l176 206h141l178 -206h-139zM717 1434v-1088q0 -169 -80.5 -265.5t-241.5 -96.5q-159 0 -239 96.5t-80 265.5v1088h157v-1096q0 -207 168 -207q166 0 166 207v1096h150z" />
    <glyph glyph-name="Udieresis" unicode="&#xdc;" 
d="M201 1700h141v-184h-141v184zM457 1700h139v-184h-139v184zM717 1434v-1088q0 -169 -80.5 -265.5t-241.5 -96.5q-159 0 -239 96.5t-80 265.5v1088h157v-1096q0 -207 168 -207q166 0 166 207v1096h150z" />
    <glyph glyph-name="Yacute" unicode="&#xdd;" horiz-adv-x="831" 
d="M471 1724h158l-191 -211h-110zM336 0v514l-303 920h166l223 -705l225 705h152l-305 -920v-514h-158z" />
    <glyph glyph-name="Thorn" unicode="&#xde;" horiz-adv-x="772" 
d="M242 1227h153q164 0 243 -91.5t79 -261.5v-169q0 -349 -334 -349h-141v-356h-160v1434h160v-207zM242 502h141q91 0 133.5 44.5t42.5 147.5v191q0 99 -39 147.5t-125 48.5h-153v-579z" />
    <glyph glyph-name="germandbls" unicode="&#xdf;" horiz-adv-x="1492" 
d="M379 1448q160 0 239.5 -95t79.5 -263v-39h-151v47q0 205 -164 205t-164 -203q0 -65 26.5 -121.5t69 -99.5t93.5 -84.5t102.5 -86t94 -94t69 -119t26.5 -151.5q0 -168 -81 -263t-242 -95q-160 0 -241 95t-81 263v82h150v-90q0 -205 168 -205t168 205q0 64 -26.5 120
t-69 99t-93.5 84t-102 86t-93.5 94.5t-69 119t-26.5 151.5q0 170 80 264t238 94zM1118 1448q158 0 238 -95t80 -263v-39h-150v47q0 205 -164 205t-164 -203q0 -65 26.5 -121.5t69 -99.5t93.5 -84.5t102 -86t93.5 -94t69 -119t26.5 -151.5q0 -168 -81 -263t-241 -95
q-161 0 -242 95t-81 263v82h151v-90q0 -205 168 -205t168 205q0 64 -26.5 120t-69 99t-94 84t-102.5 86t-93.5 94.5t-69 119t-26.5 151.5q0 170 80.5 264t238.5 94z" />
    <glyph glyph-name="agrave" unicode="&#xe0;" horiz-adv-x="864" 
d="M225 1720h164l143 -211h-116zM606 289h-362l-56 -289h-147l274 1434h232l274 -1434h-159zM422 1253l-158 -827h320z" />
    <glyph glyph-name="aacute" unicode="&#xe1;" horiz-adv-x="864" 
d="M467 1720h158l-189 -211h-112zM606 289h-362l-56 -289h-147l274 1434h232l274 -1434h-159zM422 1253l-158 -827h320z" />
    <glyph glyph-name="acircumflex" unicode="&#xe2;" horiz-adv-x="864" 
d="M430 1630l-108 -121h-140l176 205h144l176 -205h-139zM606 289h-362l-56 -289h-147l274 1434h232l274 -1434h-159zM422 1253l-158 -827h320z" />
    <glyph glyph-name="atilde" unicode="&#xe3;" horiz-adv-x="864" 
d="M330 1692q45 0 102.5 -31t85.5 -31q55 3 82 62l80 -56q-48 -116 -145 -116q-44 -1 -102 29t-87 30t-49 -13.5t-37 -47.5l-80 55q45 116 150 119zM606 289h-362l-56 -289h-147l274 1434h232l274 -1434h-159zM422 1253l-158 -827h320z" />
    <glyph glyph-name="adieresis" unicode="&#xe4;" horiz-adv-x="864" 
d="M233 1694h140v-185h-140v185zM487 1694h140v-185h-140v185zM606 289h-362l-56 -289h-147l274 1434h232l274 -1434h-159zM422 1253l-158 -827h320z" />
    <glyph glyph-name="aring" unicode="&#xe5;" horiz-adv-x="864" 
d="M430 1808q63 0 106.5 -43t43.5 -106q0 -64 -43.5 -107t-106.5 -43q-65 0 -108 43t-43 107q0 63 43.5 106t107.5 43zM430 1733q-32 0 -54 -21.5t-22 -52.5q0 -32 22 -53t54 -21q31 0 52.5 21t21.5 53q0 31 -21.5 52.5t-52.5 21.5zM606 289h-362l-56 -289h-147l274 1434
h232l274 -1434h-159zM422 1253l-158 -827h320z" />
    <glyph glyph-name="ae" unicode="&#xe6;" horiz-adv-x="1198" 
d="M727 799h330v-144h-330v-510h406v-145h-564v291h-293l-92 -291h-151l446 1434h654v-146h-406v-489zM569 1233l-256 -803h256v803z" />
    <glyph glyph-name="ccedilla" unicode="&#xe7;" horiz-adv-x="778" 
d="M391 1448q161 0 242.5 -96.5t81.5 -264.5v-129h-152v138q0 207 -168 207q-84 0 -126 -54t-42 -153v-758q0 -99 42 -153t126 -54q168 0 168 207v186h152v-178q0 -159 -72.5 -254t-216.5 -104v-64q72 0 112 -27.5t40 -76.5q0 -62 -51.5 -96.5t-143.5 -34.5
q-89 0 -138.5 33.5t-49.5 93.5v16h104v-14q0 -25 22 -41t62 -19q41 0 64.5 17.5t23.5 48.5q0 29 -26.5 45t-73.5 16h-19v103q-141 10 -211.5 105t-70.5 253v741q0 168 80.5 264.5t240.5 96.5z" />
    <glyph glyph-name="egrave" unicode="&#xe8;" horiz-adv-x="737" 
d="M176 1731h166l141 -211h-116zM242 799h350v-144h-350v-510h430v-145h-590v1434h590v-146h-430v-489z" />
    <glyph glyph-name="eacute" unicode="&#xe9;" horiz-adv-x="737" 
d="M422 1724h158l-191 -211h-110zM242 799h350v-144h-350v-510h430v-145h-590v1434h590v-146h-430v-489z" />
    <glyph glyph-name="ecircumflex" unicode="&#xea;" horiz-adv-x="737" 
d="M373 1636l-107 -123h-139l176 207h141l179 -207h-140zM242 799h350v-144h-350v-510h430v-145h-590v1434h590v-146h-430v-489z" />
    <glyph glyph-name="edieresis" unicode="&#xeb;" horiz-adv-x="737" 
d="M178 1698h139v-185h-139v185zM432 1698h139v-185h-139v185zM242 799h350v-144h-350v-510h430v-145h-590v1434h590v-146h-430v-489z" />
    <glyph glyph-name="igrave" unicode="&#xec;" horiz-adv-x="323" 
d="M139 1513l-190 211h166l143 -211h-119zM82 0v1434h160v-1434h-160z" />
    <glyph glyph-name="iacute" unicode="&#xed;" horiz-adv-x="323" 
d="M63 1513l142 211h160l-191 -211h-111zM82 0v1434h160v-1434h-160z" />
    <glyph glyph-name="icircumflex" unicode="&#xee;" horiz-adv-x="323" 
d="M90 1718h141l179 -205h-140l-108 121l-109 -121h-139zM82 0v1434h160v-1434h-160z" />
    <glyph glyph-name="idieresis" unicode="&#xef;" horiz-adv-x="323" 
d="M-35 1698h139v-185h-139v185zM219 1698h139v-185h-139v185zM82 1434h160v-1434h-160v1434z" />
    <glyph glyph-name="eth" unicode="&#xf0;" horiz-adv-x="811" 
d="M82 1434h336q163 0 244 -93.5t81 -263.5v-723q0 -169 -81 -261.5t-244 -92.5h-336v651h-80v129h80v654zM403 780v-129h-161v-506h174q170 0 170 203v737q0 203 -172 203h-172v-508h161z" />
    <glyph glyph-name="ntilde" unicode="&#xf1;" horiz-adv-x="837" 
d="M590 1700l80 -53q-48 -119 -146 -119q-43 -1 -101 29.5t-87 29.5q-56 0 -86 -59l-80 53q47 119 152 119q43 0 100.5 -30.5t85.5 -29.5q54 0 82 60zM223 1159v-1159h-143v1434h203l331 -1037v1037h142v-1434h-166z" />
    <glyph glyph-name="ograve" unicode="&#xf2;" horiz-adv-x="796" 
d="M190 1731h166l142 -211h-117zM397 1448q162 0 246 -96t84 -265v-741q0 -167 -84 -263.5t-246 -96.5q-160 0 -243.5 96.5t-83.5 263.5v741q0 169 83 265t244 96zM397 1303q-85 0 -127.5 -54t-42.5 -153v-758q0 -100 42.5 -153.5t127.5 -53.5q170 0 170 207v758
q0 99 -42 153t-128 54z" />
    <glyph glyph-name="oacute" unicode="&#xf3;" horiz-adv-x="796" 
d="M442 1731h158l-190 -211h-111zM397 1448q162 0 246 -96t84 -265v-741q0 -167 -84 -263.5t-246 -96.5q-160 0 -243.5 96.5t-83.5 263.5v741q0 169 83 265t244 96zM397 1303q-85 0 -127.5 -54t-42.5 -153v-758q0 -100 42.5 -153.5t127.5 -53.5q170 0 170 207v758
q0 99 -42 153t-128 54z" />
    <glyph glyph-name="ocircumflex" unicode="&#xf4;" horiz-adv-x="796" 
d="M395 1638l-106 -120h-139l176 206h141l178 -206h-139zM397 1448q162 0 246 -96t84 -265v-741q0 -167 -84 -263.5t-246 -96.5q-160 0 -243.5 96.5t-83.5 263.5v741q0 169 83 265t244 96zM397 1303q-85 0 -127.5 -54t-42.5 -153v-758q0 -100 42.5 -153.5t127.5 -53.5
q170 0 170 207v758q0 99 -42 153t-128 54z" />
    <glyph glyph-name="otilde" unicode="&#xf5;" horiz-adv-x="796" 
d="M573 1698l78 -56q-44 -116 -145 -116q-42 -1 -101 29t-88 30q-55 0 -86 -61l-79 55q48 116 151 119q44 0 102.5 -31t86.5 -31q26 2 45 16t36 46zM397 1448q162 0 246 -96t84 -265v-741q0 -167 -84 -263.5t-246 -96.5q-160 0 -243.5 96.5t-83.5 263.5v741q0 169 83 265
t244 96zM397 1303q-85 0 -127.5 -54t-42.5 -153v-758q0 -100 42.5 -153.5t127.5 -53.5q170 0 170 207v758q0 99 -42 153t-128 54z" />
    <glyph glyph-name="odieresis" unicode="&#xf6;" horiz-adv-x="796" 
d="M201 1702h139v-184h-139v184zM455 1702h139v-184h-139v184zM397 1448q162 0 246 -96t84 -265v-741q0 -167 -84 -263.5t-246 -96.5q-160 0 -243.5 96.5t-83.5 263.5v741q0 169 83 265t244 96zM397 1303q-85 0 -127.5 -54t-42.5 -153v-758q0 -100 42.5 -153.5t127.5 -53.5
q170 0 170 207v758q0 99 -42 153t-128 54z" />
    <glyph glyph-name="divide" unicode="&#xf7;" horiz-adv-x="716" 
d="M281 1079h153v-198h-153v198zM61 774h594v-115h-594v115zM281 553h153v-199h-153v199z" />
    <glyph glyph-name="oslash" unicode="&#xf8;" horiz-adv-x="796" 
d="M717 1458l-51 -135q61 -91 61 -236v-741q0 -167 -84 -263.5t-246 -96.5q-131 0 -209 63l-38 -102l-70 26l51 138q-61 91 -61 235v741q0 169 83 265t244 96q128 0 211 -64l37 101zM227 369l318 848q-42 86 -148 86q-85 0 -127.5 -54t-42.5 -153v-727zM397 131
q170 0 170 207v723l-317 -846q43 -84 147 -84z" />
    <glyph glyph-name="ugrave" unicode="&#xf9;" 
d="M188 1724h166l144 -211h-119zM717 1434v-1088q0 -169 -80.5 -265.5t-241.5 -96.5q-159 0 -239 96.5t-80 265.5v1088h157v-1096q0 -207 168 -207q166 0 166 207v1096h150z" />
    <glyph glyph-name="uacute" unicode="&#xfa;" 
d="M449 1731h157l-190 -211h-111zM717 1434v-1088q0 -169 -80.5 -265.5t-241.5 -96.5q-159 0 -239 96.5t-80 265.5v1088h157v-1096q0 -207 168 -207q166 0 166 207v1096h150z" />
    <glyph glyph-name="ucircumflex" unicode="&#xfb;" 
d="M397 1638l-106 -120h-139l176 206h141l178 -206h-139zM717 1434v-1088q0 -169 -80.5 -265.5t-241.5 -96.5q-159 0 -239 96.5t-80 265.5v1088h157v-1096q0 -207 168 -207q166 0 166 207v1096h150z" />
    <glyph glyph-name="udieresis" unicode="&#xfc;" 
d="M201 1700h141v-184h-141v184zM457 1700h139v-184h-139v184zM717 1434v-1088q0 -169 -80.5 -265.5t-241.5 -96.5q-159 0 -239 96.5t-80 265.5v1088h157v-1096q0 -207 168 -207q166 0 166 207v1096h150z" />
    <glyph glyph-name="yacute" unicode="&#xfd;" horiz-adv-x="831" 
d="M471 1724h158l-191 -211h-110zM336 0v514l-303 920h166l223 -705l225 705h152l-305 -920v-514h-158z" />
    <glyph glyph-name="thorn" unicode="&#xfe;" horiz-adv-x="772" 
d="M242 1227h153q164 0 243 -91.5t79 -261.5v-169q0 -349 -334 -349h-141v-356h-160v1434h160v-207zM242 502h141q91 0 133.5 44.5t42.5 147.5v191q0 99 -39 147.5t-125 48.5h-153v-579z" />
    <glyph glyph-name="ydieresis" unicode="&#xff;" horiz-adv-x="831" 
d="M223 1698h139v-185h-139v185zM477 1698h139v-185h-139v185zM336 0v514l-303 920h166l223 -705l225 705h152l-305 -920v-514h-158z" />
    <glyph glyph-name="Amacron" unicode="&#x100;" horiz-adv-x="864" 
d="M213 1651h434v-115h-434v115zM606 289h-362l-56 -289h-147l274 1434h232l274 -1434h-159zM422 1253l-158 -827h320z" />
    <glyph glyph-name="amacron" unicode="&#x101;" horiz-adv-x="864" 
d="M213 1651h434v-115h-434v115zM606 289h-362l-56 -289h-147l274 1434h232l274 -1434h-159zM422 1253l-158 -827h320z" />
    <glyph glyph-name="Abreve" unicode="&#x102;" horiz-adv-x="864" 
d="M547 1708h96q0 -95 -57.5 -151t-157.5 -56q-99 0 -154 55.5t-57 151.5h96q5 -106 115 -106q114 0 119 106zM606 289h-362l-56 -289h-147l274 1434h232l274 -1434h-159zM422 1253l-158 -827h320z" />
    <glyph glyph-name="abreve" unicode="&#x103;" horiz-adv-x="864" 
d="M547 1708h96q0 -95 -57.5 -151t-157.5 -56q-99 0 -154 55.5t-57 151.5h96q5 -106 115 -106q114 0 119 106zM606 289h-362l-56 -289h-147l274 1434h232l274 -1434h-159zM422 1253l-158 -827h320z" />
    <glyph glyph-name="Aogonek" unicode="&#x104;" horiz-adv-x="864" 
d="M821 0h-57q-35 -29 -55.5 -69.5t-18.5 -71.5q1 -31 23 -46.5t53 -15.5q38 0 82 19v-84q-57 -25 -127 -25t-111.5 29t-42.5 86q-1 43 25.5 86.5t73.5 77.5l-60 303h-362l-56 -289h-147l274 1434h232zM422 1253l-158 -827h320z" />
    <glyph glyph-name="aogonek" unicode="&#x105;" horiz-adv-x="864" 
d="M821 0h-57q-35 -29 -55.5 -69.5t-18.5 -71.5q1 -31 23 -46.5t53 -15.5q38 0 82 19v-84q-57 -25 -127 -25t-111.5 29t-42.5 86q-1 43 25.5 86.5t73.5 77.5l-60 303h-362l-56 -289h-147l274 1434h232zM422 1253l-158 -827h320z" />
    <glyph glyph-name="Cacute" unicode="&#x106;" horiz-adv-x="778" 
d="M440 1731h160l-190 -211h-113zM391 1448q161 0 242.5 -96.5t81.5 -264.5v-129h-152v138q0 207 -168 207q-84 0 -126 -54t-42 -153v-758q0 -99 42 -153t126 -54q168 0 168 207v186h152v-178q0 -168 -81.5 -264t-242.5 -96q-160 0 -240.5 96t-80.5 264v741
q0 168 80.5 264.5t240.5 96.5z" />
    <glyph glyph-name="cacute" unicode="&#x107;" horiz-adv-x="778" 
d="M440 1731h160l-190 -211h-113zM391 1448q161 0 242.5 -96.5t81.5 -264.5v-129h-152v138q0 207 -168 207q-84 0 -126 -54t-42 -153v-758q0 -99 42 -153t126 -54q168 0 168 207v186h152v-178q0 -168 -81.5 -264t-242.5 -96q-160 0 -240.5 96t-80.5 264v741
q0 168 80.5 264.5t240.5 96.5z" />
    <glyph glyph-name="Ccircumflex" unicode="&#x108;" horiz-adv-x="778" 
d="M395 1636l-108 -120h-140l177 206h141l178 -206h-139zM391 1448q161 0 242.5 -96.5t81.5 -264.5v-129h-152v138q0 207 -168 207q-84 0 -126 -54t-42 -153v-758q0 -99 42 -153t126 -54q168 0 168 207v186h152v-178q0 -168 -81.5 -264t-242.5 -96q-160 0 -240.5 96
t-80.5 264v741q0 168 80.5 264.5t240.5 96.5z" />
    <glyph glyph-name="ccircumflex" unicode="&#x109;" horiz-adv-x="778" 
d="M395 1636l-108 -120h-140l177 206h141l178 -206h-139zM391 1448q161 0 242.5 -96.5t81.5 -264.5v-129h-152v138q0 207 -168 207q-84 0 -126 -54t-42 -153v-758q0 -99 42 -153t126 -54q168 0 168 207v186h152v-178q0 -168 -81.5 -264t-242.5 -96q-160 0 -240.5 96
t-80.5 264v741q0 168 80.5 264.5t240.5 96.5z" />
    <glyph glyph-name="Cdotaccent" unicode="&#x10a;" horiz-adv-x="778" 
d="M322 1696h139v-185h-139v185zM391 1448q161 0 242.5 -96.5t81.5 -264.5v-129h-152v138q0 207 -168 207q-84 0 -126 -54t-42 -153v-758q0 -99 42 -153t126 -54q168 0 168 207v186h152v-178q0 -168 -81.5 -264t-242.5 -96q-160 0 -240.5 96t-80.5 264v741q0 168 80.5 264.5
t240.5 96.5z" />
    <glyph glyph-name="cdotaccent" unicode="&#x10b;" horiz-adv-x="778" 
d="M322 1696h139v-185h-139v185zM391 1448q161 0 242.5 -96.5t81.5 -264.5v-129h-152v138q0 207 -168 207q-84 0 -126 -54t-42 -153v-758q0 -99 42 -153t126 -54q168 0 168 207v186h152v-178q0 -168 -81.5 -264t-242.5 -96q-160 0 -240.5 96t-80.5 264v741q0 168 80.5 264.5
t240.5 96.5z" />
    <glyph glyph-name="Ccaron" unicode="&#x10c;" horiz-adv-x="778" 
d="M150 1722h139l106 -123l109 123h141l-178 -204h-141zM391 1448q161 0 242.5 -96.5t81.5 -264.5v-129h-152v138q0 207 -168 207q-84 0 -126 -54t-42 -153v-758q0 -99 42 -153t126 -54q168 0 168 207v186h152v-178q0 -168 -81.5 -264t-242.5 -96q-160 0 -240.5 96
t-80.5 264v741q0 168 80.5 264.5t240.5 96.5z" />
    <glyph glyph-name="ccaron" unicode="&#x10d;" horiz-adv-x="778" 
d="M150 1722h139l106 -123l109 123h141l-178 -204h-141zM391 1448q161 0 242.5 -96.5t81.5 -264.5v-129h-152v138q0 207 -168 207q-84 0 -126 -54t-42 -153v-758q0 -99 42 -153t126 -54q168 0 168 207v186h152v-178q0 -168 -81.5 -264t-242.5 -96q-160 0 -240.5 96
t-80.5 264v741q0 168 80.5 264.5t240.5 96.5z" />
    <glyph glyph-name="Dcaron" unicode="&#x10e;" horiz-adv-x="811" 
d="M137 1718h139l109 -123l109 123h141l-178 -205h-142zM82 1434h336q163 0 244 -93.5t81 -263.5v-723q0 -169 -81 -261.5t-244 -92.5h-336v1434zM242 145h174q170 0 170 203v737q0 203 -172 203h-172v-1143z" />
    <glyph glyph-name="dcaron" unicode="&#x10f;" horiz-adv-x="811" 
d="M137 1718h139l109 -123l109 123h141l-178 -205h-142zM82 1434h336q163 0 244 -93.5t81 -263.5v-723q0 -169 -81 -261.5t-244 -92.5h-336v1434zM242 145h174q170 0 170 203v737q0 203 -172 203h-172v-1143z" />
    <glyph glyph-name="Dcroat" unicode="&#x110;" horiz-adv-x="811" 
d="M82 1434h336q163 0 244 -93.5t81 -263.5v-723q0 -169 -81 -261.5t-244 -92.5h-336v651h-80v129h80v654zM403 780v-129h-161v-506h174q170 0 170 203v737q0 203 -172 203h-172v-508h161z" />
    <glyph glyph-name="dcroat" unicode="&#x111;" horiz-adv-x="811" 
d="M82 1434h336q163 0 244 -93.5t81 -263.5v-723q0 -169 -81 -261.5t-244 -92.5h-336v651h-80v129h80v654zM403 780v-129h-161v-506h174q170 0 170 203v737q0 203 -172 203h-172v-508h161z" />
    <glyph glyph-name="Emacron" unicode="&#x112;" horiz-adv-x="737" 
d="M158 1653h428v-113h-428v113zM242 799h350v-144h-350v-510h430v-145h-590v1434h590v-146h-430v-489z" />
    <glyph glyph-name="emacron" unicode="&#x113;" horiz-adv-x="737" 
d="M158 1653h428v-113h-428v113zM242 799h350v-144h-350v-510h430v-145h-590v1434h590v-146h-430v-489z" />
    <glyph glyph-name="Ebreve" unicode="&#x114;" horiz-adv-x="737" 
d="M492 1720h96q-2 -97 -59 -152t-158 -55q-98 0 -153.5 55t-57.5 152h96q5 -106 115 -106q113 0 121 106zM242 799h350v-144h-350v-510h430v-145h-590v1434h590v-146h-430v-489z" />
    <glyph glyph-name="ebreve" unicode="&#x115;" horiz-adv-x="737" 
d="M492 1720h96q-2 -97 -59 -152t-158 -55q-98 0 -153.5 55t-57.5 152h96q5 -106 115 -106q113 0 121 106zM242 799h350v-144h-350v-510h430v-145h-590v1434h590v-146h-430v-489z" />
    <glyph glyph-name="Edotaccent" unicode="&#x116;" horiz-adv-x="737" 
d="M307 1700h139v-184h-139v184zM242 799h350v-144h-350v-510h430v-145h-590v1434h590v-146h-430v-489z" />
    <glyph glyph-name="edotaccent" unicode="&#x117;" horiz-adv-x="737" 
d="M307 1700h139v-184h-139v184zM242 799h350v-144h-350v-510h430v-145h-590v1434h590v-146h-430v-489z" />
    <glyph glyph-name="Eogonek" unicode="&#x118;" horiz-adv-x="737" 
d="M242 799h350v-144h-350v-510h430v-145h-68q-36 -29 -56 -69t-20 -72q1 -31 23 -46.5t55 -15.5q36 0 80 19v-84q-57 -25 -125 -25q-71 0 -112.5 29t-42.5 86q0 49 33 95.5t91 82.5h-448v1434h590v-146h-430v-489z" />
    <glyph glyph-name="eogonek" unicode="&#x119;" horiz-adv-x="737" 
d="M242 799h350v-144h-350v-510h430v-145h-68q-36 -29 -56 -69t-20 -72q1 -31 23 -46.5t55 -15.5q36 0 80 19v-84q-57 -25 -125 -25q-71 0 -112.5 29t-42.5 86q0 49 33 95.5t91 82.5h-448v1434h590v-146h-430v-489z" />
    <glyph glyph-name="Ecaron" unicode="&#x11a;" horiz-adv-x="737" 
d="M129 1718h139l107 -123l110 123h140l-179 -205h-141zM242 799h350v-144h-350v-510h430v-145h-590v1434h590v-146h-430v-489z" />
    <glyph glyph-name="ecaron" unicode="&#x11b;" horiz-adv-x="737" 
d="M129 1718h139l107 -123l110 123h140l-179 -205h-141zM242 799h350v-144h-350v-510h430v-145h-590v1434h590v-146h-430v-489z" />
    <glyph glyph-name="Gcircumflex" unicode="&#x11c;" horiz-adv-x="784" 
d="M391 1640l-106 -120h-140l177 204h141l178 -204h-139zM391 1448q161 0 242.5 -96.5t81.5 -264.5v-122h-152v131q0 207 -168 207q-84 0 -126 -54t-42 -153v-758q0 -99 42 -153t126 -54q168 0 168 207v287h-147v143h299v-422q0 -168 -81.5 -264t-242.5 -96
q-160 0 -240.5 96t-80.5 264v741q0 168 80.5 264.5t240.5 96.5z" />
    <glyph glyph-name="gcircumflex" unicode="&#x11d;" horiz-adv-x="784" 
d="M391 1640l-106 -120h-140l177 204h141l178 -204h-139zM391 1448q161 0 242.5 -96.5t81.5 -264.5v-122h-152v131q0 207 -168 207q-84 0 -126 -54t-42 -153v-758q0 -99 42 -153t126 -54q168 0 168 207v287h-147v143h299v-422q0 -168 -81.5 -264t-242.5 -96
q-160 0 -240.5 96t-80.5 264v741q0 168 80.5 264.5t240.5 96.5z" />
    <glyph glyph-name="Gbreve" unicode="&#x11e;" horiz-adv-x="784" 
d="M510 1722h96q-2 -97 -58.5 -151.5t-156.5 -54.5q-99 0 -155 54.5t-58 151.5h96q8 -106 117 -106q111 0 119 106zM391 1448q161 0 242.5 -96.5t81.5 -264.5v-122h-152v131q0 207 -168 207q-84 0 -126 -54t-42 -153v-758q0 -99 42 -153t126 -54q168 0 168 207v287h-147v143
h299v-422q0 -168 -81.5 -264t-242.5 -96q-160 0 -240.5 96t-80.5 264v741q0 168 80.5 264.5t240.5 96.5z" />
    <glyph glyph-name="gbreve" unicode="&#x11f;" horiz-adv-x="784" 
d="M510 1722h96q-2 -97 -58.5 -151.5t-156.5 -54.5q-99 0 -155 54.5t-58 151.5h96q8 -106 117 -106q111 0 119 106zM391 1448q161 0 242.5 -96.5t81.5 -264.5v-122h-152v131q0 207 -168 207q-84 0 -126 -54t-42 -153v-758q0 -99 42 -153t126 -54q168 0 168 207v287h-147v143
h299v-422q0 -168 -81.5 -264t-242.5 -96q-160 0 -240.5 96t-80.5 264v741q0 168 80.5 264.5t240.5 96.5z" />
    <glyph glyph-name="Gdotaccent" unicode="&#x120;" horiz-adv-x="784" 
d="M328 1700h139v-184h-139v184zM391 1448q161 0 242.5 -96.5t81.5 -264.5v-122h-152v131q0 207 -168 207q-84 0 -126 -54t-42 -153v-758q0 -99 42 -153t126 -54q168 0 168 207v287h-147v143h299v-422q0 -168 -81.5 -264t-242.5 -96q-160 0 -240.5 96t-80.5 264v741
q0 168 80.5 264.5t240.5 96.5z" />
    <glyph glyph-name="gdotaccent" unicode="&#x121;" horiz-adv-x="784" 
d="M328 1700h139v-184h-139v184zM391 1448q161 0 242.5 -96.5t81.5 -264.5v-122h-152v131q0 207 -168 207q-84 0 -126 -54t-42 -153v-758q0 -99 42 -153t126 -54q168 0 168 207v287h-147v143h299v-422q0 -168 -81.5 -264t-242.5 -96q-160 0 -240.5 96t-80.5 264v741
q0 168 80.5 264.5t240.5 96.5z" />
    <glyph glyph-name="uni0122" unicode="&#x122;" horiz-adv-x="784" 
d="M391 1448q161 0 242.5 -96.5t81.5 -264.5v-122h-152v131q0 207 -168 207q-84 0 -126 -54t-42 -153v-758q0 -99 42 -153t126 -54q168 0 168 207v287h-147v143h299v-422q0 -168 -81.5 -264t-242.5 -96q-160 0 -240.5 96t-80.5 264v741q0 168 80.5 264.5t240.5 96.5z
M328 -362l47 114h-51v180h135v-165l-72 -129h-59z" />
    <glyph glyph-name="uni0123" unicode="&#x123;" horiz-adv-x="784" 
d="M391 1448q161 0 242.5 -96.5t81.5 -264.5v-122h-152v131q0 207 -168 207q-84 0 -126 -54t-42 -153v-758q0 -99 42 -153t126 -54q168 0 168 207v287h-147v143h299v-422q0 -168 -81.5 -264t-242.5 -96q-160 0 -240.5 96t-80.5 264v741q0 168 80.5 264.5t240.5 96.5z
M330 -362l45 114h-49v180h133v-165l-72 -129h-57z" />
    <glyph glyph-name="Hcircumflex" unicode="&#x124;" horiz-adv-x="835" 
d="M418 1638l-109 -120h-139l178 206h141l177 -206h-140zM594 645h-352v-645h-160v1434h160v-646h352v646h160v-1434h-160v645z" />
    <glyph glyph-name="hcircumflex" unicode="&#x125;" horiz-adv-x="835" 
d="M418 1638l-109 -120h-139l178 206h141l177 -206h-140zM594 645h-352v-645h-160v1434h160v-646h352v646h160v-1434h-160v645z" />
    <glyph glyph-name="Hbar" unicode="&#x126;" horiz-adv-x="849" 
d="M836 1053h-74v-1053h-162v645h-352v-645h-160v1053h-74v118h74v263h160v-263h352v263h162v-263h74v-118zM600 788v265h-352v-265h352z" />
    <glyph glyph-name="hbar" unicode="&#x127;" horiz-adv-x="849" 
d="M836 1053h-74v-1053h-162v645h-352v-645h-160v1053h-74v118h74v263h160v-263h352v263h162v-263h74v-118zM600 788v265h-352v-265h352z" />
    <glyph glyph-name="Itilde" unicode="&#x128;" horiz-adv-x="323" 
d="M334 1696l78 -54q-45 -118 -146 -118q-42 0 -100 30t-88 29q-56 0 -86 -59l-80 53q50 119 151 119q43 0 102 -30.5t87 -29.5q50 0 82 60zM82 1434h160v-1434h-160v1434z" />
    <glyph glyph-name="itilde" unicode="&#x129;" horiz-adv-x="323" 
d="M334 1696l78 -54q-45 -118 -146 -118q-42 0 -100 30t-88 29q-56 0 -86 -59l-80 53q50 119 151 119q43 0 102 -30.5t87 -29.5q50 0 82 60zM82 1434h160v-1434h-160v1434z" />
    <glyph glyph-name="Imacron" unicode="&#x12a;" horiz-adv-x="323" 
d="M-43 1651h408v-115h-408v115zM82 1434h160v-1434h-160v1434z" />
    <glyph glyph-name="imacron" unicode="&#x12b;" horiz-adv-x="323" 
d="M-43 1651h408v-115h-408v115zM82 1434h160v-1434h-160v1434z" />
    <glyph glyph-name="Ibreve" unicode="&#x12c;" horiz-adv-x="323" 
d="M279 1716h96q0 -97 -57.5 -153t-157.5 -56q-99 0 -154 55.5t-57 153.5h96q5 -108 115 -108q111 0 119 108zM82 0v1434h160v-1434h-160z" />
    <glyph glyph-name="ibreve" unicode="&#x12d;" horiz-adv-x="323" 
d="M279 1716h96q0 -97 -57.5 -153t-157.5 -56q-99 0 -154 55.5t-57 153.5h96q5 -108 115 -108q111 0 119 108zM82 0v1434h160v-1434h-160z" />
    <glyph glyph-name="Iogonek" unicode="&#x12e;" horiz-adv-x="323" 
d="M242 0h-29q-36 -29 -56 -69t-18 -72q0 -31 21.5 -46.5t54.5 -15.5q35 0 82 19v-84q-57 -25 -127 -25t-112 29t-42 86q-2 48 31 95t94 83h-59v1434h160v-1434z" />
    <glyph glyph-name="iogonek" unicode="&#x12f;" horiz-adv-x="323" 
d="M242 0h-29q-36 -29 -56 -69t-18 -72q0 -31 21.5 -46.5t54.5 -15.5q35 0 82 19v-84q-57 -25 -127 -25t-112 29t-42 86q-2 48 31 95t94 83h-59v1434h160v-1434z" />
    <glyph glyph-name="Idotaccent" unicode="&#x130;" horiz-adv-x="323" 
d="M92 1698h139v-185h-139v185zM82 1434h160v-1434h-160v1434z" />
    <glyph glyph-name="dotlessi" unicode="&#x131;" horiz-adv-x="323" 
d="M82 1434h160v-1434h-160v1434z" />
    <glyph glyph-name="IJ" unicode="&#x132;" horiz-adv-x="843" 
d="M82 1434h160v-1434h-160v1434zM770 1434v-1080q0 -98 -23 -168.5t-66.5 -110t-97 -57.5t-122.5 -20q-64 0 -99 2v145q27 -2 78 -2q86 5 128 50.5t42 150.5v1090h160z" />
    <glyph glyph-name="ij" unicode="&#x133;" horiz-adv-x="843" 
d="M82 1434h160v-1434h-160v1434zM770 1434v-1080q0 -98 -23 -168.5t-66.5 -110t-97 -57.5t-122.5 -20q-64 0 -99 2v145q27 -2 78 -2q86 5 128 50.5t42 150.5v1090h160z" />
    <glyph glyph-name="Jcircumflex" unicode="&#x134;" horiz-adv-x="522" 
d="M342 1636l-109 -123h-139l176 207h142l178 -207h-139zM446 1434v-1080q0 -349 -305 -356q-82 0 -100 2v145q27 -2 80 -2q83 5 125.5 51t42.5 150v1090h157z" />
    <glyph glyph-name="jcircumflex" unicode="&#x135;" horiz-adv-x="522" 
d="M342 1636l-109 -123h-139l176 207h142l178 -207h-139zM446 1434v-1080q0 -349 -305 -356q-82 0 -100 2v145q27 -2 80 -2q83 5 125.5 51t42.5 150v1090h157z" />
    <glyph glyph-name="uni0136" unicode="&#x136;" horiz-adv-x="837" 
d="M633 0l-307 623l-84 -142v-481h-160v1434h160v-693l381 693h161l-362 -654l375 -780h-164zM356 -362l47 114h-51v180h135v-165l-71 -129h-60z" />
    <glyph glyph-name="uni0137" unicode="&#x137;" horiz-adv-x="837" 
d="M633 0l-307 623l-84 -142v-481h-160v1434h160v-693l381 693h161l-362 -654l375 -780h-164zM356 -362l47 114h-51v180h135v-165l-71 -129h-60z" />
    <glyph glyph-name="kgreenlandic" unicode="&#x138;" horiz-adv-x="837" 
d="M633 0l-307 623l-84 -142v-481h-160v1434h160v-693l381 693h161l-362 -654l375 -780h-164z" />
    <glyph glyph-name="Lacute" unicode="&#x139;" horiz-adv-x="690" 
d="M264 1724h158l-191 -211h-110zM651 0h-569v1434h160v-1289h409v-145z" />
    <glyph glyph-name="lacute" unicode="&#x13a;" horiz-adv-x="690" 
d="M256 1724h160l-191 -211h-110zM651 0h-569v1434h160v-1289h409v-145z" />
    <glyph glyph-name="uni013B" unicode="&#x13b;" horiz-adv-x="690" 
d="M651 0h-569v1434h160v-1289h409v-145zM309 -367l47 117h-51v178h135v-166l-71 -129h-60z" />
    <glyph glyph-name="uni013C" unicode="&#x13c;" horiz-adv-x="690" 
d="M651 0h-569v1434h160v-1289h409v-145zM317 -362l45 114h-49v180h133v-165l-71 -129h-58z" />
    <glyph glyph-name="Lcaron" unicode="&#x13d;" horiz-adv-x="690" 
d="M651 0h-569v1434h160v-1289h409v-145zM444 1055l52 180h-60v199h154v-183l-78 -196h-68z" />
    <glyph glyph-name="lcaron" unicode="&#x13e;" horiz-adv-x="690" 
d="M651 0h-569v1434h160v-1289h409v-145zM444 1055l52 180h-60v199h154v-183l-78 -196h-68z" />
    <glyph glyph-name="Ldot" unicode="&#x13f;" horiz-adv-x="690" 
d="M651 0h-569v1434h160v-1289h409v-145zM403 819h154v-198h-154v198z" />
    <glyph glyph-name="ldot" unicode="&#x140;" horiz-adv-x="690" 
d="M651 0h-569v1434h160v-1289h409v-145zM403 819h154v-198h-154v198z" />
    <glyph glyph-name="Lslash" unicode="&#x141;" horiz-adv-x="712" 
d="M485 827l-223 -231v-451h412v-145h-570v426l-104 -102v147l104 102v861h158v-691l223 232v-148z" />
    <glyph glyph-name="lslash" unicode="&#x142;" horiz-adv-x="712" 
d="M485 827l-223 -231v-451h412v-145h-570v426l-104 -102v147l104 102v861h158v-691l223 232v-148z" />
    <glyph glyph-name="Nacute" unicode="&#x143;" horiz-adv-x="837" 
d="M469 1724h158l-191 -208h-110zM223 1161v-1161h-143v1434h203l331 -1037v1037h142v-1434h-166z" />
    <glyph glyph-name="nacute" unicode="&#x144;" horiz-adv-x="837" 
d="M469 1724h158l-191 -208h-110zM223 1161v-1161h-143v1434h203l331 -1037v1037h142v-1434h-166z" />
    <glyph glyph-name="uni0145" unicode="&#x145;" horiz-adv-x="837" 
d="M223 1159v-1159h-143v1434h203l331 -1037v1037h142v-1434h-166zM354 -362l47 114h-51v180h133v-165l-71 -129h-58z" />
    <glyph glyph-name="uni0146" unicode="&#x146;" horiz-adv-x="837" 
d="M223 1159v-1159h-143v1434h203l331 -1037v1037h142v-1434h-166zM354 -362l47 114h-51v180h133v-165l-71 -129h-58z" />
    <glyph glyph-name="Ncaron" unicode="&#x147;" horiz-adv-x="837" 
d="M172 1724h139l109 -122l108 122h140l-176 -206h-142zM223 1159v-1159h-143v1434h203l331 -1037v1037h142v-1434h-166z" />
    <glyph glyph-name="ncaron" unicode="&#x148;" horiz-adv-x="837" 
d="M172 1724h139l109 -122l108 122h140l-176 -206h-142zM223 1159v-1159h-143v1434h203l331 -1037v1037h142v-1434h-166z" />
    <glyph glyph-name="napostrophe" unicode="&#x149;" horiz-adv-x="1030" 
d="M31 1055l51 180h-59v199h153v-183l-78 -196h-67zM418 1159v-1159h-144v1434h203l332 -1037v1037h141v-1434h-166z" />
    <glyph glyph-name="Omacron" unicode="&#x14c;" horiz-adv-x="796" 
d="M186 1651h426v-113h-426v113zM397 1448q162 0 246 -96t84 -265v-741q0 -167 -84 -263.5t-246 -96.5q-160 0 -243.5 96.5t-83.5 263.5v741q0 169 83 265t244 96zM397 1303q-85 0 -127.5 -54t-42.5 -153v-758q0 -100 42.5 -153.5t127.5 -53.5q170 0 170 207v758
q0 99 -42 153t-128 54z" />
    <glyph glyph-name="omacron" unicode="&#x14d;" horiz-adv-x="796" 
d="M186 1651h426v-113h-426v113zM397 1448q162 0 246 -96t84 -265v-741q0 -167 -84 -263.5t-246 -96.5q-160 0 -243.5 96.5t-83.5 263.5v741q0 169 83 265t244 96zM397 1303q-85 0 -127.5 -54t-42.5 -153v-758q0 -100 42.5 -153.5t127.5 -53.5q170 0 170 207v758
q0 99 -42 153t-128 54z" />
    <glyph glyph-name="Obreve" unicode="&#x14e;" horiz-adv-x="796" 
d="M516 1722h96q-2 -97 -59 -151.5t-158 -54.5q-98 0 -153.5 54.5t-57.5 151.5h97q5 -106 114 -106q113 0 121 106zM397 1448q162 0 246 -96t84 -265v-741q0 -167 -84 -263.5t-246 -96.5q-160 0 -243.5 96.5t-83.5 263.5v741q0 169 83 265t244 96zM397 1303
q-85 0 -127.5 -54t-42.5 -153v-758q0 -100 42.5 -153.5t127.5 -53.5q170 0 170 207v758q0 99 -42 153t-128 54z" />
    <glyph glyph-name="obreve" unicode="&#x14f;" horiz-adv-x="796" 
d="M516 1722h96q-2 -97 -59 -151.5t-158 -54.5q-98 0 -153.5 54.5t-57.5 151.5h97q5 -106 114 -106q113 0 121 106zM397 1448q162 0 246 -96t84 -265v-741q0 -167 -84 -263.5t-246 -96.5q-160 0 -243.5 96.5t-83.5 263.5v741q0 169 83 265t244 96zM397 1303
q-85 0 -127.5 -54t-42.5 -153v-758q0 -100 42.5 -153.5t127.5 -53.5q170 0 170 207v758q0 99 -42 153t-128 54z" />
    <glyph glyph-name="Ohungarumlaut" unicode="&#x150;" horiz-adv-x="796" 
d="M324 1731h147l-164 -211h-100zM543 1731h149l-166 -211h-100zM397 1448q162 0 246 -96t84 -265v-741q0 -167 -84 -263.5t-246 -96.5q-160 0 -243.5 96.5t-83.5 263.5v741q0 169 83 265t244 96zM397 1303q-85 0 -127.5 -54t-42.5 -153v-758q0 -100 42.5 -153.5
t127.5 -53.5q170 0 170 207v758q0 99 -42 153t-128 54z" />
    <glyph glyph-name="ohungarumlaut" unicode="&#x151;" horiz-adv-x="796" 
d="M324 1731h147l-164 -211h-100zM543 1731h149l-166 -211h-100zM397 1448q162 0 246 -96t84 -265v-741q0 -167 -84 -263.5t-246 -96.5q-160 0 -243.5 96.5t-83.5 263.5v741q0 169 83 265t244 96zM397 1303q-85 0 -127.5 -54t-42.5 -153v-758q0 -100 42.5 -153.5
t127.5 -53.5q170 0 170 207v758q0 99 -42 153t-128 54z" />
    <glyph glyph-name="OE" unicode="&#x152;" horiz-adv-x="1181" 
d="M711 799h329v-144h-329v-510h405v-145h-731q-160 0 -238.5 94t-78.5 262v721q0 168 78.5 262.5t238.5 94.5h731v-146h-405v-489zM553 1288h-166q-160 0 -160 -203v-737q0 -203 160 -203h166v1143z" />
    <glyph glyph-name="oe" unicode="&#x153;" horiz-adv-x="1181" 
d="M711 799h329v-144h-329v-510h405v-145h-731q-160 0 -238.5 94t-78.5 262v721q0 168 78.5 262.5t238.5 94.5h731v-146h-405v-489zM553 1288h-166q-160 0 -160 -203v-737q0 -203 160 -203h166v1143z" />
    <glyph glyph-name="Racute" unicode="&#x154;" horiz-adv-x="806" 
d="M428 1731h160l-191 -211h-110zM82 1434h319q166 0 243 -82.5t77 -245.5v-117q0 -239 -178 -295q95 -28 137.5 -103.5t42.5 -195.5v-223q0 -119 29 -172h-162q-27 62 -27 174v225q0 117 -52 165t-157 48h-112v-612h-160v1434zM242 758h118q102 0 152.5 42.5t50.5 153.5
v138q0 99 -39.5 147.5t-126.5 48.5h-155v-530z" />
    <glyph glyph-name="racute" unicode="&#x155;" horiz-adv-x="806" 
d="M428 1731h160l-191 -211h-110zM82 1434h319q166 0 243 -82.5t77 -245.5v-117q0 -239 -178 -295q95 -28 137.5 -103.5t42.5 -195.5v-223q0 -119 29 -172h-162q-27 62 -27 174v225q0 117 -52 165t-157 48h-112v-612h-160v1434zM242 758h118q102 0 152.5 42.5t50.5 153.5
v138q0 99 -39.5 147.5t-126.5 48.5h-155v-530z" />
    <glyph glyph-name="uni0156" unicode="&#x156;" horiz-adv-x="806" 
d="M82 1434h319q166 0 243 -82.5t77 -245.5v-117q0 -239 -178 -295q95 -28 137.5 -103.5t42.5 -195.5v-223q0 -119 29 -172h-162q-27 62 -27 174v225q0 117 -52 165t-157 48h-112v-612h-160v1434zM242 758h118q102 0 152.5 42.5t50.5 153.5v138q0 99 -39.5 147.5
t-126.5 48.5h-155v-530zM338 -362l47 116h-49v178h133v-165l-72 -129h-59z" />
    <glyph glyph-name="uni0157" unicode="&#x157;" horiz-adv-x="806" 
d="M82 1434h319q166 0 243 -82.5t77 -245.5v-117q0 -239 -178 -295q95 -28 137.5 -103.5t42.5 -195.5v-223q0 -119 29 -172h-162q-27 62 -27 174v225q0 117 -52 165t-157 48h-112v-612h-160v1434zM242 758h118q102 0 152.5 42.5t50.5 153.5v138q0 99 -39.5 147.5
t-126.5 48.5h-155v-530zM340 -362l47 114h-51v180h135v-165l-72 -129h-59z" />
    <glyph glyph-name="Rcaron" unicode="&#x158;" horiz-adv-x="806" 
d="M133 1724h139l109 -122l108 122h140l-178 -204h-142zM82 1434h319q166 0 243 -82.5t77 -245.5v-117q0 -239 -178 -295q95 -28 137.5 -103.5t42.5 -195.5v-223q0 -119 29 -172h-162q-27 62 -27 174v225q0 117 -52 165t-157 48h-112v-612h-160v1434zM242 758h118
q102 0 152.5 42.5t50.5 153.5v138q0 99 -39.5 147.5t-126.5 48.5h-155v-530z" />
    <glyph glyph-name="rcaron" unicode="&#x159;" horiz-adv-x="806" 
d="M133 1724h139l109 -122l108 122h140l-178 -204h-142zM82 1434h319q166 0 243 -82.5t77 -245.5v-117q0 -239 -178 -295q95 -28 137.5 -103.5t42.5 -195.5v-223q0 -119 29 -172h-162q-27 62 -27 174v225q0 117 -52 165t-157 48h-112v-612h-160v1434zM242 758h118
q102 0 152.5 42.5t50.5 153.5v138q0 99 -39.5 147.5t-126.5 48.5h-155v-530z" />
    <glyph glyph-name="Sacute" unicode="&#x15a;" horiz-adv-x="761" 
d="M432 1731h160l-191 -211h-110zM383 1448q159 0 239 -95t80 -263v-39h-151v47q0 205 -164 205t-164 -203q0 -65 26.5 -121.5t69 -99.5t94 -84.5t103 -86t94 -94t69 -119t26.5 -151.5q0 -167 -82 -262.5t-242 -95.5t-241 95t-81 263v82h150v-90q0 -205 168 -205t168 205
q0 64 -26.5 120t-68.5 99t-93.5 84.5t-102.5 86t-93 94t-68.5 119t-26.5 151.5q0 170 79.5 264t237.5 94z" />
    <glyph glyph-name="sacute" unicode="&#x15b;" horiz-adv-x="761" 
d="M432 1731h160l-191 -211h-110zM383 1448q159 0 239 -95t80 -263v-39h-151v47q0 205 -164 205t-164 -203q0 -65 26.5 -121.5t69 -99.5t94 -84.5t103 -86t94 -94t69 -119t26.5 -151.5q0 -167 -82 -262.5t-242 -95.5t-241 95t-81 263v82h150v-90q0 -205 168 -205t168 205
q0 64 -26.5 120t-68.5 99t-93.5 84.5t-102.5 86t-93 94t-68.5 119t-26.5 151.5q0 170 79.5 264t237.5 94z" />
    <glyph glyph-name="Scircumflex" unicode="&#x15c;" horiz-adv-x="761" 
d="M385 1638l-109 -120h-139l178 206h142l176 -206h-139zM383 1448q159 0 239 -95t80 -263v-39h-151v47q0 205 -164 205t-164 -203q0 -65 26.5 -121.5t69 -99.5t94 -84.5t103 -86t94 -94t69 -119t26.5 -151.5q0 -167 -82 -262.5t-242 -95.5t-241 95t-81 263v82h150v-90
q0 -205 168 -205t168 205q0 64 -26.5 120t-68.5 99t-93.5 84.5t-102.5 86t-93 94t-68.5 119t-26.5 151.5q0 170 79.5 264t237.5 94z" />
    <glyph glyph-name="scircumflex" unicode="&#x15d;" horiz-adv-x="761" 
d="M385 1638l-109 -120h-139l178 206h142l176 -206h-139zM383 1448q159 0 239 -95t80 -263v-39h-151v47q0 205 -164 205t-164 -203q0 -65 26.5 -121.5t69 -99.5t94 -84.5t103 -86t94 -94t69 -119t26.5 -151.5q0 -167 -82 -262.5t-242 -95.5t-241 95t-81 263v82h150v-90
q0 -205 168 -205t168 205q0 64 -26.5 120t-68.5 99t-93.5 84.5t-102.5 86t-93 94t-68.5 119t-26.5 151.5q0 170 79.5 264t237.5 94z" />
    <glyph glyph-name="Scedilla" unicode="&#x15e;" horiz-adv-x="761" 
d="M412 -12v-64q72 0 111.5 -27t39.5 -77q0 -62 -51 -96.5t-143 -34.5q-89 0 -139 33.5t-50 93.5v16h105v-14q0 -25 22 -41t62 -19q41 0 64.5 17.5t23.5 48.5q0 29 -26.5 45t-74.5 16h-18v103q-141 12 -210 105.5t-69 250.5v82h150v-90q0 -205 168 -205t168 205
q0 64 -26.5 120t-68.5 99t-93.5 84.5t-102.5 86t-93 94t-68.5 119t-26.5 151.5q0 170 79.5 264t237.5 94q159 0 239 -95t80 -263v-39h-151v47q0 205 -164 205t-164 -203q0 -65 26.5 -121.5t69 -99.5t94 -84.5t103 -86t94 -94t69 -119t26.5 -151.5q0 -160 -73.5 -253.5
t-219.5 -102.5z" />
    <glyph glyph-name="scedilla" unicode="&#x15f;" horiz-adv-x="761" 
d="M412 -12v-64q72 0 111.5 -27t39.5 -77q0 -62 -51 -96.5t-143 -34.5q-89 0 -139 33.5t-50 93.5v16h105v-14q0 -25 22 -41t62 -19q41 0 64.5 17.5t23.5 48.5q0 29 -26.5 45t-74.5 16h-18v103q-141 12 -210 105.5t-69 250.5v82h150v-90q0 -205 168 -205t168 205
q0 64 -26.5 120t-68.5 99t-93.5 84.5t-102.5 86t-93 94t-68.5 119t-26.5 151.5q0 170 79.5 264t237.5 94q159 0 239 -95t80 -263v-39h-151v47q0 205 -164 205t-164 -203q0 -65 26.5 -121.5t69 -99.5t94 -84.5t103 -86t94 -94t69 -119t26.5 -151.5q0 -160 -73.5 -253.5
t-219.5 -102.5z" />
    <glyph glyph-name="Scaron" unicode="&#x160;" horiz-adv-x="761" 
d="M137 1724h139l107 -122l109 122h141l-178 -204h-142zM383 1448q159 0 239 -95t80 -263v-39h-151v47q0 205 -164 205t-164 -203q0 -65 26.5 -121.5t69 -99.5t94 -84.5t103 -86t94 -94t69 -119t26.5 -151.5q0 -167 -82 -262.5t-242 -95.5t-241 95t-81 263v82h150v-90
q0 -205 168 -205t168 205q0 64 -26.5 120t-68.5 99t-93.5 84.5t-102.5 86t-93 94t-68.5 119t-26.5 151.5q0 170 79.5 264t237.5 94z" />
    <glyph glyph-name="scaron" unicode="&#x161;" horiz-adv-x="761" 
d="M135 1724h139l109 -122l109 122h139l-178 -204h-142zM383 1448q159 0 239 -95t80 -263v-39h-151v47q0 205 -164 205t-164 -203q0 -65 26.5 -121.5t69 -99.5t94 -84.5t103 -86t94 -94t69 -119t26.5 -151.5q0 -167 -82 -262.5t-242 -95.5t-241 95t-81 263v82h150v-90
q0 -205 168 -205t168 205q0 64 -26.5 120t-68.5 99t-93.5 84.5t-102.5 86t-93 94t-68.5 119t-26.5 151.5q0 170 79.5 264t237.5 94z" />
    <glyph glyph-name="uni0162" unicode="&#x162;" horiz-adv-x="761" 
d="M461 0h-43v-78q61 0 99 -29.5t38 -85.5q0 -78 -52 -115.5t-128 -35.5q-72 0 -124 35t-52 100v16h96v-16q0 -31 23.5 -45t54.5 -14q35 0 59.5 17.5t24.5 51.5q0 68 -97 68h-18v131h-41v1288h-264v146h688v-146h-264v-1288z" />
    <glyph glyph-name="uni0163" unicode="&#x163;" horiz-adv-x="761" 
d="M461 0h-43v-78q61 0 99 -29.5t38 -85.5q0 -78 -52 -115.5t-128 -35.5q-72 0 -124 35t-52 100v16h96v-16q0 -31 23.5 -45t54.5 -14q35 0 59.5 17.5t24.5 51.5q0 68 -97 68h-18v131h-41v1288h-264v146h688v-146h-264v-1288z" />
    <glyph glyph-name="Tcaron" unicode="&#x164;" horiz-adv-x="761" 
d="M133 1720h139l107 -123l110 123h140l-178 -207h-142zM461 0h-160v1288h-264v146h688v-146h-264v-1288z" />
    <glyph glyph-name="tcaron" unicode="&#x165;" horiz-adv-x="761" 
d="M133 1720h139l107 -123l110 123h140l-178 -207h-142zM461 0h-160v1288h-264v146h688v-146h-264v-1288z" />
    <glyph glyph-name="Tbar" unicode="&#x166;" horiz-adv-x="761" 
d="M461 975h145v-119h-145v-856h-160v856h-145v119h145v313h-264v146h688v-146h-264v-313z" />
    <glyph glyph-name="tbar" unicode="&#x167;" horiz-adv-x="761" 
d="M461 975h145v-119h-145v-856h-160v856h-145v119h145v313h-264v146h688v-146h-264v-313z" />
    <glyph glyph-name="Utilde" unicode="&#x168;" 
d="M569 1698l80 -56q-47 -116 -147 -116q-42 -1 -100 29t-87 30q-55 0 -86 -61l-79 55q45 116 149 119q44 0 102 -31t86 -31q55 3 82 62zM717 1434v-1088q0 -169 -80.5 -265.5t-241.5 -96.5q-159 0 -239 96.5t-80 265.5v1088h157v-1096q0 -207 168 -207q166 0 166 207v1096
h150z" />
    <glyph glyph-name="utilde" unicode="&#x169;" 
d="M569 1698l80 -56q-47 -116 -147 -116q-42 -1 -100 29t-87 30q-55 0 -86 -61l-79 55q45 116 149 119q44 0 102 -31t86 -31q55 3 82 62zM717 1434v-1088q0 -169 -80.5 -265.5t-241.5 -96.5q-159 0 -239 96.5t-80 265.5v1088h157v-1096q0 -207 168 -207q166 0 166 207v1096
h150z" />
    <glyph glyph-name="Umacron" unicode="&#x16a;" 
d="M190 1651h420v-115h-420v115zM717 1434v-1088q0 -169 -80.5 -265.5t-241.5 -96.5q-159 0 -239 96.5t-80 265.5v1088h157v-1096q0 -207 168 -207q166 0 166 207v1096h150z" />
    <glyph glyph-name="umacron" unicode="&#x16b;" 
d="M190 1651h420v-115h-420v115zM717 1434v-1088q0 -169 -80.5 -265.5t-241.5 -96.5q-159 0 -239 96.5t-80 265.5v1088h157v-1096q0 -207 168 -207q166 0 166 207v1096h150z" />
    <glyph glyph-name="Ubreve" unicode="&#x16c;" 
d="M516 1716h96q-2 -97 -59 -153t-156 -56t-155 56t-58 153h97q4 -59 33.5 -83.5t82.5 -24.5q111 0 119 108zM717 1434v-1088q0 -169 -80.5 -265.5t-241.5 -96.5q-159 0 -239 96.5t-80 265.5v1088h157v-1096q0 -207 168 -207q166 0 166 207v1096h150z" />
    <glyph glyph-name="ubreve" unicode="&#x16d;" 
d="M516 1716h96q-2 -97 -59 -153t-156 -56t-155 56t-58 153h97q4 -59 33.5 -83.5t82.5 -24.5q111 0 119 108zM717 1434v-1088q0 -169 -80.5 -265.5t-241.5 -96.5q-159 0 -239 96.5t-80 265.5v1088h157v-1096q0 -207 168 -207q166 0 166 207v1096h150z" />
    <glyph glyph-name="Uring" unicode="&#x16e;" 
d="M401 1804q63 0 107.5 -43t44.5 -106t-44.5 -106.5t-107.5 -43.5t-106 43.5t-43 106.5t43 106t106 43zM401 1729q-31 0 -52 -21t-21 -53t21 -53t52 -21t53.5 21t22.5 53t-22.5 53t-53.5 21zM717 1434v-1088q0 -169 -80.5 -265.5t-241.5 -96.5q-159 0 -239 96.5t-80 265.5
v1088h157v-1096q0 -207 168 -207q166 0 166 207v1096h150z" />
    <glyph glyph-name="uring" unicode="&#x16f;" 
d="M401 1804q63 0 107.5 -43t44.5 -106t-44.5 -106.5t-107.5 -43.5t-106 43.5t-43 106.5t43 106t106 43zM401 1729q-31 0 -52 -21t-21 -53t21 -53t52 -21t53.5 21t22.5 53t-22.5 53t-53.5 21zM717 1434v-1088q0 -169 -80.5 -265.5t-241.5 -96.5q-159 0 -239 96.5t-80 265.5
v1088h157v-1096q0 -207 168 -207q166 0 166 207v1096h150z" />
    <glyph glyph-name="Uhungarumlaut" unicode="&#x170;" 
d="M322 1729h147l-164 -211h-100zM541 1729h149l-166 -211h-98zM717 1434v-1088q0 -169 -80.5 -265.5t-241.5 -96.5q-159 0 -239 96.5t-80 265.5v1088h157v-1096q0 -207 168 -207q166 0 166 207v1096h150z" />
    <glyph glyph-name="uhungarumlaut" unicode="&#x171;" 
d="M322 1729h147l-164 -211h-100zM541 1729h149l-166 -211h-98zM717 1434v-1088q0 -169 -80.5 -265.5t-241.5 -96.5q-159 0 -239 96.5t-80 265.5v1088h157v-1096q0 -207 168 -207q166 0 166 207v1096h150z" />
    <glyph glyph-name="Uogonek" unicode="&#x172;" 
d="M717 1434v-1088q0 -115 -33.5 -200.5t-120.5 -135.5q-39 -30 -60.5 -74t-19.5 -77q0 -30 22 -46t54 -16q38 0 82 19v-84q-57 -25 -127 -25t-112 29t-42 86q-1 45 28 89.5t81 80.5q-31 -8 -74 -8q-159 0 -239 96.5t-80 265.5v1088h157v-1096q0 -207 168 -207
q166 0 166 207v1096h150z" />
    <glyph glyph-name="uogonek" unicode="&#x173;" 
d="M717 1434v-1088q0 -115 -33.5 -200.5t-120.5 -135.5q-39 -30 -60.5 -74t-19.5 -77q0 -30 22 -46t54 -16q38 0 82 19v-84q-57 -25 -127 -25t-112 29t-42 86q-1 45 28 89.5t81 80.5q-31 -8 -74 -8q-159 0 -239 96.5t-80 265.5v1088h157v-1096q0 -207 168 -207
q166 0 166 207v1096h150z" />
    <glyph glyph-name="Wcircumflex" unicode="&#x174;" horiz-adv-x="1193" 
d="M600 1636l-108 -120h-140l176 206h142l178 -206h-139zM604 973l-141 -973h-219l-197 1434h156l168 -1221l159 1219h158l158 -1221l162 1223h139l-195 -1434h-211z" />
    <glyph glyph-name="wcircumflex" unicode="&#x175;" horiz-adv-x="1193" 
d="M600 1636l-108 -120h-140l176 206h142l178 -206h-139zM604 973l-141 -973h-219l-197 1434h156l168 -1221l159 1219h158l158 -1221l162 1223h139l-195 -1434h-211z" />
    <glyph glyph-name="Ycircumflex" unicode="&#x176;" horiz-adv-x="831" 
d="M422 1636l-109 -120h-139l176 204h142l178 -204h-140zM336 0v514l-303 920h166l223 -705l225 705h152l-305 -920v-514h-158z" />
    <glyph glyph-name="ycircumflex" unicode="&#x177;" horiz-adv-x="831" 
d="M422 1636l-109 -120h-139l176 204h142l178 -204h-140zM336 0v514l-303 920h166l223 -705l225 705h152l-305 -920v-514h-158z" />
    <glyph glyph-name="Ydieresis" unicode="&#x178;" horiz-adv-x="831" 
d="M223 1698h139v-185h-139v185zM477 1698h139v-185h-139v185zM336 0v514l-303 920h166l223 -705l225 705h152l-305 -920v-514h-158z" />
    <glyph glyph-name="Zacute" unicode="&#x179;" horiz-adv-x="776" 
d="M449 1731h159l-190 -211h-111zM711 145v-145h-652v143l492 1145h-469v146h633v-144l-494 -1145h490z" />
    <glyph glyph-name="zacute" unicode="&#x17a;" horiz-adv-x="776" 
d="M449 1731h159l-190 -211h-111zM711 145v-145h-652v143l492 1145h-469v146h633v-144l-494 -1145h490z" />
    <glyph glyph-name="Zdotaccent" unicode="&#x17b;" horiz-adv-x="776" 
d="M334 1704h139v-184h-139v184zM711 145v-145h-652v143l492 1145h-469v146h633v-144l-494 -1145h490z" />
    <glyph glyph-name="zdotaccent" unicode="&#x17c;" horiz-adv-x="776" 
d="M334 1704h139v-184h-139v184zM711 145v-145h-652v143l492 1145h-469v146h633v-144l-494 -1145h490z" />
    <glyph glyph-name="Zcaron" unicode="&#x17d;" horiz-adv-x="776" 
d="M150 1724h139l106 -122l111 122h139l-178 -206h-141zM711 145v-145h-652v143l492 1145h-469v146h633v-144l-494 -1145h490z" />
    <glyph glyph-name="zcaron" unicode="&#x17e;" horiz-adv-x="776" 
d="M150 1724h139l106 -122l111 122h139l-178 -206h-141zM711 145v-145h-652v143l492 1145h-469v146h633v-144l-494 -1145h490z" />
    <glyph glyph-name="AEacute" unicode="&#x1fc;" horiz-adv-x="1198" 
d="M682 1729h158l-191 -211h-110zM727 799h330v-144h-330v-510h406v-145h-564v291h-293l-92 -291h-151l446 1434h654v-146h-406v-489zM569 1233l-256 -803h256v803z" />
    <glyph glyph-name="aeacute" unicode="&#x1fd;" horiz-adv-x="1198" 
d="M682 1729h158l-191 -211h-110zM727 799h330v-144h-330v-510h406v-145h-564v291h-293l-92 -291h-151l446 1434h654v-146h-406v-489zM569 1233l-256 -803h256v803z" />
    <glyph glyph-name="Oslashacute" unicode="&#x1fe;" horiz-adv-x="796" 
d="M305 1520l144 211h159l-190 -211h-113zM717 1458l-51 -135q61 -91 61 -236v-741q0 -167 -84 -263.5t-246 -96.5q-131 0 -209 63l-38 -102l-70 26l51 138q-61 91 -61 235v741q0 169 83 265t244 96q128 0 211 -64l37 101zM227 369l318 848q-42 86 -148 86q-85 0 -127.5 -54
t-42.5 -153v-727zM397 131q170 0 170 207v723l-317 -846q43 -84 147 -84z" />
    <glyph glyph-name="oslashacute" unicode="&#x1ff;" horiz-adv-x="796" 
d="M305 1520l144 211h159l-190 -211h-113zM717 1458l-51 -135q61 -91 61 -236v-741q0 -167 -84 -263.5t-246 -96.5q-131 0 -209 63l-38 -102l-70 26l51 138q-61 91 -61 235v741q0 169 83 265t244 96q128 0 211 -64l37 101zM227 369l318 848q-42 86 -148 86q-85 0 -127.5 -54
t-42.5 -153v-727zM397 131q170 0 170 207v723l-317 -846q43 -84 147 -84z" />
    <glyph glyph-name="uni0218" unicode="&#x218;" horiz-adv-x="761" 
d="M383 1448q159 0 239 -95t80 -263v-39h-151v47q0 205 -164 205t-164 -203q0 -65 26.5 -121.5t69 -99.5t94 -84.5t103 -86t94 -94t69 -119t26.5 -151.5q0 -167 -82 -262.5t-242 -95.5t-241 95t-81 263v82h150v-90q0 -205 168 -205t168 205q0 64 -26.5 120t-68.5 99
t-93.5 84.5t-102.5 86t-93 94t-68.5 119t-26.5 151.5q0 170 79.5 264t237.5 94zM313 -362l47 114h-51v180h135v-165l-71 -129h-60z" />
    <glyph glyph-name="uni0219" unicode="&#x219;" horiz-adv-x="761" 
d="M383 1448q159 0 239 -95t80 -263v-39h-151v47q0 205 -164 205t-164 -203q0 -65 26.5 -121.5t69 -99.5t94 -84.5t103 -86t94 -94t69 -119t26.5 -151.5q0 -167 -82 -262.5t-242 -95.5t-241 95t-81 263v82h150v-90q0 -205 168 -205t168 205q0 64 -26.5 120t-68.5 99
t-93.5 84.5t-102.5 86t-93 94t-68.5 119t-26.5 151.5q0 170 79.5 264t237.5 94zM313 -362l47 114h-51v180h135v-165l-71 -129h-60z" />
    <glyph glyph-name="uni021A" unicode="&#x21a;" horiz-adv-x="761" 
d="M461 0h-160v1288h-264v146h688v-146h-264v-1288zM317 -362l48 114h-52v180h136v-165l-72 -129h-60z" />
    <glyph glyph-name="uni021B" unicode="&#x21b;" horiz-adv-x="761" 
d="M461 0h-160v1288h-264v146h688v-146h-264v-1288zM317 -362l48 114h-52v180h136v-165l-72 -129h-60z" />
    <glyph glyph-name="uni0237" unicode="&#x237;" horiz-adv-x="522" 
d="M41 0v145q27 -2 80 -2q83 5 125.5 51t42.5 150v1090h157v-1080q0 -349 -305 -356q-82 0 -100 2z" />
    <glyph glyph-name="uni02BC" unicode="&#x2bc;" horiz-adv-x="327" 
d="M246 1251l-80 -196h-66l52 180h-60v199h154v-183z" />
    <glyph glyph-name="circumflex" unicode="&#x2c6;" horiz-adv-x="512" 
d="M256 1653l-109 -121h-139l178 205h142l176 -205h-139z" />
    <glyph glyph-name="caron" unicode="&#x2c7;" horiz-adv-x="512" 
d="M8 1737h139l109 -123l109 123h139l-176 -205h-142z" />
    <glyph glyph-name="breve" unicode="&#x2d8;" horiz-adv-x="516" 
d="M375 1708h98q-2 -96 -59 -151.5t-158 -55.5q-99 0 -154 55.5t-57 151.5h96q5 -106 115 -106q114 0 119 106z" />
    <glyph glyph-name="dotaccent" unicode="&#x2d9;" horiz-adv-x="405" 
d="M133 1706h139v-184h-139v184z" />
    <glyph glyph-name="ring" unicode="&#x2da;" horiz-adv-x="479" 
d="M240 1817q63 0 106 -43.5t43 -106.5t-43 -106t-106 -43t-107.5 43t-44.5 106t44.5 106.5t107.5 43.5zM240 1741q-32 0 -54 -21t-22 -53t22 -53t54 -21q31 0 52 21t21 53t-21 53t-52 21z" />
    <glyph glyph-name="ogonek" unicode="&#x2db;" horiz-adv-x="464" 
d="M227 6h70q-40 -30 -62 -72t-20 -75q0 -30 22 -46t54 -16q38 0 82 19v-84q-57 -25 -127 -25t-112 29t-42 86q-1 51 34.5 99t100.5 85z" />
    <glyph glyph-name="tilde" unicode="&#x2dc;" horiz-adv-x="524" 
d="M434 1696l78 -54q-45 -118 -145 -118q-42 0 -100.5 30t-88.5 29q-56 0 -86 -59l-80 53q50 119 152 119q43 0 101.5 -30.5t86.5 -29.5q50 0 82 60z" />
    <glyph glyph-name="hungarumlaut" unicode="&#x2dd;" horiz-adv-x="495" 
d="M111 1737h147l-164 -211h-102zM330 1737h147l-164 -211h-100z" />
    <glyph glyph-name="uni0401" unicode="&#x401;" horiz-adv-x="737" 
d="M178 1702h139v-184h-139v184zM432 1702h141v-184h-141v184zM242 799h350v-144h-350v-510h430v-145h-590v1434h590v-146h-430v-489z" />
    <glyph glyph-name="uni0410" unicode="&#x410;" horiz-adv-x="864" 
d="M606 289h-362l-56 -289h-147l274 1434h232l274 -1434h-159zM422 1253l-158 -827h320z" />
    <glyph glyph-name="uni0411" unicode="&#x411;" horiz-adv-x="821" 
d="M242 842h168q338 0 338 -336v-158q0 -348 -330 -348h-334v1434h604v-146h-446v-446zM242 145h176q88 0 129 46.5t41 146.5v178q0 101 -43 141.5t-135 40.5h-168v-553z" />
    <glyph glyph-name="uni0412" unicode="&#x412;" horiz-adv-x="802" 
d="M82 1434h321q164 0 238 -78.5t74 -239.5v-67q0 -118 -38.5 -187.5t-129.5 -97.5q192 -54 192 -307v-121q0 -164 -81 -250t-246 -86h-330v1434zM242 825h123q100 0 146 41.5t46 149.5v84q0 97 -36.5 142.5t-121.5 45.5h-157v-463zM242 145h170q88 0 129 47.5t41 147.5v127
q0 117 -47.5 165t-153.5 48h-139v-535z" />
    <glyph glyph-name="uni0413" unicode="&#x413;" horiz-adv-x="729" 
d="M655 1288h-413v-1288h-158v1434h571v-146z" />
    <glyph glyph-name="uni0414" unicode="&#x414;" horiz-adv-x="1001" 
d="M944 -197h-156v197h-585v-197h-154v338h92q34 38 47.5 86.5t16.5 122.5l55 1084h576v-1293h108v-338zM408 1288l-48 -936q-5 -81 -19 -129t-46 -82h379v1147h-266z" />
    <glyph glyph-name="uni0415" unicode="&#x415;" horiz-adv-x="737" 
d="M242 799h350v-144h-350v-510h430v-145h-590v1434h590v-146h-430v-489z" />
    <glyph glyph-name="uni0416" unicode="&#x416;" horiz-adv-x="1255" 
d="M1057 0l-275 676l-75 -135v-541h-158v541l-74 137l-274 -678h-164l328 825l-320 609h160l344 -660v660h158v-660l346 660h159l-317 -605l326 -829h-164z" />
    <glyph glyph-name="uni0417" unicode="&#x417;" 
d="M395 1448q161 0 242.5 -96.5t81.5 -264.5v-36q0 -112 -44.5 -188.5t-131.5 -108.5q88 -30 132 -107t44 -188v-113q0 -168 -81.5 -264t-242.5 -96q-160 0 -240.5 96t-80.5 264v139h149v-147q0 -99 42 -153t126 -54q168 0 168 219v113q0 104 -46.5 158.5t-137.5 54.5h-68
v143h76q81 0 128.5 52t47.5 145v65q0 112 -40.5 167t-127.5 55q-84 0 -126 -54t-42 -153v-97h-147v91q0 169 79.5 263.5t239.5 94.5z" />
    <glyph glyph-name="uni0418" unicode="&#x418;" horiz-adv-x="837" 
d="M614 1141l-153 -475l-213 -666h-166v1434h141v-1069l148 452l209 617h178v-1434h-144v1141z" />
    <glyph glyph-name="uni0419" unicode="&#x419;" horiz-adv-x="839" 
d="M551 1729h98q0 -94 -59 -147.5t-162 -53.5q-102 0 -160 53.5t-61 147.5h100q8 -105 121 -105q115 0 123 105zM614 1141l-149 -463l-217 -678h-166v1434h141v-1069l135 419l222 650h178v-1434h-144v1141z" />
    <glyph glyph-name="uni041A" unicode="&#x41a;" horiz-adv-x="837" 
d="M633 0l-307 623l-84 -142v-481h-160v1434h160v-693l381 693h161l-362 -654l375 -780h-164z" />
    <glyph glyph-name="uni041B" unicode="&#x41b;" horiz-adv-x="909" 
d="M662 1288h-275l-33 -932q-6 -182 -69 -269.5t-219 -88.5h-27v145q94 0 125.5 46.5t34.5 158.5l39 1086h583v-1434h-159v1288z" />
    <glyph glyph-name="uni041C" unicode="&#x41c;" horiz-adv-x="1071" 
d="M838 1153l-228 -1151h-153l-238 1141v-1143h-139v1434h223l236 -1145l227 1145h223v-1434h-151v1153z" />
    <glyph glyph-name="uni041D" unicode="&#x41d;" horiz-adv-x="835" 
d="M594 645h-352v-645h-160v1434h160v-646h352v646h160v-1434h-160v645z" />
    <glyph glyph-name="uni041E" unicode="&#x41e;" horiz-adv-x="796" 
d="M70 346v741q0 169 83 265t244 96q162 0 246 -96t84 -265v-741q0 -167 -84 -263.5t-246 -96.5q-160 0 -243.5 96.5t-83.5 263.5zM227 1096v-758q0 -100 42.5 -153.5t127.5 -53.5q170 0 170 207v758q0 99 -42 153t-128 54q-85 0 -127.5 -54t-42.5 -153z" />
    <glyph glyph-name="uni041F" unicode="&#x41f;" horiz-adv-x="835" 
d="M594 1288h-352v-1288h-160v1434h672v-1434h-160v1288z" />
    <glyph glyph-name="uni0420" unicode="&#x420;" horiz-adv-x="759" 
d="M82 1434h313q164 0 243 -91.5t79 -259.5v-172q0 -346 -334 -346h-141v-565h-160v1434zM242 709h141q91 0 133.5 45.5t42.5 146.5v191q0 100 -39 148t-125 48h-153v-579z" />
    <glyph glyph-name="uni0421" unicode="&#x421;" horiz-adv-x="778" 
d="M391 1448q161 0 242.5 -96.5t81.5 -264.5v-129h-152v138q0 207 -168 207q-84 0 -126 -54t-42 -153v-758q0 -99 42 -153t126 -54q168 0 168 207v186h152v-178q0 -168 -81.5 -264t-242.5 -96q-160 0 -240.5 96t-80.5 264v741q0 168 80.5 264.5t240.5 96.5z" />
    <glyph glyph-name="uni0422" unicode="&#x422;" horiz-adv-x="761" 
d="M461 0h-160v1288h-264v146h688v-146h-264v-1288z" />
    <glyph glyph-name="uni0423" unicode="&#x423;" horiz-adv-x="854" 
d="M819 1434l-307 -1119q-20 -87 -44.5 -143t-67.5 -99.5t-109 -61t-162 -13.5v143q92 -4 138.5 28t66.5 114l33 94l-330 1057h160l145 -498l98 -361l84 361l129 498h166z" />
    <glyph glyph-name="uni0424" unicode="&#x424;" horiz-adv-x="1165" 
d="M659 1266h101q168 0 250 -92.5t82 -266.5v-391q0 -358 -332 -358h-101v-158h-157v158h-101q-331 0 -331 358v391q0 359 331 359h101v168h157v-168zM502 1124h-101q-90 0 -132 -51t-42 -155v-412q0 -209 174 -209h101v827zM659 297h101q176 0 176 209v412q0 104 -42.5 155
t-133.5 51h-101v-827z" />
    <glyph glyph-name="uni0425" unicode="&#x425;" horiz-adv-x="890" 
d="M676 0l-238 618l-239 -618h-152l289 739l-270 695h165l222 -574l223 574h149l-268 -695l287 -739h-168z" />
    <glyph glyph-name="uni0426" unicode="&#x426;" horiz-adv-x="931" 
d="M877 -193h-156v193h-625v1434h158v-1289h352v1289h162v-1293h109v-334z" />
    <glyph glyph-name="uni0427" unicode="&#x427;" horiz-adv-x="821" 
d="M580 0v635q-37 -54 -97.5 -83.5t-126.5 -29.5q-139 0 -211.5 94t-72.5 246v572h159v-560q0 -93 47 -149.5t130 -56.5q72 0 116 43t56 125v598h157v-1434h-157z" />
    <glyph glyph-name="uni0428" unicode="&#x428;" horiz-adv-x="1189" 
d="M82 1434h160v-1289h274v1289h160v-1289h274v1289h158v-1434h-1026v1434z" />
    <glyph glyph-name="uni0429" unicode="&#x429;" horiz-adv-x="1273" 
d="M1219 -193h-154v193h-983v1434h160v-1289h274v1289h158v-1289h276v1289h158v-1293h111v-334z" />
    <glyph glyph-name="uni042A" unicode="&#x42a;" horiz-adv-x="897" 
d="M358 868h144q334 0 334 -346v-172q0 -168 -79.5 -259t-242.5 -91h-313v1290h-181v144h338v-566zM358 145h156q86 0 124 48.5t38 148.5v190q0 103 -42 148t-132 45h-144v-580z" />
    <glyph glyph-name="uni042B" unicode="&#x42b;" horiz-adv-x="1089" 
d="M242 868h141q334 0 334 -346v-172q0 -168 -79.5 -259t-242.5 -91h-313v1434h160v-566zM850 1434h158v-1434h-158v1434zM242 145h153q86 0 125 48.5t39 148.5v190q0 103 -42.5 148t-133.5 45h-141v-580z" />
    <glyph glyph-name="uni042C" unicode="&#x42c;" horiz-adv-x="780" 
d="M242 868h141q334 0 334 -346v-172q0 -168 -79.5 -259t-242.5 -91h-313v1434h160v-566zM242 145h153q86 0 125 48.5t39 148.5v190q0 103 -42.5 148t-133.5 45h-141v-580z" />
    <glyph glyph-name="uni042D" unicode="&#x42d;" horiz-adv-x="778" 
d="M385 1448q160 0 241 -96.5t81 -264.5v-741q0 -168 -81 -264t-241 -96t-241 96t-81 264v156h150v-164q0 -99 42 -153t126 -54t126 54t42 153v332h-250v143h250v283q0 99 -42 153t-126 54t-126 -54t-42 -153v-115h-147v106q0 169 80 265t239 96z" />
    <glyph glyph-name="uni042E" unicode="&#x42e;" horiz-adv-x="1177" 
d="M778 1448q161 0 244.5 -96.5t83.5 -264.5v-741q0 -167 -84 -263.5t-244 -96.5q-162 0 -245.5 96.5t-83.5 263.5v299h-207v-645h-160v1434h160v-646h207v299q0 169 83.5 265t245.5 96zM778 1303q-170 0 -170 -207v-758q0 -99 42 -153t128 -54q85 0 127.5 54t42.5 153v758
q0 100 -42.5 153.5t-127.5 53.5z" />
    <glyph glyph-name="uni042F" unicode="&#x42f;" horiz-adv-x="806" 
d="M565 612h-112q-105 0 -157 -48t-52 -165v-225q0 -112 -27 -174h-162q29 57 29 172v223q0 245 178 299q-176 57 -176 295v117q0 163 77 245.5t243 82.5h319v-1434h-160v612zM565 1288h-155q-87 0 -126.5 -48.5t-39.5 -147.5v-138q0 -111 49.5 -153.5t150.5 -42.5h121v530z
" />
    <glyph glyph-name="uni0430" unicode="&#x430;" horiz-adv-x="864" 
d="M606 289h-362l-56 -289h-147l274 1434h232l274 -1434h-159zM422 1253l-158 -827h320z" />
    <glyph glyph-name="uni0431" unicode="&#x431;" horiz-adv-x="821" 
d="M242 842h168q338 0 338 -336v-158q0 -348 -330 -348h-334v1434h604v-146h-446v-446zM242 145h176q88 0 129 46.5t41 146.5v178q0 101 -43 141.5t-135 40.5h-168v-553z" />
    <glyph glyph-name="uni0432" unicode="&#x432;" horiz-adv-x="802" 
d="M82 1434h321q164 0 238 -78.5t74 -239.5v-67q0 -118 -38.5 -187.5t-129.5 -97.5q192 -54 192 -307v-121q0 -164 -81 -250t-246 -86h-330v1434zM242 825h123q100 0 146 41.5t46 149.5v84q0 97 -36.5 142.5t-121.5 45.5h-157v-463zM242 145h170q88 0 129 47.5t41 147.5v127
q0 117 -47.5 165t-153.5 48h-139v-535z" />
    <glyph glyph-name="uni0433" unicode="&#x433;" horiz-adv-x="729" 
d="M655 1288h-413v-1288h-158v1434h571v-146z" />
    <glyph glyph-name="uni0434" unicode="&#x434;" horiz-adv-x="1001" 
d="M944 -197h-156v197h-585v-197h-154v338h92q34 38 47.5 86.5t16.5 122.5l55 1084h576v-1293h108v-338zM408 1288l-48 -936q-5 -81 -19 -129t-46 -82h379v1147h-266z" />
    <glyph glyph-name="uni0435" unicode="&#x435;" horiz-adv-x="737" 
d="M242 799h350v-144h-350v-510h430v-145h-590v1434h590v-146h-430v-489z" />
    <glyph glyph-name="uni0436" unicode="&#x436;" horiz-adv-x="1255" 
d="M1057 0l-275 676l-75 -135v-541h-158v541l-74 137l-274 -678h-164l328 825l-320 609h160l344 -660v660h158v-660l346 660h159l-317 -605l326 -829h-164z" />
    <glyph glyph-name="uni0437" unicode="&#x437;" 
d="M395 1448q161 0 242.5 -96.5t81.5 -264.5v-36q0 -112 -44.5 -188.5t-131.5 -108.5q88 -30 132 -107t44 -188v-113q0 -168 -81.5 -264t-242.5 -96q-160 0 -240.5 96t-80.5 264v139h149v-147q0 -99 42 -153t126 -54q168 0 168 219v113q0 104 -46.5 158.5t-137.5 54.5h-68
v143h76q81 0 128.5 52t47.5 145v65q0 112 -40.5 167t-127.5 55q-84 0 -126 -54t-42 -153v-97h-147v91q0 169 79.5 263.5t239.5 94.5z" />
    <glyph glyph-name="uni0438" unicode="&#x438;" horiz-adv-x="837" 
d="M614 1141l-155 -479l-211 -662h-166v1434h141v-1069l127 395l230 674h178v-1434h-144v1141z" />
    <glyph glyph-name="uni0439" unicode="&#x439;" horiz-adv-x="839" 
d="M551 1726h98q0 -94 -59 -147t-162 -53q-102 0 -160 53t-61 147h100q4 -57 35 -80.5t86 -23.5q115 0 123 104zM614 1141l-143 -451l-223 -690h-166v1434h141v-1069l133 413l224 656h178v-1434h-144v1141z" />
    <glyph glyph-name="uni043A" unicode="&#x43a;" horiz-adv-x="837" 
d="M633 0l-307 623l-84 -142v-481h-160v1434h160v-693l381 693h161l-362 -654l375 -780h-164z" />
    <glyph glyph-name="uni043B" unicode="&#x43b;" horiz-adv-x="909" 
d="M662 1288h-275l-33 -932q-6 -182 -69 -269.5t-219 -88.5h-27v145q94 0 125.5 46.5t34.5 158.5l39 1086h583v-1434h-159v1288z" />
    <glyph glyph-name="uni043C" unicode="&#x43c;" horiz-adv-x="1071" 
d="M838 1153l-228 -1151h-153l-238 1141v-1143h-139v1434h223l236 -1145l227 1145h223v-1434h-151v1153z" />
    <glyph glyph-name="uni043D" unicode="&#x43d;" horiz-adv-x="835" 
d="M594 645h-352v-645h-160v1434h160v-646h352v646h160v-1434h-160v645z" />
    <glyph glyph-name="uni043E" unicode="&#x43e;" horiz-adv-x="796" 
d="M70 346v741q0 169 83 265t244 96q162 0 246 -96t84 -265v-741q0 -167 -84 -263.5t-246 -96.5q-160 0 -243.5 96.5t-83.5 263.5zM227 1096v-758q0 -100 42.5 -153.5t127.5 -53.5q170 0 170 207v758q0 99 -42 153t-128 54q-85 0 -127.5 -54t-42.5 -153z" />
    <glyph glyph-name="uni043F" unicode="&#x43f;" horiz-adv-x="835" 
d="M594 1288h-352v-1288h-160v1434h672v-1434h-160v1288z" />
    <glyph glyph-name="uni0440" unicode="&#x440;" horiz-adv-x="759" 
d="M82 1434h313q164 0 243 -91.5t79 -259.5v-172q0 -346 -334 -346h-141v-565h-160v1434zM242 709h141q91 0 133.5 45.5t42.5 146.5v191q0 100 -39 148t-125 48h-153v-579z" />
    <glyph glyph-name="uni0441" unicode="&#x441;" horiz-adv-x="778" 
d="M391 1448q161 0 242.5 -96.5t81.5 -264.5v-129h-152v138q0 207 -168 207q-84 0 -126 -54t-42 -153v-758q0 -99 42 -153t126 -54q168 0 168 207v186h152v-178q0 -168 -81.5 -264t-242.5 -96q-160 0 -240.5 96t-80.5 264v741q0 168 80.5 264.5t240.5 96.5z" />
    <glyph glyph-name="uni0442" unicode="&#x442;" horiz-adv-x="761" 
d="M461 0h-160v1288h-264v146h688v-146h-264v-1288z" />
    <glyph glyph-name="uni0443" unicode="&#x443;" horiz-adv-x="854" 
d="M819 1434l-307 -1119q-20 -87 -44.5 -143t-67.5 -99.5t-109 -61t-162 -13.5v143q92 -4 138.5 28t66.5 114l33 94l-330 1057h160l145 -498l98 -361l84 361l129 498h166z" />
    <glyph glyph-name="uni0444" unicode="&#x444;" horiz-adv-x="1165" 
d="M659 1266h101q168 0 250 -92.5t82 -266.5v-391q0 -358 -332 -358h-101v-158h-157v158h-101q-331 0 -331 358v391q0 359 331 359h101v168h157v-168zM502 1124h-101q-90 0 -132 -51t-42 -155v-412q0 -209 174 -209h101v827zM659 297h101q176 0 176 209v412q0 104 -42.5 155
t-133.5 51h-101v-827z" />
    <glyph glyph-name="uni0445" unicode="&#x445;" horiz-adv-x="890" 
d="M676 0l-238 618l-239 -618h-152l289 739l-270 695h165l222 -574l223 574h149l-268 -695l287 -739h-168z" />
    <glyph glyph-name="uni0446" unicode="&#x446;" horiz-adv-x="931" 
d="M877 -193h-156v193h-625v1434h158v-1289h352v1289h162v-1293h109v-334z" />
    <glyph glyph-name="uni0447" unicode="&#x447;" horiz-adv-x="821" 
d="M580 0v635q-37 -54 -97.5 -83.5t-126.5 -29.5q-139 0 -211.5 94t-72.5 246v572h159v-560q0 -93 47 -149.5t130 -56.5q72 0 116 43t56 125v598h157v-1434h-157z" />
    <glyph glyph-name="uni0448" unicode="&#x448;" horiz-adv-x="1189" 
d="M82 1434h160v-1289h274v1289h160v-1289h274v1289h158v-1434h-1026v1434z" />
    <glyph glyph-name="uni0449" unicode="&#x449;" horiz-adv-x="1273" 
d="M1219 -193h-154v193h-983v1434h160v-1289h274v1289h158v-1289h276v1289h158v-1293h111v-334z" />
    <glyph glyph-name="uni044A" unicode="&#x44a;" horiz-adv-x="897" 
d="M358 868h144q334 0 334 -346v-172q0 -168 -79.5 -259t-242.5 -91h-313v1290h-181v144h338v-566zM358 145h156q86 0 124 48.5t38 148.5v190q0 103 -42 148t-132 45h-144v-580z" />
    <glyph glyph-name="uni044B" unicode="&#x44b;" horiz-adv-x="1089" 
d="M242 868h141q334 0 334 -346v-172q0 -168 -79.5 -259t-242.5 -91h-313v1434h160v-566zM850 1434h158v-1434h-158v1434zM242 145h153q86 0 125 48.5t39 148.5v190q0 103 -42.5 148t-133.5 45h-141v-580z" />
    <glyph glyph-name="uni044C" unicode="&#x44c;" horiz-adv-x="780" 
d="M242 868h141q334 0 334 -346v-172q0 -168 -79.5 -259t-242.5 -91h-313v1434h160v-566zM242 145h153q86 0 125 48.5t39 148.5v190q0 103 -42.5 148t-133.5 45h-141v-580z" />
    <glyph glyph-name="uni044D" unicode="&#x44d;" horiz-adv-x="778" 
d="M385 1448q160 0 241 -96.5t81 -264.5v-741q0 -168 -81 -264t-241 -96t-241 96t-81 264v156h150v-164q0 -99 42 -153t126 -54t126 54t42 153v332h-250v143h250v283q0 99 -42 153t-126 54t-126 -54t-42 -153v-115h-147v106q0 169 80 265t239 96z" />
    <glyph glyph-name="uni044E" unicode="&#x44e;" horiz-adv-x="1177" 
d="M778 1448q161 0 244.5 -96.5t83.5 -264.5v-741q0 -167 -84 -263.5t-244 -96.5q-162 0 -245.5 96.5t-83.5 263.5v299h-207v-645h-160v1434h160v-646h207v299q0 169 83.5 265t245.5 96zM778 1303q-170 0 -170 -207v-758q0 -99 42 -153t128 -54q85 0 127.5 54t42.5 153v758
q0 100 -42.5 153.5t-127.5 53.5z" />
    <glyph glyph-name="uni044F" unicode="&#x44f;" horiz-adv-x="806" 
d="M565 612h-112q-105 0 -157 -48t-52 -165v-225q0 -112 -27 -174h-162q29 57 29 172v223q0 245 178 299q-176 57 -176 295v117q0 163 77 245.5t243 82.5h319v-1434h-160v612zM565 1288h-155q-87 0 -126.5 -48.5t-39.5 -147.5v-138q0 -111 49.5 -153.5t150.5 -42.5h121v530z
" />
    <glyph glyph-name="uni0451" unicode="&#x451;" horiz-adv-x="737" 
d="M178 1702h139v-184h-139v184zM432 1702h141v-184h-141v184zM242 799h350v-144h-350v-510h430v-145h-590v1434h590v-146h-430v-489z" />
    <glyph glyph-name="uni1E02" unicode="&#x1e02;" horiz-adv-x="802" 
d="M295 1700h139v-184h-139v184zM82 1434h321q164 0 238 -78.5t74 -239.5v-67q0 -118 -38.5 -187.5t-129.5 -97.5q192 -54 192 -307v-121q0 -164 -81 -250t-246 -86h-330v1434zM242 825h123q100 0 146 41.5t46 149.5v84q0 97 -36.5 142.5t-121.5 45.5h-157v-463zM242 145
h170q88 0 129 47.5t41 147.5v127q0 117 -47.5 165t-153.5 48h-139v-535z" />
    <glyph glyph-name="uni1E03" unicode="&#x1e03;" horiz-adv-x="802" 
d="M295 1700h139v-184h-139v184zM82 1434h321q164 0 238 -78.5t74 -239.5v-67q0 -118 -38.5 -187.5t-129.5 -97.5q192 -54 192 -307v-121q0 -164 -81 -250t-246 -86h-330v1434zM242 825h123q100 0 146 41.5t46 149.5v84q0 97 -36.5 142.5t-121.5 45.5h-157v-463zM242 145
h170q88 0 129 47.5t41 147.5v127q0 117 -47.5 165t-153.5 48h-139v-535z" />
    <glyph glyph-name="uni1E0A" unicode="&#x1e0a;" horiz-adv-x="811" 
d="M309 1700h140v-184h-140v184zM82 1434h336q163 0 244 -93.5t81 -263.5v-723q0 -169 -81 -261.5t-244 -92.5h-336v1434zM242 145h174q170 0 170 203v737q0 203 -172 203h-172v-1143z" />
    <glyph glyph-name="uni1E0B" unicode="&#x1e0b;" horiz-adv-x="811" 
d="M309 1700h140v-184h-140v184zM82 1434h336q163 0 244 -93.5t81 -263.5v-723q0 -169 -81 -261.5t-244 -92.5h-336v1434zM242 145h174q170 0 170 203v737q0 203 -172 203h-172v-1143z" />
    <glyph glyph-name="uni1E1E" unicode="&#x1e1e;" horiz-adv-x="696" 
d="M293 1698h139v-185h-139v185zM242 766h329v-145h-329v-621h-160v1434h569v-146h-409v-522z" />
    <glyph glyph-name="uni1E1F" unicode="&#x1e1f;" horiz-adv-x="696" 
d="M299 1700h139v-184h-139v184zM242 766h329v-145h-329v-621h-160v1434h569v-146h-409v-522z" />
    <glyph glyph-name="uni1E40" unicode="&#x1e40;" horiz-adv-x="1071" 
d="M465 1704h139v-186h-139v186zM838 1153l-228 -1151h-153l-238 1141v-1143h-139v1434h223l236 -1145l227 1145h223v-1434h-151v1153z" />
    <glyph glyph-name="uni1E41" unicode="&#x1e41;" horiz-adv-x="1071" 
d="M465 1704h139v-184h-139v184zM838 1153l-228 -1151h-153l-238 1141v-1143h-139v1434h223l236 -1145l227 1145h223v-1434h-151v1153z" />
    <glyph glyph-name="uni1E56" unicode="&#x1e56;" horiz-adv-x="759" 
d="M299 1700h139v-184h-139v184zM82 1434h313q164 0 243 -91.5t79 -259.5v-172q0 -346 -334 -346h-141v-565h-160v1434zM242 709h141q91 0 133.5 45.5t42.5 146.5v191q0 100 -39 148t-125 48h-153v-579z" />
    <glyph glyph-name="uni1E57" unicode="&#x1e57;" horiz-adv-x="759" 
d="M305 1700h139v-184h-139v184zM82 1434h313q164 0 243 -91.5t79 -259.5v-172q0 -346 -334 -346h-141v-565h-160v1434zM242 709h141q91 0 133.5 45.5t42.5 146.5v191q0 100 -39 148t-125 48h-153v-579z" />
    <glyph glyph-name="uni1E60" unicode="&#x1e60;" horiz-adv-x="761" 
d="M311 1700h140v-184h-140v184zM383 1448q159 0 239 -95t80 -263v-39h-151v47q0 205 -164 205t-164 -203q0 -65 26.5 -121.5t69 -99.5t94 -84.5t103 -86t94 -94t69 -119t26.5 -151.5q0 -167 -82 -262.5t-242 -95.5t-241 95t-81 263v82h150v-90q0 -205 168 -205t168 205
q0 64 -26.5 120t-68.5 99t-93.5 84.5t-102.5 86t-93 94t-68.5 119t-26.5 151.5q0 170 79.5 264t237.5 94z" />
    <glyph glyph-name="uni1E61" unicode="&#x1e61;" horiz-adv-x="761" 
d="M317 1706h140v-184h-140v184zM383 1448q159 0 239 -95t80 -263v-39h-151v47q0 205 -164 205t-164 -203q0 -65 26.5 -121.5t69 -99.5t94 -84.5t103 -86t94 -94t69 -119t26.5 -151.5q0 -167 -82 -262.5t-242 -95.5t-241 95t-81 263v82h150v-90q0 -205 168 -205t168 205
q0 64 -26.5 120t-68.5 99t-93.5 84.5t-102.5 86t-93 94t-68.5 119t-26.5 151.5q0 170 79.5 264t237.5 94z" />
    <glyph glyph-name="uni1E6A" unicode="&#x1e6a;" horiz-adv-x="761" 
d="M311 1700h140v-184h-140v184zM461 0h-160v1288h-264v146h688v-146h-264v-1288z" />
    <glyph glyph-name="uni1E6B" unicode="&#x1e6b;" horiz-adv-x="761" 
d="M309 1700h140v-184h-140v184zM459 0h-160v1288h-264v146h688v-146h-264v-1288z" />
    <glyph glyph-name="Wgrave" unicode="&#x1e80;" horiz-adv-x="1193" 
d="M401 1731h166l142 -211h-117zM604 973l-141 -973h-219l-197 1434h156l168 -1221l159 1219h158l158 -1221l162 1223h139l-195 -1434h-211z" />
    <glyph glyph-name="wgrave" unicode="&#x1e81;" horiz-adv-x="1193" 
d="M401 1731h166l142 -211h-117zM604 973l-141 -973h-219l-197 1434h156l168 -1221l159 1219h158l158 -1221l162 1223h139l-195 -1434h-211z" />
    <glyph glyph-name="Wacute" unicode="&#x1e82;" horiz-adv-x="1193" 
d="M641 1724h160l-191 -211h-112zM604 973l-141 -973h-219l-197 1434h156l168 -1221l159 1219h158l158 -1221l162 1223h139l-195 -1434h-211z" />
    <glyph glyph-name="wacute" unicode="&#x1e83;" horiz-adv-x="1193" 
d="M641 1724h160l-191 -211h-112zM604 973l-141 -973h-219l-197 1434h156l168 -1221l159 1219h158l158 -1221l162 1223h139l-195 -1434h-211z" />
    <glyph glyph-name="Wdieresis" unicode="&#x1e84;" horiz-adv-x="1193" 
d="M403 1702h140v-184h-140v184zM657 1702h140v-184h-140v184zM604 973l-141 -973h-219l-197 1434h156l168 -1221l159 1219h158l158 -1221l162 1223h139l-195 -1434h-211z" />
    <glyph glyph-name="wdieresis" unicode="&#x1e85;" horiz-adv-x="1193" 
d="M403 1702h140v-184h-140v184zM657 1702h140v-184h-140v184zM604 973l-141 -973h-219l-197 1434h156l168 -1221l159 1219h158l158 -1221l162 1223h139l-195 -1434h-211z" />
    <glyph glyph-name="Ygrave" unicode="&#x1ef2;" horiz-adv-x="831" 
d="M215 1731h166l141 -211h-116zM336 0v514l-303 920h166l223 -705l225 705h152l-305 -920v-514h-158z" />
    <glyph glyph-name="ygrave" unicode="&#x1ef3;" horiz-adv-x="831" 
d="M215 1731h166l141 -211h-116zM336 0v514l-303 920h166l223 -705l225 705h152l-305 -920v-514h-158z" />
    <glyph glyph-name="figuredash" unicode="&#x2012;" horiz-adv-x="870" 
d="M27 651v131h817v-131h-817z" />
    <glyph glyph-name="endash" unicode="&#x2013;" horiz-adv-x="937" 
d="M27 651v131h884v-131h-884z" />
    <glyph glyph-name="emdash" unicode="&#x2014;" horiz-adv-x="1705" 
d="M27 651v131h1652v-131h-1652z" />
    <glyph glyph-name="quoteleft" unicode="&#x2018;" horiz-adv-x="327" 
d="M82 1239l78 195h67l-51 -181h60v-198h-154v184z" />
    <glyph glyph-name="quoteright" unicode="&#x2019;" horiz-adv-x="327" 
d="M246 1251l-80 -196h-66l52 180h-60v199h154v-183z" />
    <glyph glyph-name="quotesinglbase" unicode="&#x201a;" horiz-adv-x="327" 
d="M246 14l-80 -194h-66l52 180h-60v199h154v-185z" />
    <glyph glyph-name="quotedblleft" unicode="&#x201c;" horiz-adv-x="555" 
d="M82 1239l78 195h67l-51 -181h60v-198h-154v184zM311 1239l78 195h66l-49 -181h57v-198h-152v184z" />
    <glyph glyph-name="quotedblright" unicode="&#x201d;" horiz-adv-x="555" 
d="M233 1249l-77 -194h-66l49 180h-57v199h151v-185zM463 1249l-78 -194h-68l52 180h-60v199h154v-185z" />
    <glyph glyph-name="quotedblbase" unicode="&#x201e;" horiz-adv-x="561" 
d="M246 14l-80 -194h-66l52 180h-60v199h154v-185zM479 14l-78 -194h-67l51 180h-59v199h153v-185z" />
    <glyph glyph-name="dagger" unicode="&#x2020;" horiz-adv-x="806" 
d="M469 1434v-383h279v-125h-279v-1059h-131v1059h-277v125h277v383h131z" />
    <glyph glyph-name="daggerdbl" unicode="&#x2021;" horiz-adv-x="806" 
d="M469 1434v-383h279v-125h-279v-549h279v-125h-279v-385h-131v385h-277v125h277v549h-277v125h277v383h131z" />
    <glyph glyph-name="bullet" unicode="&#x2022;" horiz-adv-x="671" 
d="M336 932q89 0 152 -63t63 -152t-63 -152t-152 -63t-152 63t-63 152t63 152t152 63z" />
    <glyph glyph-name="ellipsis" unicode="&#x2026;" horiz-adv-x="776" 
d="M82 199h154v-199h-154v199zM311 199h154v-199h-154v199zM541 199h153v-199h-153v199z" />
    <glyph glyph-name="perthousand" unicode="&#x2030;" horiz-adv-x="1775" 
d="M279 1442q101 0 152.5 -62.5t51.5 -169.5v-452q0 -108 -51.5 -170t-152.5 -62t-153 62t-52 170v452q0 107 52 169.5t153 62.5zM860 1434h96l-565 -1434h-96zM279 1348q-103 0 -103 -131v-467q0 -129 103 -129q102 0 102 129v467q0 131 -102 131zM983 905q102 0 153.5 -61
t51.5 -168v-451q0 -108 -51 -169.5t-154 -61.5q-101 0 -153 61.5t-52 169.5v451q0 106 52 167.5t153 61.5zM1497 905q102 0 153.5 -61t51.5 -168v-451q0 -108 -51 -169.5t-154 -61.5q-101 0 -153 61.5t-52 169.5v451q0 106 52 167.5t153 61.5zM983 811q-102 0 -102 -129
v-465q0 -131 102 -131t102 131v465q0 129 -102 129zM1497 811q-100 0 -100 -129v-465q0 -131 100 -131q102 0 102 131v465q0 129 -102 129z" />
    <glyph glyph-name="guilsinglleft" unicode="&#x2039;" horiz-adv-x="374" 
d="M176 170l-127 549l127 526h152l-127 -526l127 -549h-152z" />
    <glyph glyph-name="guilsinglright" unicode="&#x203a;" horiz-adv-x="374" 
d="M49 172l125 547l-125 526h150l129 -526l-129 -547h-150z" />
    <glyph glyph-name="fraction" unicode="&#x2044;" horiz-adv-x="335" 
d="M403 1434h97l-566 -1434h-96z" />
    <glyph glyph-name="zerosuperior" unicode="&#x2070;" horiz-adv-x="567" 
d="M74 940v467q0 109 53 170t156 61q104 0 157.5 -61.5t53.5 -169.5v-467q0 -108 -53.5 -169.5t-157.5 -61.5q-103 0 -156 61t-53 170zM176 1415v-483q0 -129 107 -129q106 0 106 129v483q0 129 -106 129q-107 0 -107 -129z" />
    <glyph glyph-name="foursuperior" unicode="&#x2074;" horiz-adv-x="579" 
d="M526 899h-71v-180h-103v180h-293v96l283 633h113v-633h71v-96zM352 1430l-198 -435h198v435z" />
    <glyph glyph-name="fivesuperior" unicode="&#x2075;" horiz-adv-x="563" 
d="M176 997v-67q0 -129 105 -129q104 0 104 129v176q0 129 -104 129q-41 0 -69 -24.5t-32 -71.5v-21h-98l27 508h358v-94h-268l-13 -272q44 71 136 71q84 0 125.5 -57.5t41.5 -159.5v-178q0 -108 -51.5 -169.5t-154.5 -61.5q-101 0 -153 61.5t-52 169.5v61h98z" />
    <glyph glyph-name="sixsuperior" unicode="&#x2076;" horiz-adv-x="567" 
d="M287 1638q103 0 155 -61t52 -168v-16h-99v22q0 129 -104 129q-58 0 -84.5 -35.5t-26.5 -109.5v-197q42 92 146 92q85 0 127.5 -57.5t42.5 -159.5v-137q0 -107 -53 -169t-156 -62t-157 62t-54 169v463q0 111 52.5 173t158.5 62zM287 1200q-107 0 -107 -131v-137
q0 -129 107 -129q106 0 106 129v137q0 131 -106 131z" />
    <glyph glyph-name="sevensuperior" unicode="&#x2077;" horiz-adv-x="563" 
d="M152 719l231 815h-307v94h413v-90l-235 -819h-102z" />
    <glyph glyph-name="eightsuperior" unicode="&#x2078;" horiz-adv-x="571" 
d="M285 1638q104 0 160.5 -59.5t56.5 -165.5v-31q0 -141 -101 -186q101 -46 101 -192v-68q0 -106 -56 -166.5t-161 -60.5q-104 0 -159.5 60.5t-55.5 166.5v68q0 146 98 192q-98 45 -98 186v31q0 105 56 165t159 60zM285 1544q-113 0 -113 -135v-43q0 -127 113 -127
q112 0 112 127v43q0 135 -112 135zM285 1145q-113 0 -113 -129v-78q0 -135 113 -135q112 0 112 135v78q0 129 -112 129z" />
    <glyph glyph-name="ninesuperior" unicode="&#x2079;" horiz-adv-x="567" 
d="M281 1638q103 0 155.5 -61.5t52.5 -169.5v-463q0 -111 -51.5 -173t-158.5 -62q-102 0 -154.5 61t-52.5 168v16h98v-22q0 -129 106 -129q111 0 111 145v197q-42 -92 -147 -92q-84 0 -126 57.5t-42 159.5v137q0 107 53 169t156 62zM281 1544q-107 0 -107 -129v-137
q0 -63 27 -97t80 -34q106 0 106 131v137q0 129 -106 129z" />
    <glyph glyph-name="zeroinferior" unicode="&#x2080;" horiz-adv-x="567" 
d="M74 88v467q0 109 53 170t156 61q104 0 157.5 -61.5t53.5 -169.5v-467q0 -108 -53.5 -169.5t-157.5 -61.5q-103 0 -156 61t-53 170zM176 563v-483q0 -129 107 -129q106 0 106 129v483q0 129 -106 129q-107 0 -107 -129z" />
    <glyph glyph-name="oneinferior" unicode="&#x2081;" horiz-adv-x="387" 
d="M186 -133v751q-52 -30 -125 -36v75q67 1 100.5 31.5t55.5 87.5h72v-909h-103z" />
    <glyph glyph-name="twoinferior" unicode="&#x2082;" horiz-adv-x="563" 
d="M291 788q103 0 154 -61.5t51 -169.5q0 -76 -32.5 -145.5t-78.5 -121.5t-91.5 -101t-77 -105.5t-30.5 -114.5v-8h299v-94h-401v78q0 68 23 128.5t57 102.5t74.5 87t74.5 84t57 93.5t23 114.5q0 139 -106 139q-105 0 -105 -133v-78h-98v72q0 108 51.5 170.5t155.5 62.5z
" />
    <glyph glyph-name="threeinferior" unicode="&#x2083;" horiz-adv-x="563" 
d="M283 786q102 0 153 -61t51 -170v-23q0 -143 -106 -186q106 -42 106 -188v-70q0 -109 -51 -170t-153 -61q-103 0 -155 61t-52 170v62h98v-70q0 -129 105 -129q106 0 106 139v70q0 133 -113 133h-55v94h59q50 0 79.5 33.5t29.5 91.5v41q0 139 -106 139q-105 0 -105 -129
v-47h-98v39q0 109 52 170t155 61z" />
    <glyph glyph-name="fourinferior" unicode="&#x2084;" horiz-adv-x="579" 
d="M526 45h-71v-182h-103v182h-293v94l283 633h113v-633h71v-94zM352 573l-198 -434h198v434z" />
    <glyph glyph-name="fiveinferior" unicode="&#x2085;" horiz-adv-x="563" 
d="M176 150v-68q0 -129 105 -129q104 0 104 129v176q0 129 -104 129q-41 0 -69 -24.5t-32 -71.5v-21h-98l27 508h358v-94h-268l-13 -274q44 71 136 71q84 0 125.5 -57.5t41.5 -157.5v-180q0 -107 -51.5 -168t-154.5 -61q-101 0 -153 61.5t-52 167.5v64h98z" />
    <glyph glyph-name="sixinferior" unicode="&#x2086;" horiz-adv-x="567" 
d="M287 786q103 0 155 -61t52 -168v-16h-99v22q0 129 -104 129q-58 0 -84.5 -35.5t-26.5 -109.5v-197q42 92 146 92q85 0 127.5 -57.5t42.5 -159.5v-137q0 -107 -53 -169t-156 -62t-157 62t-54 169v463q0 111 52.5 173t158.5 62zM287 348q-107 0 -107 -131v-137
q0 -129 107 -129q106 0 106 129v137q0 131 -106 131z" />
    <glyph glyph-name="seveninferior" unicode="&#x2087;" horiz-adv-x="563" 
d="M152 -129l231 815h-307v94h413v-90l-235 -819h-102z" />
    <glyph glyph-name="eightinferior" unicode="&#x2088;" horiz-adv-x="571" 
d="M285 786q104 0 160.5 -59.5t56.5 -165.5v-31q0 -141 -101 -186q101 -46 101 -192v-68q0 -106 -56 -166.5t-161 -60.5q-104 0 -159.5 60.5t-55.5 166.5v68q0 146 98 192q-98 45 -98 186v31q0 105 56 165t159 60zM285 692q-113 0 -113 -135v-43q0 -127 113 -127
q112 0 112 127v43q0 135 -112 135zM285 293q-113 0 -113 -129v-78q0 -135 113 -135q112 0 112 135v78q0 129 -112 129z" />
    <glyph glyph-name="nineinferior" unicode="&#x2089;" horiz-adv-x="567" 
d="M281 786q103 0 155.5 -61.5t52.5 -169.5v-463q0 -111 -51.5 -173t-158.5 -62q-102 0 -154.5 61t-52.5 168v16h98v-22q0 -129 106 -129q111 0 111 145v197q-42 -92 -147 -92q-84 0 -126 57.5t-42 159.5v137q0 107 53 169t156 62zM281 692q-107 0 -107 -129v-137
q0 -63 27 -97t80 -34q106 0 106 131v137q0 129 -106 129z" />
    <glyph glyph-name="Euro" unicode="&#x20ac;" horiz-adv-x="813" 
d="M117 874v213q0 169 78 265t237 96t237.5 -96t78.5 -265v-92h-150v101q0 207 -162 207t-162 -207v-222h357v-81h-357v-142h357v-84h-357v-229q0 -207 162 -207t162 207v111h150v-103q0 -168 -78.5 -264t-237.5 -96t-237 96t-78 264v221h-90v84h90v142h-90v81h90z" />
    <glyph glyph-name="uni20B9" unicode="&#x20b9;" horiz-adv-x="794" 
d="M731 1309h-229q97 -60 104 -209h125v-125h-125q-9 -143 -100 -228t-238 -85h-35l496 -662h-172l-494 662v122h164q221 0 224 191h-385v125h385q0 102 -57 155.5t-167 53.5h-161v125h665v-125z" />
    <glyph glyph-name="uni2117" unicode="&#x2117;" horiz-adv-x="1519" 
d="M760 1442q150 0 281 -55t223.5 -150.5t146 -230.5t53.5 -289q0 -205 -90.5 -371t-252 -260t-361.5 -94t-361.5 94t-252.5 260t-91 371q0 206 91 372t252.5 259.5t361.5 93.5zM760 1339q-170 0 -307.5 -81t-215 -223t-77.5 -318t77.5 -318.5t215 -223.5t307.5 -81
t307.5 81t215 223.5t77.5 318.5t-77.5 318t-215 223t-307.5 81zM582 1137h223q115 0 168 -59t53 -173v-94q0 -118 -55 -174.5t-174 -56.5h-105v-320h-110v877zM692 684h99q66 0 95 33t29 106v70q0 69 -27 105t-89 36h-107v-350z" />
    <glyph glyph-name="trademark" unicode="&#x2122;" horiz-adv-x="1193" 
d="M295 705h-102v634h-168v95h436v-95h-166v-634zM1034 1280l-141 -571h-98l-150 567v-571h-92v729h143l150 -570l143 570h144v-729h-99v575z" />
    <glyph glyph-name="uni2153" unicode="&#x2153;" horiz-adv-x="1220" 
d="M242 524v752q-54 -31 -125 -37v76q67 1 99.5 31.5t55.5 87.5h72v-910h-102zM803 1434h96l-565 -1434h-96zM938 920q103 0 155 -61.5t52 -170.5v-22q0 -144 -109 -187q109 -42 109 -188v-70q0 -109 -52 -170t-155 -61t-154 61t-51 170v62h98v-70q0 -129 105 -129
q104 0 104 139v70q0 133 -112 133h-56v94h60q51 0 80 33.5t28 91.5v41q0 139 -104 139q-105 0 -105 -129v-47h-98v39q0 109 51 170.5t154 61.5z" />
    <glyph glyph-name="uni2154" unicode="&#x2154;" horiz-adv-x="1265" 
d="M291 1444q103 0 154 -62t51 -170q0 -76 -32 -145t-78 -120.5t-91.5 -100.5t-77.5 -105t-31 -114v-11h299v-94h-401v78q0 69 23 130t57 102.5t74.5 87t74.5 84t57 92.5t23 114q0 140 -106 140q-105 0 -105 -133v-78h-98v73q0 108 51.5 170t155.5 62zM975 1434l-565 -1434
h-97l566 1434h96zM985 920q102 0 153.5 -61.5t51.5 -170.5v-22q0 -144 -109 -187q109 -42 109 -188v-70q0 -109 -51.5 -170t-153.5 -61q-103 0 -155 61t-52 170v62h99v-70q0 -129 104 -129t104 139v70q0 133 -112 133h-55v94h59q51 0 80 33.5t28 91.5v41q0 139 -104 139
t-104 -129v-47h-99v39q0 109 52 170.5t155 61.5z" />
    <glyph glyph-name="oneeighth" unicode="&#x215b;" horiz-adv-x="1230" 
d="M242 524v752q-54 -31 -125 -37v76q67 1 99.5 31.5t55.5 87.5h72v-910h-102zM334 0h-96l565 1434h96zM946 920q103 0 159 -60t56 -166v-30q0 -142 -98 -187q98 -46 98 -192v-68q0 -106 -55.5 -166.5t-159.5 -60.5q-105 0 -161 60.5t-56 166.5v68q0 146 100 192
q-100 44 -100 187v30q0 106 56.5 166t160.5 60zM946 825q-112 0 -112 -135v-43q0 -127 112 -127q113 0 113 127v43q0 135 -113 135zM946 426q-112 0 -112 -129v-78q0 -135 112 -135q113 0 113 135v78q0 129 -113 129z" />
    <glyph glyph-name="threeeighths" unicode="&#x215c;" horiz-adv-x="1282" 
d="M283 1444q102 0 153 -61.5t51 -170.5v-22q0 -143 -106 -186q106 -40 106 -189v-70q0 -109 -51 -170t-153 -61q-103 0 -155 61t-52 170v62h98v-70q0 -129 105 -129q106 0 106 140v69q0 133 -113 133h-55v94h59q50 0 79.5 33.5t29.5 91.5v41q0 140 -106 140
q-105 0 -105 -129v-47h-98v38q0 109 52 170.5t155 61.5zM872 1434h97l-566 -1434h-96zM997 920q104 0 159.5 -60t55.5 -166v-30q0 -144 -98 -187q98 -45 98 -192v-68q0 -106 -55.5 -166.5t-159.5 -60.5t-159.5 60.5t-55.5 166.5v68q0 147 99 192q-99 44 -99 187v30
q0 106 55.5 166t159.5 60zM997 825q-112 0 -112 -135v-43q0 -127 112 -127q113 0 113 127v43q0 135 -113 135zM997 426q-112 0 -112 -129v-78q0 -135 112 -135q113 0 113 135v78q0 129 -113 129z" />
    <glyph glyph-name="fiveeighths" unicode="&#x215d;" horiz-adv-x="1282" 
d="M305 0l565 1434h97l-566 -1434h-96zM199 1337l-13 -272q44 72 136 72q84 0 125.5 -57.5t41.5 -159.5v-179q0 -108 -51.5 -169.5t-154.5 -61.5q-101 0 -153 61.5t-52 169.5v62h98v-68q0 -129 105 -129q104 0 104 129v176q0 129 -104 129q-41 0 -69 -24.5t-32 -71.5v-20
h-98l27 508h358v-95h-268zM995 920q104 0 160.5 -60t56.5 -166v-30q0 -143 -100 -187q100 -46 100 -192v-68q0 -106 -56 -166.5t-161 -60.5q-104 0 -159.5 60.5t-55.5 166.5v68q0 145 99 192q-99 45 -99 187v30q0 106 56 166t159 60zM995 825q-112 0 -112 -135v-43
q0 -127 112 -127q113 0 113 127v43q0 135 -113 135zM995 426q-112 0 -112 -129v-78q0 -135 112 -135q113 0 113 135v78q0 129 -113 129z" />
    <glyph glyph-name="seveneighths" unicode="&#x215e;" horiz-adv-x="1216" 
d="M152 524l231 815h-307v95h413v-91l-235 -819h-102zM860 1434l-565 -1434h-96l565 1434h96zM930 920q104 0 160.5 -60t56.5 -166v-30q0 -143 -100 -187q100 -46 100 -192v-68q0 -106 -56 -166.5t-161 -60.5q-104 0 -159.5 60.5t-55.5 166.5v68q0 147 98 192
q-98 43 -98 187v30q0 106 55.5 166t159.5 60zM930 825q-113 0 -113 -135v-43q0 -127 113 -127q112 0 112 127v43q0 135 -112 135zM930 426q-113 0 -113 -129v-78q0 -135 113 -135q112 0 112 135v78q0 129 -112 129z" />
    <glyph glyph-name="minus" unicode="&#x2212;" horiz-adv-x="802" 
d="M61 774h680v-115h-680v115z" />
    <glyph glyph-name="infinity" unicode="&#x221e;" horiz-adv-x="1193" 
d="M829 989h27q128 0 199 -66t71 -190t-71 -189t-199 -65h-27q-174 0 -223 113q-52 -113 -229 -113h-25q-128 0 -200 65t-72 189t72 190t200 66h25q176 0 229 -115q49 115 223 115zM391 879h-37q-161 0 -161 -146q0 -140 161 -143h37q160 0 160 143q0 69 -40 107.5
t-120 38.5zM850 879h-37q-158 0 -158 -146q0 -68 36.5 -105t121.5 -38h37q81 0 122.5 37.5t41.5 105.5q0 69 -42 107.5t-122 38.5z" />
    <glyph glyph-name="approxequal" unicode="&#x2248;" horiz-adv-x="811" 
d="M256 1008q39 0 84 -20t79 -44t74.5 -44t71.5 -19q36 1 62.5 26t68.5 88l78 -77q-56 -86 -104.5 -121t-106.5 -37q-38 -1 -82 19t-77.5 43.5t-74 43.5t-73.5 19q-39 0 -68.5 -25t-72.5 -88l-78 72q59 88 110 125t109 39zM256 672q39 1 84 -19t79 -43.5t74.5 -43.5
t71.5 -19q35 0 61 24.5t70 87.5l78 -75q-56 -87 -104.5 -122.5t-106.5 -35.5q-48 -1 -104 30.5t-109.5 63t-93.5 31.5q-39 0 -68.5 -25.5t-72.5 -87.5l-78 72q59 88 110 125t109 37z" />
    <glyph glyph-name="commaaccentcomb" unicode="&#xf6c3;" horiz-adv-x="0" 
d="M281 -233l-72 -129h-59l47 114h-52v180h136v-165z" />
    <glyph glyph-name="NULL" horiz-adv-x="0" 
 />
    <glyph glyph-name="CR" horiz-adv-x="317" 
 />
    <glyph glyph-name="zero.alt" horiz-adv-x="796" 
d="M70 348v739q0 169 83 265t244 96q162 0 246 -96t84 -265v-739q0 -169 -84 -265.5t-246 -96.5q-160 0 -243.5 96.5t-83.5 265.5zM227 1096v-758q0 -99 42.5 -153t127.5 -54q86 0 128 54t42 153v758q0 209 -170 209q-85 0 -127.5 -54.5t-42.5 -154.5z" />
    <glyph glyph-name="one.alt" horiz-adv-x="522" 
d="M252 0v1174q-90 -56 -199 -62v131q56 2 98 17.5t70 43.5t45 58t33 72h111v-1434h-158z" />
    <glyph glyph-name="two.alt" horiz-adv-x="753" 
d="M385 1448q162 0 242 -96.5t80 -266.5q0 -89 -26.5 -170.5t-69.5 -145.5t-94.5 -124t-103.5 -116.5t-95 -112t-70.5 -121.5t-28.5 -135v-15h473v-145h-629v123q0 94 27 177t69.5 145.5t94.5 120.5t104 114t94.5 113.5t69.5 131t27 154.5q0 226 -168 226q-85 0 -126.5 -56
t-41.5 -155v-127h-150v116q0 170 80.5 267.5t241.5 97.5z" />
    <glyph glyph-name="three.alt" horiz-adv-x="772" 
d="M387 1448q160 0 241 -96t81 -265v-36q0 -111 -44 -187t-130 -108q174 -65 174 -297v-111q0 -169 -81 -265.5t-241 -96.5q-161 0 -242.5 96t-81.5 266v98h152v-108q0 -207 168 -207t168 221v111q0 106 -45 158t-137 55h-86v143h96q81 3 126.5 54t45.5 143v65
q0 224 -168 224t-168 -209v-74h-152v65q0 169 81.5 265t242.5 96z" />
    <glyph glyph-name="four.alt" horiz-adv-x="819" 
d="M778 289h-114v-289h-158v289h-461v145l444 1000h175v-1000h114v-145zM506 1128l-313 -694h313v694z" />
    <glyph glyph-name="five.alt" horiz-adv-x="774" 
d="M254 1290l-23 -440q69 119 215 119q133 0 199 -90.5t66 -249.5v-281q0 -170 -81.5 -266t-242.5 -96q-160 0 -240.5 96t-80.5 266v96h149v-106q0 -99 42 -153t126 -54q168 0 168 207v278q0 207 -168 207q-68 0 -109.5 -38.5t-50.5 -114.5v-33h-151l41 797h565v-144h-424z
" />
    <glyph glyph-name="six.alt" horiz-adv-x="790" 
d="M399 1448q161 0 242.5 -94.5t81.5 -263.5v-27h-152v37q0 205 -168 205q-176 0 -176 -232v-321q64 153 234 153q133 0 199.5 -90t66.5 -250v-217q0 -169 -84 -265.5t-246 -96.5q-160 0 -243.5 96.5t-83.5 265.5v731q0 176 81 272.5t248 96.5zM397 760q-85 0 -127.5 -54
t-42.5 -153v-215q0 -99 42.5 -153t127.5 -54q86 0 128 54t42 153v215q0 99 -42 153t-128 54z" />
    <glyph glyph-name="seven.alt" horiz-adv-x="714" 
d="M162 0l354 1290h-475v144h633v-140l-352 -1294h-160z" />
    <glyph glyph-name="eight.alt" horiz-adv-x="804" 
d="M401 1448q165 0 252.5 -93t87.5 -261v-45q0 -233 -163 -295q163 -64 163 -303v-107q0 -169 -87 -263.5t-253 -94.5q-165 0 -251.5 94.5t-86.5 263.5v107q0 235 166 303q-166 65 -166 295v45q0 168 87 261t251 93zM401 1305q-85 0 -131.5 -53.5t-46.5 -161.5v-70
q0 -201 178 -201q181 0 181 201v70q0 215 -181 215zM401 676q-178 0 -178 -207v-121q0 -109 46 -163t132 -54q181 0 181 217v121q0 207 -181 207z" />
    <glyph glyph-name="nine.alt" horiz-adv-x="790" 
d="M393 1448q161 0 244.5 -96.5t83.5 -264.5v-731q0 -176 -81.5 -273t-248.5 -97q-160 0 -241.5 95.5t-81.5 264.5v27h149v-37q0 -99 42.5 -152t127.5 -53q176 0 176 229v322q-64 -152 -233 -152q-133 0 -200 89t-67 249v219q0 169 84 265t246 96zM393 1303
q-170 0 -170 -207v-215q0 -99 42 -153t128 -54q85 0 127.5 54t42.5 153v215q0 100 -42.5 153.5t-127.5 53.5z" />
    <glyph glyph-name="Edotaaccent" horiz-adv-x="829" 
 />
    <glyph glyph-name="edotaaccent" horiz-adv-x="829" 
 />
    <glyph glyph-name="lcute" horiz-adv-x="829" 
 />
    </font>
</defs>
</svg>
